<?xml version="1.0" standalone="no"?>
<!DOCTYPE svg PUBLIC "-//W3C//DTD SVG 1.1//EN" "http://www.w3.org/Graphics/SVG/1.1/DTD/svg11.dtd" >
<svg xmlns="http://www.w3.org/2000/svg" xmlns:xlink="http://www.w3.org/1999/xlink" version="1.1">
<metadata>
Created by FontForge 20201107 at Fri May 24 21:06:22 2024
 By 
Copyright 2016 The Inter Project Authors (https://github.com/rsms/inter)
</metadata>
<defs>
<font id="Inter-Italic" horiz-adv-x="0" >
  <font-face 
    font-family="Inter"
    font-weight="400"
    font-style="italic"
    font-stretch="normal"
    units-per-em="2048"
    panose-1="2 0 5 3 0 0 0 2 0 4"
    ascent="1638"
    descent="-410"
    x-height="1118"
    cap-height="1490"
    bbox="-1524 -660 5322 2269"
    underline-thickness="140"
    underline-position="-418"
    slope="-9.3988"
    unicode-range="U+0020-1F852"
  />
<missing-glyph horiz-adv-x="1344" 
d="M855 -416h-688l376 2272h688zM388 -192l-10 -64h320l10 64h-215l236 127l11 65h-320l-11 -64h216zM473 320l-42 -256h320l42 256h-320zM697 128h-192l21 128h192zM537 704l-43 -256h320l43 256h-192l-22 -128h64l11 64h64l-21 -128h-192l32 192h-64zM558 832l-11 -64h320
l37 224h-64l-26 -160h-256zM579 960l-11 -64h192l27 160h128l10 64h-320l-10 -64h128l-16 -96h-128zM755 1248h-64l15 96h64zM653 1408l-37 -224h320l11 64h-128l26 160h-192zM674 1536l-10 -64h320l10 64h-144l16 96h144l11 64h-320l-11 -64h112l-16 -96h-112z" />
    <glyph glyph-name=".notdef" horiz-adv-x="1344" 
d="M855 -416h-688l376 2272h688zM388 -192l-10 -64h320l10 64h-215l236 127l11 65h-320l-11 -64h216zM473 320l-42 -256h320l42 256h-320zM697 128h-192l21 128h192zM537 704l-43 -256h320l43 256h-192l-22 -128h64l11 64h64l-21 -128h-192l32 192h-64zM558 832l-11 -64h320
l37 224h-64l-26 -160h-256zM579 960l-11 -64h192l27 160h128l10 64h-320l-10 -64h128l-16 -96h-128zM755 1248h-64l15 96h64zM653 1408l-37 -224h320l11 64h-128l26 160h-192zM674 1536l-10 -64h320l10 64h-144l16 96h144l11 64h-320l-11 -64h112l-16 -96h-112z" />
    <glyph glyph-name=".null" horiz-adv-x="1200" 
 />
    <glyph glyph-name="nonmarkingreturn" horiz-adv-x="682" 
 />
    <glyph glyph-name="space" unicode=" " horiz-adv-x="576" 
 />
    <glyph glyph-name="exclam" unicode="!" horiz-adv-x="589" 
d="M189 479l156 1011h204l-181 -1011h-179zM210 -13q-58 0 -94.5 43t-26.5 104q9 53 51.5 87.5t91.5 34.5q61 0 95.5 -43t26.5 -100q-7 -52 -49 -89t-95 -37z" />
    <glyph glyph-name="quotedbl" unicode="&#x22;" horiz-adv-x="954" 
d="M292 923l72 567h194l-115 -567h-151zM632 923l72 567h194l-115 -567h-151z" />
    <glyph glyph-name="numbersign" unicode="#" horiz-adv-x="1297" 
d="M729 0l270 1490h153l-270 -1490h-153zM60 411l27 150h1116l-29 -150h-1114zM205 0l272 1490h151l-270 -1490h-153zM156 927l27 152h1116l-29 -152h-1114z" />
    <glyph glyph-name="dollar" unicode="$" horiz-adv-x="1312" 
d="M468 -218l319 1926h120l-319 -1926h-120zM575 -26q-160 0 -274 51.5t-170 145.5t-44 219h195q-6 -84 34 -138.5t111.5 -81t159.5 -26.5q101 0 187 33t143 92.5t70 139.5q12 72 -20.5 116.5t-94.5 73.5t-140 52l-172 51q-160 47 -250.5 139t-65.5 248q20 126 99.5 221
t200.5 147.5t266 52.5t253.5 -51.5t164 -141t40.5 -203.5h-185q5 108 -76 168t-215 60q-97 0 -174 -31t-126 -85.5t-61 -123.5q-13 -78 26.5 -126t102 -74.5t115.5 -42.5l142 -41q56 -16 123.5 -43.5t126.5 -73.5t90 -118t14 -177q-20 -122 -95.5 -220t-201.5 -155t-299 -57
z" />
    <glyph glyph-name="percent" unicode="%" horiz-adv-x="2011" 
d="M567 831q-96 0 -154.5 42t-79.5 111t-8 150l13 78q14 81 59 150t117.5 110.5t166.5 41.5q97 0 155 -41.5t79 -110.5t7 -150l-13 -78q-13 -81 -57.5 -150t-116.5 -111t-168 -42zM589 962q76 0 116 52.5t51 119.5l13 78q11 68 -11 120t-99 52q-73 0 -115 -52t-53 -120
l-13 -78q-11 -67 11.5 -119.5t99.5 -52.5zM1392 -29q-96 0 -154.5 42t-79.5 111t-8 150l13 78q14 81 59 150t117.5 110.5t166.5 41.5q97 0 155 -41.5t79 -110.5t7 -150l-13 -78q-13 -81 -57.5 -150t-116.5 -111t-168 -42zM1414 102q76 0 116 52.5t51 119.5l13 78
q11 68 -11 120t-99 52q-73 0 -115 -52t-53 -120l-13 -78q-11 -67 11.5 -119.5t99.5 -52.5zM311 0l1271 1490h169l-1271 -1490h-169z" />
    <glyph glyph-name="ampersand" unicode="&#x26;" horiz-adv-x="1412" 
d="M495 -20q-150 0 -250 56t-143 151.5t-24 213.5q16 95 66.5 164.5t129 130t178.5 125.5l249 163q31 20 68 48.5t68 69.5t40 96q11 67 -26.5 109t-114.5 42q-59 0 -108 -24.5t-81 -68t-42 -100.5q-9 -53 7 -103t49.5 -104.5t78.5 -121.5l552 -827h-213l-450 683
q-64 97 -115.5 174.5t-76 153.5t-9.5 168q16 96 71.5 169t142 114.5t194.5 41.5q115 0 191 -45t109 -120.5t17 -167.5q-10 -65 -43.5 -121.5t-84.5 -104.5t-116 -91l-336 -221q-104 -68 -153.5 -128t-61.5 -134q-11 -70 13.5 -123t80 -82t135.5 -29q90 0 180.5 37t168 106
t132.5 165t74 213h173q-24 -150 -72.5 -246t-100 -151t-84.5 -83l-46 -45q-87 -79 -201 -116t-216 -37z" />
    <glyph glyph-name="quotesingle" unicode="'" horiz-adv-x="614" 
d="M292 923l72 567h194l-115 -567h-151z" />
    <glyph glyph-name="parenleft" unicode="(" horiz-adv-x="747" 
d="M226 608q27 162 89.5 340.5t148.5 344t181 288.5h175q-104 -159 -188.5 -328.5t-141.5 -334.5t-81 -309q-22 -132 -18 -268.5t34 -288.5t87 -331h-175q-93 221 -120 446t9 441z" />
    <glyph glyph-name="parenright" unicode=")" horiz-adv-x="746" 
d="M-43 -280q115 176 195.5 327t130 289t71.5 271q24 146 21.5 310.5t-30.5 334t-80 328.5h176q54 -123 84.5 -288.5t34 -344t-23.5 -341.5q-36 -217 -137.5 -442.5t-265.5 -443.5h-176z" />
    <glyph glyph-name="asterisk" unicode="*" horiz-adv-x="1026" 
d="M455 652l68 317l-295 -171l-50 126l302 146l-258 146l92 128l242 -171l39 317h144l-64 -317l291 171l54 -128l-304 -146l260 -146l-93 -126l-241 171l-43 -317h-144z" />
    <glyph glyph-name="plus" unicode="+" horiz-adv-x="1356" 
d="M517 100l160 966h169l-160 -966h-169zM185 497l28 172h965l-28 -172h-965z" />
    <glyph glyph-name="comma" unicode="," horiz-adv-x="589" 
d="M-23 -359l182 567h206l-250 -567h-138z" />
    <glyph glyph-name="hyphen" unicode="-" horiz-adv-x="944" 
d="M826 719l-28 -166h-654l28 166h654z" />
    <glyph glyph-name="period" unicode="." horiz-adv-x="589" 
d="M210 -13q-58 0 -94.5 43t-26.5 104q9 53 51.5 87.5t91.5 34.5q61 0 95.5 -43t26.5 -100q-7 -52 -49 -89t-95 -37z" />
    <glyph glyph-name="slash" unicode="/" horiz-adv-x="738" 
d="M858 1560l-774 -1784h-166l774 1784h166z" />
    <glyph glyph-name="zero" unicode="0" horiz-adv-x="1291" 
d="M550 -20q-166 0 -268.5 90t-136 261t6.5 413q40 243 131 414t223.5 261.5t296.5 90.5t266.5 -90t137 -260.5t-5.5 -412.5q-40 -245 -130 -416.5t-222.5 -261t-298.5 -89.5zM577 146q110 0 198 71.5t150 206t93 323.5q31 186 14 320t-81 206t-175 72q-107 0 -195 -69.5
t-151 -204t-95 -328.5q-31 -188 -13.5 -321.5t82 -204.5t173.5 -71z" />
    <glyph glyph-name="one" unicode="1" horiz-adv-x="834" 
d="M808 1490l-247 -1490h-186l218 1314h-10l-405 -267l34 204l364 239h232z" />
    <glyph glyph-name="two" unicode="2" horiz-adv-x="1249" 
d="M61 0l23 137l583 537q99 91 166 160t104.5 130.5t48.5 130.5q13 79 -12 134.5t-79.5 85.5t-132.5 30q-84 0 -156 -34.5t-120.5 -96.5t-62.5 -147h-181q22 132 97.5 231.5t187.5 155.5t245 56q134 0 229 -56t139.5 -150.5t24.5 -211.5q-10 -61 -36.5 -119.5t-75 -122.5
t-126 -143t-190.5 -181l-384 -347l-2 -12h686l-27 -167h-949z" />
    <glyph glyph-name="three" unicode="3" horiz-adv-x="1264" 
d="M548 -20q-145 0 -252.5 49.5t-161.5 139t-39 207.5h192q-6 -71 28 -122.5t99 -79t149 -27.5q93 0 171.5 32t130.5 90.5t65 136.5q14 81 -16.5 143t-102 97t-182.5 35h-121l28 165h121q86 0 157 31t118 87.5t60 134.5q13 75 -10.5 130t-78 85.5t-135.5 30.5
q-77 0 -148.5 -27.5t-122 -79t-65.5 -123.5h-183q24 118 103 206.5t194 138.5t245 50q138 0 231 -55.5t134.5 -146.5t23.5 -197q-21 -127 -102.5 -215t-200.5 -122l-2 -12q94 -15 153 -64.5t82 -125t7 -168.5q-20 -123 -101 -218.5t-202.5 -150.5t-265.5 -55z" />
    <glyph glyph-name="four" unicode="4" horiz-adv-x="1325" 
d="M79 303l25 155l823 1032h116l-39 -238h-78l-615 -770l-2 -12h882l-27 -167h-1085zM730 0l57 349l13 73l177 1068h181l-247 -1490h-181z" />
    <glyph glyph-name="five" unicode="5" horiz-adv-x="1213" 
d="M501 -20q-131 0 -226.5 51.5t-143 141t-33.5 203.5h184q-7 -98 57.5 -163.5t179.5 -65.5q89 0 168.5 41.5t135 116t70.5 171.5q16 98 -12.5 172.5t-92.5 117t-155 42.5q-67 0 -146 -21.5t-130 -56.5l-174 22l211 738h784l-28 -167h-624l-124 -435h8q52 38 126 62.5
t151 24.5q136 0 232.5 -64.5t140 -177.5t18.5 -259q-24 -142 -106.5 -254t-205 -176t-265.5 -64z" />
    <glyph glyph-name="six" unicode="6" horiz-adv-x="1267" 
d="M565 -20q-93 0 -183 34t-156 114t-92 217t8 343q33 197 93.5 350t146 258t193 159.5t233.5 54.5t220.5 -50t147 -139t50.5 -206h-186q-9 102 -66.5 164.5t-169.5 62.5q-114 0 -209 -67t-162 -193.5t-97 -305.5h12q53 65 113 109t128 66.5t142 22.5q129 0 228.5 -63.5
t148.5 -175t25 -255.5q-23 -140 -100.5 -253.5t-197 -180t-270.5 -66.5zM567 147q89 0 170.5 44t138.5 119.5t73 168.5q16 91 -10 166t-87.5 119.5t-152.5 44.5q-68 0 -132.5 -27t-118 -73.5t-89 -106t-46.5 -125.5q-14 -87 12.5 -162.5t88.5 -121.5t153 -46z" />
    <glyph glyph-name="seven" unicode="7" horiz-adv-x="1161" 
d="M98 0l879 1311l2 12h-753l28 167h963l-30 -177l-878 -1313h-211z" />
    <glyph glyph-name="eight" unicode="8" horiz-adv-x="1264" 
d="M545 -20q-151 0 -260 53.5t-160 147.5t-31 216q16 95 67.5 175t126 133.5t158.5 68.5l1 8q-103 28 -151.5 120.5t-29.5 210.5q19 116 91.5 205.5t182.5 140.5t241 51q130 0 226.5 -51.5t143.5 -140.5t28 -203q-13 -80 -54 -149t-101.5 -117t-134.5 -67l-1 -8
q78 -15 135 -69t83.5 -134.5t9.5 -176.5q-21 -121 -100 -214.5t-200.5 -146.5t-270.5 -53zM555 145q97 0 177 32t132 91t65 140q13 82 -16.5 145t-94 99.5t-157.5 36.5q-91 0 -171.5 -35t-136 -98t-70.5 -147q-14 -78 12.5 -137.5t92 -93t167.5 -33.5zM672 848
q80 0 148.5 32t114.5 89.5t58 132.5t-11.5 129.5t-77.5 84.5t-134 30t-148.5 -29.5t-114.5 -84t-59 -131.5q-13 -76 10.5 -133t78.5 -88.5t135 -31.5z" />
    <glyph glyph-name="nine" unicode="9" horiz-adv-x="1268" 
d="M524 -20q-126 0 -222 50t-148.5 140t-50.5 209h188q8 -101 64 -166t171 -65q113 0 208.5 66.5t163 193.5t97.5 308h-12q-51 -62 -113.5 -107t-132.5 -68.5t-146 -23.5q-130 0 -228 64t-144.5 176t-22.5 255q23 134 98.5 248.5t196.5 183.5t277 66q94 -1 183 -36t154 -115
t90.5 -216t-8.5 -340q-33 -196 -93 -349t-144.5 -259t-191.5 -160.5t-234 -54.5zM638 683q66 0 129 26t115 71.5t87.5 105t47.5 126.5q15 86 -13.5 161.5t-93 122.5t-157.5 47q-88 0 -167.5 -44t-134.5 -119.5t-70 -170.5q-14 -88 13 -162.5t89.5 -119t154.5 -44.5z" />
    <glyph glyph-name="colon" unicode=":" horiz-adv-x="590" 
d="M211 -13q-58 0 -94.5 43t-26.5 104q9 53 51.5 87.5t91.5 34.5q61 0 95.5 -43t26.5 -100q-7 -52 -49 -89t-95 -37zM344 796q-58 0 -94.5 43t-26.5 104q9 53 51.5 87.5t91.5 34.5q61 0 95.5 -43t26.5 -100q-7 -52 -49 -89t-95 -37z" />
    <glyph glyph-name="semicolon" unicode=";" horiz-adv-x="616" 
d="M-23 -359l182 567h206l-250 -567h-138zM371 796q-58 0 -94.5 43t-26.5 104q9 53 51.5 87.5t91.5 34.5q61 0 95.5 -43t26.5 -100q-7 -52 -49 -89t-95 -37z" />
    <glyph glyph-name="less" unicode="&#x3c;" horiz-adv-x="1356" 
d="M168 520l22 126l1020 476l-30 -196l-773 -341l4 12l-2 -28l-6 10l663 -341l-33 -194z" />
    <glyph glyph-name="equal" unicode="=" horiz-adv-x="1356" 
d="M255 717l27 166h904l-27 -166h-904zM182 283l27 166h904l-27 -166h-904z" />
    <glyph glyph-name="greater" unicode="&#x3e;" horiz-adv-x="1356" 
d="M1173 520l-1020 -476l33 194l770 341l-4 -10l2 28l6 -12l-659 341l29 196l865 -476z" />
    <glyph glyph-name="question" unicode="?" horiz-adv-x="1047" 
d="M364 449l2 11q25 136 64 211t95 118.5t132 84.5q72 40 127.5 101.5t69.5 148.5q12 70 -12.5 120.5t-74.5 78.5t-118 28q-59 0 -117.5 -24.5t-103.5 -76.5t-64 -135h-190q26 126 95.5 214t170.5 134.5t219 46.5q130 0 221.5 -50.5t133.5 -139.5t23 -203q-20 -121 -87 -207
t-174 -145q-71 -39 -115.5 -75.5t-71 -89t-42.5 -140.5l-2 -11h-181zM381 -13q-56 0 -89 39.5t-24 94.5q9 56 55 95.5t102 39.5t88.5 -39.5t23.5 -95.5q-9 -55 -54.5 -94.5t-101.5 -39.5z" />
    <glyph glyph-name="at" unicode="@" horiz-adv-x="1975" 
d="M901 -395q-223 0 -387 61t-265.5 178.5t-135.5 289t2 391.5q35 214 121.5 383t219.5 287.5t308 180.5t387 62q206 0 353 -66.5t236 -180t121 -255.5t7 -294q-17 -105 -44.5 -213t-75 -198.5t-124.5 -145.5t-194 -55q-75 0 -129 20.5t-82.5 58.5t-27.5 89h-8
q-36 -62 -114 -111.5t-194 -49.5q-132 0 -213 65t-110 177.5t-6 253.5q22 136 91.5 242t171.5 167.5t221 61.5q98 0 160 -35.5t81 -71.5h10l14 83h159l-110 -659q-10 -58 13 -104t89 -46q73 0 121.5 50t81.5 154.5t60 267.5q21 125 -1.5 241.5t-91 209t-187 147t-291.5 54.5
q-171 0 -315 -52.5t-255 -153t-184 -245t-103 -327.5t-5.5 -325.5t103 -240.5t211 -149t318.5 -51q79 0 160 15t146.5 33t96.5 28l19 -140q-48 -19 -119.5 -38t-152 -31.5t-157.5 -12.5zM899 190q97 0 163.5 39t107 117.5t59.5 196.5q20 118 1.5 185.5t-72.5 96t-143 28.5
q-81 0 -146.5 -42t-108.5 -112.5t-57 -156.5q-15 -94 -3 -174.5t60 -129t139 -48.5z" />
    <glyph glyph-name="A" unicode="A" horiz-adv-x="1413" 
d="M-41 0l788 1490h220l301 -1490h-192l-169 884q-13 71 -33 199t-43 318h36q-81 -181 -141.5 -308t-102.5 -209l-454 -884h-210zM300 416l27 166h765l-27 -166h-765z" />
    <glyph glyph-name="B" unicode="B" horiz-adv-x="1340" 
d="M87 0l247 1490h522q156 0 249.5 -54.5t130 -146t18.5 -202.5q-14 -91 -58.5 -153t-107.5 -99.5t-134 -56.5v-10q70 -4 132.5 -49.5t95.5 -129t14 -201.5q-18 -112 -83 -199.5t-182 -138t-292 -50.5h-552zM305 167h345q177 0 264 73.5t103 173.5q12 74 -16.5 133t-91 94
t-154.5 35h-365zM416 836h323q79 0 150 33t121 92.5t63 139.5q16 93 -37.5 157.5t-199.5 64.5h-339z" />
    <glyph glyph-name="C" unicode="C" horiz-adv-x="1495" 
d="M698 -20q-169 0 -295 72t-195 206.5t-69 321.5q0 176 55 342.5t158 299t249 210.5t328 78q115 0 211.5 -33t168 -96t111 -153.5t40.5 -206.5h-190q-3 76 -30.5 134t-74.5 98t-109 60.5t-134 20.5q-140 0 -251 -64t-188.5 -172t-118.5 -241.5t-41 -271.5q0 -140 49 -236
t135 -144.5t198 -48.5q76 0 148.5 20.5t136 60.5t112.5 98t77 134h191q-39 -114 -106 -204t-156.5 -154t-193.5 -97.5t-216 -33.5z" />
    <glyph glyph-name="D" unicode="D" horiz-adv-x="1477" 
d="M585 0h-393l27 168h348q183 0 314.5 70t212 200.5t109.5 309.5q30 180 -7.5 308.5t-142 197t-276.5 68.5h-374l28 168h363q218 0 364 -89.5t207 -256t22 -398.5q-39 -235 -142.5 -401.5t-269 -255.5t-390.5 -89zM524 1490l-247 -1490h-190l247 1490h190z" />
    <glyph glyph-name="E" unicode="E" horiz-adv-x="1232" 
d="M87 0l247 1490h908l-28 -167h-718l-80 -487h669l-28 -167h-670l-83 -502h727l-27 -167h-917z" />
    <glyph glyph-name="F" unicode="F" horiz-adv-x="1209" 
d="M87 0l247 1490h901l-28 -167h-711l-85 -512h643l-27 -167h-643l-107 -644h-190z" />
    <glyph glyph-name="G" unicode="G" horiz-adv-x="1527" 
d="M704 -20q-175 0 -301.5 72t-195 205.5t-68.5 318.5q0 177 54 344t156 300t247.5 211.5t327.5 78.5q120 0 219 -35.5t170.5 -100t111 -154t41.5 -197.5h-196q-11 72 -38.5 129t-71.5 98t-105 62.5t-138 21.5q-138 0 -247.5 -64t-187 -172t-118.5 -241t-41 -271
q0 -211 108 -320.5t280 -109.5q129 0 236.5 55t179.5 155t94 234l53 -17h-443l28 166h572l-28 -169q-23 -138 -85 -248.5t-155 -189t-210 -120.5t-249 -42z" />
    <glyph glyph-name="H" unicode="H" horiz-adv-x="1522" 
d="M87 0l247 1490h190l-107 -644h782l107 644h190l-247 -1490h-190l113 678h-783l-112 -678h-190z" />
    <glyph glyph-name="I" unicode="I" horiz-adv-x="550" 
d="M524 1490l-247 -1490h-190l247 1490h190z" />
    <glyph glyph-name="J" unicode="J" horiz-adv-x="1169" 
d="M458 -20q-175 0 -281.5 91.5t-106.5 260.5q0 15 1.5 33.5t6 51.5t13.5 89h190q-8 -52 -12.5 -80.5t-5.5 -43t-1 -25.5q0 -102 57.5 -156t157.5 -54q112 0 194.5 70t105.5 209l177 1064h190l-177 -1064q-35 -212 -172.5 -329t-336.5 -117z" />
    <glyph glyph-name="K" unicode="K" horiz-adv-x="1376" 
d="M288 426l24 203q63 70 124.5 134t124.5 125t128 121l525 481h258l-749 -682l-11 1zM87 0l247 1490h191l-85 -510l-57 -321l-12 -93l-93 -566h-191zM1017 0l-412 758l125 148l496 -906h-209z" />
    <glyph glyph-name="L" unicode="L" horiz-adv-x="1158" 
d="M87 0l247 1490h190l-219 -1322h690l-28 -168h-880z" />
    <glyph glyph-name="M" unicode="M" horiz-adv-x="1850" 
d="M87 0l247 1490h270l211 -940q8 -34 16.5 -84.5t17 -108.5t16 -115t12.5 -104h-42q23 50 50 108t54.5 115.5t52 106.5t42.5 82l519 940h271l-247 -1490h-187l140 851q8 50 19 112t23.5 128t25 130.5t22.5 120.5h16q-33 -70 -68.5 -142t-69 -138t-62 -120.5t-48.5 -90.5
l-474 -851h-165l-197 851q-10 46 -24.5 123.5t-31 173.5t-34.5 194h19q-8 -60 -17.5 -126t-19.5 -131.5t-19 -125.5t-17 -108l-140 -851h-181z" />
    <glyph glyph-name="N" unicode="N" horiz-adv-x="1543" 
d="M87 0l247 1490h218l448 -953q14 -30 38.5 -86.5t53 -132t54.5 -163.5h-21q5 86 14 163.5t19 143.5t18 114l151 914h190l-247 -1490h-219l-400 848q-25 54 -51.5 115.5t-61 148.5t-86.5 217h28q-15 -121 -26.5 -214t-20 -159t-15.5 -106l-140 -850h-191z" />
    <glyph glyph-name="O" unicode="O" horiz-adv-x="1566" 
d="M699 -20q-169 0 -295 72t-195.5 206.5t-69.5 321.5q0 177 55 343.5t159 298.5t250 210t327 78q169 0 294 -72t194.5 -206t69.5 -321q0 -178 -55 -344.5t-158.5 -299t-249 -210t-326.5 -77.5zM706 156q140 0 251 64t188.5 172t118 241.5t40.5 272.5q0 140 -48.5 235.5
t-134.5 144t-198 48.5q-140 0 -251 -64t-189 -172t-119 -241t-41 -272q0 -140 49 -235.5t135.5 -144.5t198.5 -49z" />
    <glyph glyph-name="P" unicode="P" horiz-adv-x="1308" 
d="M87 0l247 1490h510q173 0 275 -62.5t139.5 -169.5t15.5 -240q-21 -133 -93.5 -241.5t-195.5 -173t-297 -64.5h-361l28 167h351q121 0 199.5 41.5t122 112.5t57.5 157q14 87 -7 156t-86.5 109.5t-185.5 40.5h-310l-219 -1323h-190z" />
    <glyph glyph-name="Q" unicode="Q" horiz-adv-x="1566" 
d="M740 466h182l130 -218l32 -58l194 -330h-182l-126 218l-33 56zM699 -20q-169 0 -295 72t-195.5 206.5t-69.5 321.5q0 177 55 343.5t159 298.5t250 210t327 78q169 0 294 -72t194.5 -206t69.5 -321q0 -178 -55 -344.5t-158.5 -299t-249 -210t-326.5 -77.5zM706 156
q140 0 251 64t188.5 172t118 241.5t40.5 272.5q0 140 -48.5 235.5t-134.5 144t-198 48.5q-140 0 -251 -64t-189 -172t-119 -241t-41 -272q0 -140 49 -235.5t135.5 -144.5t198.5 -49z" />
    <glyph glyph-name="R" unicode="R" horiz-adv-x="1318" 
d="M87 0l247 1490h510q176 0 278.5 -60t139 -164t14.5 -236t-93 -234t-193 -160t-296 -58h-405l28 169h395q119 0 197 34.5t121 98.5t57 150q23 139 -43 216t-238 77h-310l-219 -1323h-190zM943 0l-249 671h214l255 -671h-220z" />
    <glyph glyph-name="S" unicode="S" horiz-adv-x="1312" 
d="M575 -26q-160 0 -274 51.5t-170 145.5t-44 219h195q-6 -84 34 -138.5t111.5 -81t159.5 -26.5q101 0 187 33t143 92.5t70 139.5q12 72 -20.5 116.5t-94.5 73.5t-140 52l-172 51q-160 47 -250.5 139t-65.5 248q20 126 99.5 221t200.5 147.5t266 52.5t253.5 -51.5t164 -141
t40.5 -203.5h-185q5 108 -76 168t-215 60q-97 0 -174 -31t-126 -85.5t-61 -123.5q-13 -78 26.5 -126t102 -74.5t115.5 -42.5l142 -41q56 -16 123.5 -43.5t126.5 -73.5t90 -118t14 -177q-20 -122 -95.5 -220t-201.5 -155t-299 -57z" />
    <glyph glyph-name="T" unicode="T" horiz-adv-x="1324" 
d="M226 1323l28 167h1126l-28 -167h-467l-219 -1323h-190l219 1323h-469z" />
    <glyph glyph-name="U" unicode="U" horiz-adv-x="1523" 
d="M677 -24q-179 0 -301 70.5t-175.5 192.5t-28.5 275l162 976h190l-161 -974q-18 -109 15 -191t111 -127.5t195 -45.5q123 0 221 49t161.5 134t81.5 194l159 961h190l-163 -989q-25 -154 -115.5 -272.5t-229.5 -185.5t-312 -67z" />
    <glyph glyph-name="V" unicode="V" horiz-adv-x="1413" 
d="M507 0l-301 1490h200l169 -884q17 -90 35 -210.5t41 -305.5h-36q81 182 141.5 308t102.5 208l454 884h202l-789 -1490h-219z" />
    <glyph glyph-name="W" unicode="W" horiz-adv-x="2018" 
d="M365 0l-159 1490h194l84 -914q7 -73 11.5 -148.5t8 -153t4.5 -159.5h-24q28 82 57 159.5t59.5 153t61.5 148.5l393 914h216l88 -914q7 -73 12.5 -148.5t9.5 -153t6 -159.5h-27q28 82 57.5 159.5t59.5 153t61 148.5l386 914h196l-655 -1490h-221l-99 944
q-10 93 -14.5 199.5t-3.5 251.5h39q-44 -137 -83.5 -243.5t-83.5 -207.5l-412 -944h-222z" />
    <glyph glyph-name="X" unicode="X" horiz-adv-x="1397" 
d="M-36 0l720 833l-23 -141l-417 798h211l162 -316q36 -69 58.5 -117t40.5 -94t39 -111h-33q43 64 77 110.5t73 95t98 116.5l272 316h224l-681 -790l23 140l439 -840h-211l-198 378q-32 62 -53.5 106.5t-39 89t-38.5 106.5h40q-40 -61 -73 -106t-70 -89.5t-90 -106.5
l-326 -378h-224z" />
    <glyph glyph-name="Y" unicode="Y" horiz-adv-x="1390" 
d="M507 0l101 610l-402 880h206l215 -481q36 -81 62.5 -154.5t49.5 -185.5h-76q60 114 111 188.5t111 151.5l374 481h233l-694 -880l-101 -610h-190z" />
    <glyph glyph-name="Z" unicode="Z" horiz-adv-x="1290" 
d="M38 0l23 134l995 1189h-807l28 167h1037l-23 -136l-996 -1187h807l-28 -167h-1036z" />
    <glyph glyph-name="bracketleft" unicode="[" horiz-adv-x="747" 
d="M87 -279l308 1860h398l-25 -153h-226l-258 -1554h226l-25 -153h-398z" />
    <glyph glyph-name="backslash" unicode="\" horiz-adv-x="736" 
d="M398 -224l-186 1784h162l184 -1784h-160z" />
    <glyph glyph-name="bracketright" unicode="]" horiz-adv-x="748" 
d="M-15 -279l25 153h226l258 1554h-226l25 153h398l-308 -1860h-398z" />
    <glyph glyph-name="asciicircum" unicode="^" horiz-adv-x="965" 
d="M596 1360h52l-12 -75h-52zM126 814l401 629h202l198 -629h-170l-153 501h18l-311 -501h-185z" />
    <glyph glyph-name="underscore" unicode="_" horiz-adv-x="934" 
d="M841 0l-27 -166h-934l27 166h934z" />
    <glyph glyph-name="grave" unicode="`" horiz-adv-x="659" 
d="M459 1264l-144 294h201l90 -294h-147z" />
    <glyph glyph-name="a" unicode="a" horiz-adv-x="1257" 
d="M481 -24q-139 0 -234 71.5t-133.5 202t-9.5 307.5q30 178 112 306.5t201 198.5t258 70q108 0 166 -35.5t84.5 -81t40.5 -76.5h15l29 179h181l-185 -1118h-175l28 173h-21q-25 -33 -68 -79.5t-113 -82t-176 -35.5zM537 137q102 0 180.5 54t130.5 149t72 219
q21 124 0.5 216.5t-82 144t-163.5 51.5q-107 0 -187.5 -55.5t-131 -148.5t-69.5 -208q-19 -117 1 -213t82 -152.5t167 -56.5z" />
    <glyph glyph-name="b" unicode="b" horiz-adv-x="1255" 
d="M592 -24q-108 0 -169 35.5t-91 82t-45 79.5h-18l-30 -173h-174l247 1490h180l-92 -551h15q26 32 66 77.5t106.5 80.5t171.5 35q123 0 213 -54t139 -154t49 -239q0 -130 -38.5 -256.5t-111.5 -228.5t-178.5 -163t-239.5 -61zM568 137q100 0 176.5 49t129 129.5t79 176
t26.5 188.5q0 128 -60.5 209.5t-189.5 81.5q-101 0 -177 -47.5t-126.5 -126.5t-76 -175t-25.5 -193q0 -133 61 -212.5t183 -79.5z" />
    <glyph glyph-name="c" unicode="c" horiz-adv-x="1171" 
d="M528 -24q-135 0 -232 56.5t-149.5 159.5t-52.5 241q0 133 41.5 258t119.5 224.5t189.5 158t252.5 58.5q83 0 153.5 -21.5t124 -62.5t87.5 -99t45 -131l-176 -39q-5 43 -23 78t-48 60.5t-71.5 39.5t-95.5 14q-102 0 -180 -48t-131.5 -127t-80.5 -173.5t-27 -187.5
q0 -83 26.5 -151t83.5 -107.5t148 -39.5q58 0 109.5 16t94 44.5t74.5 67t51 83.5l166 -58q-34 -74 -86 -132t-117 -98.5t-140 -62t-156 -21.5z" />
    <glyph glyph-name="d" unicode="d" horiz-adv-x="1255" 
d="M492 -24q-183 0 -290.5 120.5t-107.5 328.5q0 132 38.5 258t112 227.5t179 161.5t239.5 60q111 0 171.5 -36.5t89 -83.5t42.5 -78h12l92 556h181l-247 -1490h-175l30 173h-19q-24 -35 -65.5 -81.5t-110 -81t-172.5 -34.5zM524 137q101 0 177 49t127 130t77 178t26 192
q0 131 -61 208t-186 77q-100 0 -176 -47.5t-127.5 -126t-78 -173t-26.5 -189.5q0 -130 60.5 -214t187.5 -84z" />
    <glyph glyph-name="e" unicode="e" horiz-adv-x="1179" 
d="M535 -24q-138 0 -236.5 54t-151.5 155t-53 242q0 147 47 276.5t131 228t194.5 154.5t237.5 56q108 0 188 -37.5t124 -106t44 -161.5q0 -94 -48.5 -160.5t-150.5 -108.5t-261.5 -61.5t-380.5 -19.5l24 136q183 0 306 10.5t195.5 35.5t104 67t31.5 105q0 64 -53.5 102.5
t-140.5 38.5q-113 0 -192.5 -54.5t-129.5 -140t-73.5 -181t-23.5 -178.5q0 -82 27 -148.5t88.5 -105.5t163.5 -39q107 0 190.5 46.5t126.5 126.5l167 -47q-62 -132 -195.5 -208.5t-299.5 -76.5z" />
    <glyph glyph-name="f" unicode="f" horiz-adv-x="764" 
d="M780 1118l-24 -146h-667l24 146h667zM-56 -448q-21 0 -41.5 2t-39 5.5t-36.5 9.5l45 161q14 -5 48 -8.5t47 -3.5q72 0 113.5 39.5t55.5 125.5l217 1312q20 118 72 199.5t134 123.5t190 42q39 0 74 -6t71 -14l-50 -154q-17 4 -54 6t-67 2q-80 0 -126 -48t-63 -148
l-217 -1314q-18 -109 -67 -183t-126.5 -111.5t-179.5 -37.5z" />
    <glyph glyph-name="g" unicode="g" horiz-adv-x="1256" 
d="M456 -442q-129 0 -216 33.5t-139 87t-76 112.5l155 84q17 -30 45 -67.5t83 -65t152 -27.5q138 0 239 67.5t124 204.5l37 218l-16 -4q-25 -33 -66 -76t-108 -75t-172 -32q-119 0 -209.5 49.5t-141.5 144.5t-51 231q0 128 39 250.5t113 221.5t179 158t237 59q83 0 137 -22
t86.5 -55t50 -66t27.5 -55l21 5l30 179h175l-192 -1153q-24 -144 -102 -233.5t-192.5 -131.5t-248.5 -42zM531 178q103 0 178.5 45t125 119.5t73.5 165t24 182.5q0 128 -61 204.5t-186 76.5q-97 0 -173 -45t-128.5 -120.5t-79.5 -167.5t-27 -185q0 -125 63 -200t191 -75z
" />
    <glyph glyph-name="h" unicode="h" horiz-adv-x="1211" 
d="M356 670l-111 -670h-180l247 1490h180l-107 -643h-31q52 105 114.5 167.5t135.5 90t156 27.5q113 0 193 -46.5t114.5 -140t10.5 -235.5l-118 -710h-181l116 695q22 131 -35 203t-173 72q-79 0 -148.5 -35t-118 -101.5t-64.5 -163.5z" />
    <glyph glyph-name="i" unicode="i" horiz-adv-x="497" 
d="M66 0l185 1118h180l-185 -1118h-180zM372 1301q-51 0 -82 35t-23 84q8 50 51 84.5t94 34.5q52 0 83 -34.5t23 -84.5q-8 -49 -51 -84t-95 -35z" />
    <glyph glyph-name="j" unicode="j" horiz-adv-x="496" 
d="M250 1118h181l-199 -1198q-17 -106 -66 -181.5t-128.5 -116t-188.5 -40.5h-36l27 166h33q77 0 121.5 44t57.5 128zM371 1301q-51 0 -82 35t-23 84q8 50 51 84.5t94 34.5q52 0 83 -34.5t23 -84.5q-8 -49 -51 -84t-95 -35z" />
    <glyph glyph-name="k" unicode="k" horiz-adv-x="1125" 
d="M301 402l37 223h33l559 493h223l-605 -531h-20zM65 0l247 1490h180l-247 -1490h-180zM772 0l-338 547l150 127l419 -674h-231z" />
    <glyph glyph-name="l" unicode="l" horiz-adv-x="496" 
d="M492 1490l-247 -1490h-180l247 1490h180z" />
    <glyph glyph-name="m" unicode="m" horiz-adv-x="1794" 
d="M65 0l186 1118h175l-40 -250l-15 5q38 92 96.5 150.5t127 86.5t137.5 28q86 0 143 -37t85.5 -99.5t30.5 -141.5l-22 12q34 83 95 142.5t140 91.5t165 32q100 0 175 -43.5t110 -130t13 -216.5l-124 -748h-180l126 756q14 81 -8.5 129t-68 68.5t-101.5 20.5
q-80 0 -143 -33.5t-102.5 -90t-51.5 -126.5l-120 -724h-180l128 773q16 95 -35 148t-139 53q-68 0 -133 -31.5t-112 -93.5t-62 -152l-116 -697h-180z" />
    <glyph glyph-name="n" unicode="n" horiz-adv-x="1211" 
d="M356 664l-111 -664h-180l186 1118h173l-44 -271l-26 6q75 152 177 215.5t227 63.5q116 0 196 -48t113.5 -143t9.5 -237l-117 -704h-180l117 701q22 131 -32 200t-167 69q-82 0 -154 -36.5t-122 -105t-66 -164.5z" />
    <glyph glyph-name="o" unicode="o" horiz-adv-x="1229" 
d="M528 -24q-135 0 -232 56.5t-149.5 159.5t-52.5 241q0 133 41.5 258t120 224.5t190 158t251.5 58.5q135 0 233 -56t150.5 -159t52.5 -243q0 -135 -42 -260t-121.5 -224t-191 -156.5t-250.5 -57.5zM532 137q103 0 181.5 48t131.5 126.5t80 172.5t27 186q0 85 -27 153
t-84 108t-149 40q-102 0 -180 -48t-131 -127t-80 -173.5t-27 -187.5q0 -126 61 -212t197 -86z" />
    <glyph glyph-name="p" unicode="p" horiz-adv-x="1255" 
d="M-4 -418l255 1536h174l-30 -179h9q24 34 66.5 79.5t112.5 79.5t176 34q123 0 213 -54t139 -154t49 -239q0 -130 -38.5 -256.5t-111.5 -228.5t-178.5 -163t-239.5 -61q-109 0 -169.5 37.5t-89 85.5t-41.5 79h-17l-99 -596h-180zM568 137q100 0 176.5 49t129 129.5t79 176
t26.5 188.5q0 128 -60.5 209.5t-189.5 81.5q-101 0 -177 -47.5t-126.5 -126.5t-76 -175t-25.5 -193q0 -133 61 -212.5t183 -79.5z" />
    <glyph glyph-name="q" unicode="q" horiz-adv-x="1255" 
d="M935 -418h-181l99 590h-16q-25 -37 -66.5 -83t-108.5 -79.5t-170 -33.5q-122 0 -211.5 54.5t-138 155t-48.5 239.5q0 132 38.5 258t112 227.5t179 161.5t239.5 60q111 0 173 -37.5t92 -86t45 -80.5h10l32 190h175zM524 137q101 0 177 49t127 130t77 178t26 192
q0 131 -61 208t-186 77q-100 0 -176 -47.5t-127.5 -126t-78 -173t-26.5 -189.5q0 -130 60.5 -214t187.5 -84z" />
    <glyph glyph-name="r" unicode="r" horiz-adv-x="772" 
d="M66 0l185 1118h174l-28 -172h12q44 85 132.5 136.5t188.5 51.5q20 0 47 -1t43 -2l-30 -181q-12 2 -42.5 6t-63.5 4q-80 0 -149 -33.5t-114.5 -92t-58.5 -134.5l-116 -700h-180z" />
    <glyph glyph-name="s" unicode="s" horiz-adv-x="1080" 
d="M451 -24q-112 0 -195.5 32t-133 93t-59.5 149q-1 7 -1.5 13.5t-0.5 13.5l174 29q8 -92 65 -132t154 -40q81 0 145 25t104 66t48 90q8 53 -24 88.5t-111 54.5l-179 44q-146 36 -209.5 115t-43.5 201q16 93 80 164t161.5 110.5t213.5 39.5q161 0 245.5 -65.5t111.5 -167.5
q3 -10 5.5 -20.5t3.5 -21.5l-165 -30q-13 60 -56.5 106t-147.5 46q-69 0 -128 -23t-97.5 -62t-46.5 -89q-10 -58 27 -92t131 -57l162 -40q146 -36 209 -115t43 -198q-12 -71 -53 -131t-105.5 -104t-147.5 -68t-179 -24z" />
    <glyph glyph-name="t" unicode="t" horiz-adv-x="672" 
d="M691 1118l-25 -154h-578l25 154h578zM326 1384h180l-181 -1094q-13 -77 13 -110.5t95 -33.5q17 0 44 4t50 8l11 -152q-27 -9 -63 -14.5t-73 -5.5q-147 0 -214.5 77t-45.5 213z" />
    <glyph glyph-name="u" unicode="u" horiz-adv-x="1212" 
d="M443 -14q-112 0 -189.5 46t-110 140t-9.5 236l117 710h180l-114 -695q-21 -128 33.5 -201.5t172.5 -73.5q79 0 148.5 34.5t118.5 101.5t65 164l110 670h181l-185 -1118h-174l45 271h24q-77 -157 -183 -221t-230 -64z" />
    <glyph glyph-name="v" unicode="v" horiz-adv-x="1151" 
d="M389 0l-242 1118h188l129 -663q20 -103 30 -205.5t23 -198.5h-66q45 96 88 198t98 206l348 663h205l-612 -1118h-189z" />
    <glyph glyph-name="w" unicode="w" horiz-adv-x="1676" 
d="M317 0l-154 1118h191l55 -488q11 -100 22 -226t17 -287h-31q55 153 106.5 279.5t98.5 233.5l215 488h192l51 -488q11 -100 20.5 -226t14.5 -287h-32q56 154 108 279.5t100 233.5l217 488h191l-524 -1118h-179l-61 506q-8 71 -16 150t-14.5 165.5t-12.5 176.5h39
q-35 -89 -70.5 -174.5t-69.5 -165.5t-67 -153l-228 -505h-179z" />
    <glyph glyph-name="x" unicode="x" horiz-adv-x="1118" 
d="M-28 0l548 643l-24 -138l-316 613h202l104 -217q41 -84 67.5 -157t57.5 -141h-94q54 68 102 141t116 157l178 217h214l-521 -621l21 133l333 -630h-204l-123 251q-40 82 -66 152.5t-57 135.5h95q-52 -65 -98.5 -135.5t-114.5 -152.5l-207 -251h-213z" />
    <glyph glyph-name="y" unicode="y" horiz-adv-x="1151" 
d="M-19 -405l72 156l17 -4q55 -13 101.5 -6.5t88 44t81.5 116.5l47 93l-241 1124h188l129 -663q20 -103 29.5 -205.5t22.5 -198.5h-66q45 96 88 198.5t98 205.5l349 663h205l-704 -1285q-48 -88 -105.5 -145.5t-125 -85.5t-147.5 -28q-44 0 -78.5 7t-48.5 14z" />
    <glyph glyph-name="z" unicode="z" horiz-adv-x="1131" 
d="M33 0l23 134l752 806l2 11h-599l27 167h839l-24 -143l-732 -797l-2 -11h620l-27 -167h-879z" />
    <glyph glyph-name="braceleft" unicode="{" horiz-adv-x="875" 
d="M160 646l15 95q123 0 180 50.5t76 168.5l38 230q17 102 49.5 176t85.5 121.5t130.5 70.5t185.5 23l-25 -151q-127 1 -183.5 -58.5t-77.5 -184.5l-48 -286q-9 -56 -31.5 -102.5t-69 -81t-125 -53t-200.5 -18.5zM612 -279q-106 0 -176.5 22.5t-108 69.5t-46 121.5
t8.5 177.5l38 228q20 117 -19.5 168.5t-162.5 52.5l16 95q120 0 192.5 -19t107.5 -53t42.5 -81t-1.5 -104l-47 -284q-21 -127 17 -186t165 -59zM146 560l30 182h180l-31 -182h-179z" />
    <glyph glyph-name="bar" unicode="|" horiz-adv-x="681" 
d="M651 1970l-404 -2450h-157l404 2450h157z" />
    <glyph glyph-name="braceright" unicode="}" horiz-adv-x="874" 
d="M743 646q-122 0 -195 18.5t-107.5 53t-41.5 81t2 102.5l48 286q21 125 -16.5 184.5t-165.5 58.5l25 151q108 0 178.5 -23t107.5 -70.5t45.5 -121.5t-8.5 -176l-38 -230q-19 -118 20 -168.5t161 -50.5zM-16 -279l25 149q127 0 184 59t78 186l47 284q9 57 32 104t69.5 81
t125 53t199.5 19l-15 -95q-124 -1 -180 -53t-75 -168l-37 -228q-16 -102 -48.5 -175.5t-85.5 -121.5t-131.5 -71t-187.5 -23zM729 561l-179 -1l30 182l178 -1z" />
    <glyph glyph-name="asciitilde" unicode="~" horiz-adv-x="1356" 
d="M148 439q19 123 71 198t123 109t147 34q74 0 130 -31.5t126 -101.5q46 -46 77 -65t69 -19q63 0 106.5 45t56.5 132h162q-17 -121 -68.5 -194.5t-122.5 -107t-148 -33.5q-75 0 -130 33.5t-123 100.5q-46 46 -79 61.5t-72 15.5q-58 0 -102 -40.5t-59 -136.5h-164z" />
    <glyph glyph-name="uni00A0" unicode="&#xa0;" horiz-adv-x="576" 
 />
    <glyph glyph-name="exclamdown" unicode="&#xa1;" horiz-adv-x="589" 
d="M41 -361l181 1011h179l-156 -1011h-204zM347 873q-55 0 -88.5 39.5t-23.5 95.5q9 56 55 95t101 39q56 0 89 -39t24 -95q-10 -56 -55.5 -95.5t-101.5 -39.5z" />
    <glyph glyph-name="cent" unicode="&#xa2;" horiz-adv-x="1171" 
d="M451 0l247 1490h118l-247 -1490h-118zM560 166q-135 0 -232 56.5t-149.5 159t-52.5 241.5q0 133 41.5 258t119.5 224.5t189.5 158t252.5 58.5q83 0 153.5 -21.5t124 -62.5t87.5 -99t45 -131l-176 -39q-5 43 -23 78t-48 60.5t-71.5 39.5t-95.5 14q-102 0 -180 -48
t-131.5 -127t-80.5 -173.5t-27 -187.5q0 -83 26.5 -151t83.5 -107.5t148 -39.5q58 0 109.5 16t94 44.5t74.5 67t51 83.5l166 -58q-34 -74 -86 -132t-117 -98.5t-140 -62t-156 -21.5z" />
    <glyph glyph-name="sterling" unicode="&#xa3;" horiz-adv-x="1250" 
d="M38 120l7 47q80 0 131.5 46t65.5 153l91 684q18 136 88 239.5t179.5 162t246.5 58.5q115 0 202.5 -46.5t136.5 -130t48 -195.5l-177 -28q-1 110 -58.5 171.5t-163.5 61.5q-87 0 -155 -35t-111 -99.5t-55 -153.5l-92 -682q-9 -67 -42.5 -112t-80 -73t-96.5 -43t-94 -20
t-71 -5zM18 0l27 167h777q44 0 67.5 19t30.5 65l10 62h169l-8 -47q-23 -136 -98 -201t-205 -65h-770zM129 670l24 150h812l-25 -150h-811z" />
    <glyph glyph-name="currency" unicode="&#xa4;" horiz-adv-x="1484" 
d="M642 -20q-123 0 -223 47.5t-167 133t-94 200t-5 247.5q21 133 85.5 247t160 199t211 132.5t238.5 47.5q122 0 222.5 -47t170 -131.5t98 -198.5t6.5 -248t-88 -248.5t-163 -200t-213 -133t-239 -47.5zM668 142q89 0 173 36t154 100t118 148t64 180q23 130 -18.5 236
t-129.5 169t-207 63t-227 -62.5t-183 -168t-97 -235.5q-22 -127 18.5 -233t128 -169.5t206.5 -63.5zM1222 925l-98 124l236 206l102 -124zM1148 -15l-166 206l140 122l168 -204zM141 -15l-97 124l236 204l100 -122zM382 925l-166 206l138 124l168 -206z" />
    <glyph glyph-name="yen" unicode="&#xa5;" horiz-adv-x="1129" 
d="M396 1490l240 -824l-157 -66l-292 890h209zM534 666l512 824h209l-589 -890zM699 782l-131 -782h-190l132 782h189zM1014 744l-21 -136h-839l21 136h839zM967 456l-20 -136h-839l21 136h838z" />
    <glyph glyph-name="brokenbar" unicode="&#xa6;" horiz-adv-x="553" 
d="M166 403h169l-114 -683h-169zM515 1490l-114 -679h-169l114 679h169z" />
    <glyph glyph-name="section" unicode="&#xa7;" horiz-adv-x="1161" 
d="M419 -302q-114 0 -188.5 37t-113 106.5t-44.5 166.5l168 42q10 -91 53.5 -144.5t153.5 -53.5q93 0 157 40.5t77 119.5q9 55 -10 92t-50.5 63t-62.5 45l-255 164q-58 38 -97.5 89t-56.5 110t-7 119q10 61 47 117.5t94.5 94.5t128.5 42l4 5q-58 57 -82.5 114t-11.5 136
q16 95 73.5 163.5t147 106t200.5 37.5q109 0 177.5 -36.5t105.5 -106t49 -170.5l-159 -41q-18 97 -55.5 148.5t-139.5 51.5q-96 0 -156 -43t-72 -116q-8 -53 10.5 -90.5t51 -63.5t63.5 -47l254 -166q60 -39 98.5 -90.5t55 -108.5t6.5 -115q-10 -63 -48.5 -118.5t-96 -91.5
t-124.5 -42l-4 -7q42 -36 66 -75t31.5 -83t-0.5 -94q-15 -94 -75.5 -163t-154 -106.5t-208.5 -37.5zM656 350q28 -18 75 -5.5t88.5 53.5t52.5 107q7 41 -3 76t-35 65.5t-66 55.5l-259 164q-29 19 -73 5t-82 -55.5t-49 -106.5q-6 -40 2.5 -75.5t34.5 -67.5t70 -60z" />
    <glyph glyph-name="dieresis" unicode="&#xa8;" horiz-adv-x="1211" 
d="M939 1301q-49 0 -78 35t-21 84t49 83.5t90 34.5t77.5 -34.5t20.5 -83.5t-48.5 -84t-89.5 -35zM518 1301q-49 0 -78 35t-21 84t49 83.5t90 34.5t77.5 -34.5t20.5 -83.5t-48.5 -84t-89.5 -35z" />
    <glyph glyph-name="copyright" unicode="&#xa9;" horiz-adv-x="1873" 
d="M542 744q20 120 94.5 218t182.5 156t227 58q104 0 184 -44.5t125 -120.5t43 -173h-176q-3 74 -61.5 122t-142.5 48q-72 0 -138 -35.5t-112 -95.5t-58 -133q-12 -72 14 -131.5t80.5 -95t126.5 -35.5q84 0 150 47.5t94 122.5h176q-29 -97 -95.5 -174t-157.5 -121.5
t-195 -44.5q-119 0 -207.5 58.5t-130.5 156.5t-23 217zM840 -23q-143 0 -262.5 48.5t-206.5 136t-135 204.5t-48 253q0 175 74 335.5t201 286.5t290 199t341 73q143 0 262.5 -48.5t206.5 -135.5t135 -203.5t48 -253.5q0 -175 -74 -336t-201 -287t-290 -199t-341 -73z
M869 151q138 0 263.5 56.5t224 154t155.5 222t57 260.5q0 141 -64.5 253t-178 177t-260.5 65q-138 0 -264 -56.5t-224.5 -154t-155.5 -221.5t-57 -259q0 -141 64.5 -253.5t178.5 -178t261 -65.5z" />
    <glyph glyph-name="ordfeminine" unicode="&#xaa;" horiz-adv-x="929" 
d="M385 647q-85 0 -149 29.5t-94.5 86.5t-17.5 139q16 95 76 146t143 73.5t168 31.5q122 13 176.5 22.5t61.5 53.5l1 4q11 68 -26.5 106t-123.5 38q-58 0 -103 -16t-76.5 -41.5t-49.5 -55.5l-154 39q44 76 109.5 122.5t141.5 67.5t152 21q53 0 111 -12.5t106.5 -44
t72.5 -88.5t9 -147l-92 -557h-166l19 115h-9q-34 -50 -105.5 -91.5t-180.5 -41.5zM443 781q74 0 130.5 26.5t91 69t42.5 90.5l18 106q-14 -11 -57.5 -20t-91.5 -14.5t-78 -9.5q-80 -10 -137.5 -38.5t-68.5 -90.5q-10 -58 33.5 -88.5t117.5 -30.5z" />
    <glyph glyph-name="guillemotleft" unicode="&#xab;" horiz-adv-x="1193" 
d="M432 144l-323 472l479 472h206l-472 -472l316 -472h-206zM838 144l-323 472l479 472h206l-472 -472l316 -472h-206z" />
    <glyph glyph-name="logicalnot" unicode="&#xac;" horiz-adv-x="1356" 
d="M851 315l45 271h-667l26 159h836l-71 -430h-169z" />
    <glyph glyph-name="registered" unicode="&#xae;" horiz-adv-x="1364" 
d="M646 346q-120 0 -218 45.5t-165 125.5t-94.5 185.5t-7.5 225.5t82.5 225.5t156 185.5t206.5 125.5t233 45.5q121 0 219 -45.5t164.5 -125.5t94.5 -185.5t8 -225.5t-83 -225.5t-156 -185.5t-206 -125.5t-234 -45.5zM670 487q92 0 177.5 34t156 95t118 141t62.5 171
q20 122 -23 222t-133 159.5t-212 59.5q-91 0 -176.5 -34t-156.5 -95t-118.5 -140.5t-62.5 -171.5q-20 -122 23 -222t133.5 -159.5t211.5 -59.5zM822 661l-89 254h130l91 -254h-132zM493 661l89 536h272q34 0 70 -18.5t57.5 -56t11.5 -95.5q-10 -59 -45 -100.5t-79 -62.5
t-81 -21h-195l14 89h159q25 0 56.5 23.5t39.5 71.5t-17 65.5t-47 17.5h-110l-75 -449h-120z" />
    <glyph glyph-name="macron" unicode="&#xaf;" horiz-adv-x="979" 
d="M921 1491l-24 -142h-554l24 142h554z" />
    <glyph glyph-name="degree" unicode="&#xb0;" horiz-adv-x="933" 
d="M568 829q-93 0 -169 45.5t-121.5 121.5t-45.5 168q0 93 45.5 170t121.5 122.5t169 45.5t169 -45.5t121 -122.5t45 -170q0 -92 -45 -168.5t-121 -121.5t-169 -45zM568 979q52 0 93.5 25t66.5 67t25 93q0 52 -25 94t-66.5 67.5t-93.5 25.5q-51 0 -93.5 -25t-68 -67.5
t-25.5 -94.5q0 -51 25.5 -93t68 -67t93.5 -25z" />
    <glyph glyph-name="plusminus" unicode="&#xb1;" horiz-adv-x="1356" 
d="M126 69l27 168h943l-27 -168h-943zM224 658l27 168h943l-27 -168h-943zM562 364l124 757h171l-125 -757h-170z" />
    <glyph glyph-name="two.sups" unicode="&#xb2;" horiz-adv-x="906" 
d="M175 898l20 123l385 269q54 38 90.5 67t56.5 55.5t25 56.5q9 54 -32.5 85.5t-110.5 31.5q-71 0 -121 -31.5t-59 -85.5h-166q19 114 122 182.5t247 68.5q151 0 230.5 -66.5t62.5 -170.5q-6 -33 -21 -66.5t-48.5 -71.5t-92.5 -84t-151 -106l-171 -111l-1 -7h437l-23 -139
h-679z" />
    <glyph glyph-name="three.sups" unicode="&#xb3;" horiz-adv-x="912" 
d="M512 888q-98 0 -173.5 29t-114 81.5t-28.5 122.5h176q-4 -40 44.5 -65.5t121.5 -25.5q78 0 132.5 31t62.5 78q8 49 -40.5 80t-140.5 31h-76l20 123h76q77 0 132.5 30.5t62.5 78.5q8 45 -30.5 73.5t-106.5 28.5q-70 0 -124 -27.5t-63 -72.5h-167q13 70 67 123t135.5 83
t175.5 30q146 0 223 -66.5t61 -163.5q-11 -68 -70 -113.5t-143 -56.5l-1 -6q104 -13 153 -62t36 -126q-11 -69 -66.5 -123t-142 -84.5t-192.5 -30.5z" />
    <glyph glyph-name="acute" unicode="&#xb4;" horiz-adv-x="422" 
d="M160 1282l186 276h201l-240 -276h-147z" />
    <glyph glyph-name="uni00B5" unicode="&#xb5;" horiz-adv-x="1202" 
d="M-3 -418l254 1536h180l-112 -678q-17 -106 9 -171.5t82.5 -95.5t130.5 -30q78 0 142.5 31.5t109 97t61.5 168.5l112 678h180l-143 -865q-9 -55 11 -76.5t81 -21.5h29l-26 -155h-36q-137 0 -196.5 63.5t-38.5 187.5l17 101h41q-18 -111 -61 -183t-98.5 -112t-111.5 -56.5
t-101 -16.5t-95.5 16.5t-92 57t-60.5 112t-1 182.5h41l-128 -770h-180z" />
    <glyph glyph-name="paragraph" unicode="&#xb6;" horiz-adv-x="1234" 
d="M1168 1324h-354l-127 -772h-84q-160 0 -260 61.5t-139 168t-17 240.5q23 135 97.5 240.5t194.5 166.5t278 61h438zM775 0l248 1490h185l-248 -1490h-185z" />
    <glyph glyph-name="periodcentered" unicode="&#xb7;" horiz-adv-x="589" 
d="M307 573q-58 0 -94.5 43t-26.5 104q9 53 51.5 87.5t91.5 34.5q61 0 95.5 -43t26.5 -100q-7 -52 -49 -89t-95 -37z" />
    <glyph glyph-name="cedilla" unicode="&#xb8;" horiz-adv-x="549" 
d="M-7 -418l17 105h118q55 0 79 14.5t30 50.5t-12 51t-75 15h-82l68 230h95l-8 -48l-14 -86q95 -4 135 -41.5t27 -117.5q-14 -89 -75 -131t-184 -42h-119z" />
    <glyph glyph-name="one.sups" unicode="&#xb9;" horiz-adv-x="624" 
d="M690 1710l-134 -812h-173l110 665h-8l-241 -129l26 152l227 124h193z" />
    <glyph glyph-name="ordmasculine" unicode="&#xba;" horiz-adv-x="988" 
d="M508 648q-125 0 -209.5 54.5t-120 151.5t-14.5 226q22 131 89.5 228.5t170.5 151.5t228 54t209.5 -54t120.5 -151.5t14 -228.5q-21 -129 -89.5 -226.5t-171 -151.5t-227.5 -54zM532 791q83 0 143 39.5t97.5 105t50.5 144.5t-2 145t-62.5 106t-130.5 40q-82 0 -142 -39.5
t-97.5 -105.5t-50.5 -146q-13 -79 2.5 -144.5t62.5 -105t129 -39.5z" />
    <glyph glyph-name="guillemotright" unicode="&#xbb;" horiz-adv-x="1194" 
d="M12 144l472 472l-316 472h206l323 -472l-479 -472h-206zM418 144l472 472l-316 472h206l323 -472l-479 -472h-206z" />
    <glyph glyph-name="onequarter" unicode="&#xbc;" horiz-adv-x="1618" 
d="M584 1490l-134 -812h-157l114 683h-9l-201 -134l23 140l185 123h179zM87 0l1271 1490h169l-1271 -1490h-169zM844 126l20 122l428 564h112l-31 -187h-70l-276 -363l-1 -10h464l-21 -126h-625zM1203 0l27 164l15 53l98 595h144l-135 -812h-149z" />
    <glyph glyph-name="onehalf" unicode="&#xbd;" horiz-adv-x="1732" 
d="M584 1490l-134 -812h-157l114 683h-9l-201 -134l23 140l185 123h179zM87 0l1271 1490h169l-1271 -1490h-169zM978 0l18 109l329 282q50 43 80.5 76t46.5 62t20 59q8 54 -24 83.5t-84 29.5q-56 0 -97.5 -31t-50.5 -81h-149q18 107 101 169.5t204 62.5q126 0 198 -65
t53 -163q-5 -27 -19 -57t-43.5 -68.5t-82 -92.5t-135.5 -129l-122 -111l-2 -9h352l-21 -126h-572z" />
    <glyph glyph-name="threequarters" unicode="&#xbe;" horiz-adv-x="1777" 
d="M406 669q-78 0 -142.5 25t-100 72.5t-26.5 112.5h160q-3 -32 35.5 -55.5t93.5 -23.5q58 0 102 31.5t54 83.5q11 56 -27.5 88.5t-109.5 32.5h-65l18 113h66q60 0 106 33t53 85q7 47 -20.5 77t-81.5 30q-55 0 -99.5 -27t-52.5 -71h-150q12 67 58.5 117t115 78t146.5 28
q122 0 188 -66.5t49 -164.5q-11 -67 -62 -112t-124 -57l-1 -8q92 -13 132 -61t26 -126q-18 -104 -113 -169.5t-228 -65.5zM246 0l1271 1490h169l-1271 -1490h-169zM1003 126l20 122l428 564h112l-31 -187h-70l-276 -363l-1 -10h464l-21 -126h-625zM1362 0l27 164l15 53
l98 595h144l-135 -812h-149z" />
    <glyph glyph-name="questiondown" unicode="&#xbf;" horiz-adv-x="1038" 
d="M674 665l-2 -11q-24 -136 -63.5 -211t-95.5 -118t-132 -85q-72 -40 -127.5 -101.5t-69.5 -148.5q-11 -69 13 -120t74.5 -79t117.5 -28q59 0 117.5 24.5t103.5 76.5t64 135h190q-25 -125 -95 -213.5t-171 -135t-219 -46.5q-129 0 -221 51t-134 139.5t-23 202.5
q20 121 87.5 207t173.5 145q71 40 115.5 76t71 88.5t42.5 140.5l2 11h181zM657 1127q56 0 89 -39t24 -95t-55 -95.5t-102 -39.5q-55 0 -88 39.5t-24 95.5t55 95t101 39z" />
    <glyph glyph-name="Agrave" unicode="&#xc0;" horiz-adv-x="1413" 
d="M-41 0l788 1490h220l301 -1490h-192l-169 884q-13 71 -33 199t-43 318h36q-81 -181 -141.5 -308t-102.5 -209l-454 -884h-210zM300 416l27 166h765l-27 -166h-765zM813 1636l-144 294h201l90 -294h-147z" />
    <glyph glyph-name="Aacute" unicode="&#xc1;" horiz-adv-x="1413" 
d="M-41 0l788 1490h220l301 -1490h-192l-169 884q-13 71 -33 199t-43 318h36q-81 -181 -141.5 -308t-102.5 -209l-454 -884h-210zM300 416l27 166h765l-27 -166h-765zM801 1654l186 276h201l-240 -276h-147z" />
    <glyph glyph-name="Acircumflex" unicode="&#xc2;" horiz-adv-x="1413" 
d="M-41 0l788 1490h220l301 -1490h-192l-169 884q-13 71 -33 199t-43 318h36q-81 -181 -141.5 -308t-102.5 -209l-454 -884h-210zM300 416l27 166h765l-27 -166h-765zM743 1654h-177l2 9l279 267h171l192 -267l-2 -9h-179l-112 175z" />
    <glyph glyph-name="Atilde" unicode="&#xc3;" horiz-adv-x="1413" 
d="M-41 0l788 1490h220l301 -1490h-192l-169 884q-13 71 -33 199t-43 318h36q-81 -181 -141.5 -308t-102.5 -209l-454 -884h-210zM300 416l27 166h765l-27 -166h-765zM1024 1685q-37 0 -70.5 12.5t-62.5 29t-53 29t-43 12.5q-28 0 -44.5 -25.5t-22.5 -53.5h-126
q19 92 68.5 150t128.5 58q39 0 70 -13t57.5 -29.5t50.5 -29.5t49 -13q26 0 41.5 19.5t27.5 61.5h123q-19 -97 -70.5 -152.5t-123.5 -55.5z" />
    <glyph glyph-name="Adieresis" unicode="&#xc4;" horiz-adv-x="1413" 
d="M-41 0l788 1490h220l301 -1490h-192l-169 884q-13 71 -33 199t-43 318h36q-81 -181 -141.5 -308t-102.5 -209l-454 -884h-210zM300 416l27 166h765l-27 -166h-765zM1101 1673q-49 0 -78 35t-21 84t49 83.5t90 34.5t77.5 -34.5t20.5 -83.5t-48.5 -84t-89.5 -35zM680 1673
q-49 0 -78 35t-21 84t49 83.5t90 34.5t77.5 -34.5t20.5 -83.5t-48.5 -84t-89.5 -35z" />
    <glyph glyph-name="Aring" unicode="&#xc5;" horiz-adv-x="1413" 
d="M-41 0l788 1490h220l301 -1490h-192l-169 884q-13 71 -33 199t-43 318h36q-81 -181 -141.5 -308t-102.5 -209l-454 -884h-210zM300 416l27 166h765l-27 -166h-765zM879 1541q-76 0 -132.5 36t-83 96t-14.5 131q11 66 53 120t104.5 86t133.5 32q77 0 133 -35.5t83 -95
t15 -130.5q-11 -68 -54 -122.5t-105.5 -86t-132.5 -31.5zM889 1667q50 0 93 35t53 87q10 53 -20 90.5t-84 37.5q-52 0 -94.5 -36t-51.5 -88t21 -89t83 -37z" />
    <glyph glyph-name="AE" unicode="&#xc6;" horiz-adv-x="2036" 
d="M-41 0l963 1490h1122l-28 -167h-716l-81 -493h669l-28 -168h-669l-82 -495h727l-28 -167h-917l219 1319h-108l-834 -1319h-209zM371 416l27 166h686l-27 -166h-686z" />
    <glyph glyph-name="Ccedilla" unicode="&#xc7;" horiz-adv-x="1495" 
d="M698 -20q-169 0 -295 72t-195 206.5t-69 321.5q0 176 55 342.5t158 299t249 210.5t328 78q115 0 211.5 -33t168 -96t111 -153.5t40.5 -206.5h-190q-3 76 -30.5 134t-74.5 98t-109 60.5t-134 20.5q-140 0 -251 -64t-188.5 -172t-118.5 -241.5t-41 -271.5q0 -140 49 -236
t135 -144.5t198 -48.5q76 0 148.5 20.5t136 60.5t112.5 98t77 134h191q-39 -114 -106 -204t-156.5 -154t-193.5 -97.5t-216 -33.5zM507 -429l17 105h118q55 0 79 14.5t30 50.5t-12 51t-75 15h-82l68 230h95l-8 -48l-14 -86q95 -4 135 -41.5t27 -117.5q-14 -89 -75 -131
t-184 -42h-119z" />
    <glyph glyph-name="Egrave" unicode="&#xc8;" horiz-adv-x="1232" 
d="M87 0l247 1490h908l-28 -167h-718l-80 -487h669l-28 -167h-670l-83 -502h727l-27 -167h-917zM746 1636l-144 294h201l90 -294h-147z" />
    <glyph glyph-name="Eacute" unicode="&#xc9;" horiz-adv-x="1232" 
d="M87 0l247 1490h908l-28 -167h-718l-80 -487h669l-28 -167h-670l-83 -502h727l-27 -167h-917zM734 1654l186 276h201l-240 -276h-147z" />
    <glyph glyph-name="Ecircumflex" unicode="&#xca;" horiz-adv-x="1232" 
d="M87 0l247 1490h908l-28 -167h-718l-80 -487h669l-28 -167h-670l-83 -502h727l-27 -167h-917zM676 1654h-177l2 9l279 267h171l192 -267l-2 -9h-179l-112 175z" />
    <glyph glyph-name="Edieresis" unicode="&#xcb;" horiz-adv-x="1232" 
d="M87 0l247 1490h908l-28 -167h-718l-80 -487h669l-28 -167h-670l-83 -502h727l-27 -167h-917zM1034 1673q-49 0 -78 35t-21 84t49 83.5t90 34.5t77.5 -34.5t20.5 -83.5t-48.5 -84t-89.5 -35zM613 1673q-49 0 -78 35t-21 84t49 83.5t90 34.5t77.5 -34.5t20.5 -83.5
t-48.5 -84t-89.5 -35z" />
    <glyph glyph-name="Igrave" unicode="&#xcc;" horiz-adv-x="550" 
d="M524 1490l-247 -1490h-190l247 1490h190zM382 1636l-144 294h201l90 -294h-147z" />
    <glyph glyph-name="Iacute" unicode="&#xcd;" horiz-adv-x="550" 
d="M524 1490l-247 -1490h-190l247 1490h190zM370 1654l186 276h201l-240 -276h-147z" />
    <glyph glyph-name="Icircumflex" unicode="&#xce;" horiz-adv-x="550" 
d="M524 1490l-247 -1490h-190l247 1490h190zM312 1654h-177l2 9l279 267h171l192 -267l-2 -9h-179l-112 175z" />
    <glyph glyph-name="Idieresis" unicode="&#xcf;" horiz-adv-x="550" 
d="M524 1490l-247 -1490h-190l247 1490h190zM670 1673q-49 0 -78 35t-21 84t49 83.5t90 34.5t77.5 -34.5t20.5 -83.5t-48.5 -84t-89.5 -35zM249 1673q-49 0 -78 35t-21 84t49 83.5t90 34.5t77.5 -34.5t20.5 -83.5t-48.5 -84t-89.5 -35z" />
    <glyph glyph-name="Eth" unicode="&#xd0;" horiz-adv-x="1504" 
d="M612 0h-393l27 168h348q183 0 314.5 70t212 200.5t109.5 309.5q30 180 -7.5 308.5t-142 197t-276.5 68.5h-374l28 168h363q218 0 364 -89.5t207 -256t22 -398.5q-39 -235 -142.5 -401.5t-269 -255.5t-390.5 -89zM551 1490l-247 -1490h-190l247 1490h190zM43 668l25 154
h773l-25 -154h-773z" />
    <glyph glyph-name="Ntilde" unicode="&#xd1;" horiz-adv-x="1543" 
d="M87 0l247 1490h218l448 -953q14 -30 38.5 -86.5t53 -132t54.5 -163.5h-21q5 86 14 163.5t19 143.5t18 114l151 914h190l-247 -1490h-219l-400 848q-25 54 -51.5 115.5t-61 148.5t-86.5 217h28q-15 -121 -26.5 -214t-20 -159t-15.5 -106l-140 -850h-191zM1090 1685
q-37 0 -70.5 12.5t-62.5 29t-53 29t-43 12.5q-28 0 -44.5 -25.5t-22.5 -53.5h-126q19 92 68.5 150t128.5 58q39 0 70 -13t57.5 -29.5t50.5 -29.5t49 -13q26 0 41.5 19.5t27.5 61.5h123q-19 -97 -70.5 -152.5t-123.5 -55.5z" />
    <glyph glyph-name="Ograve" unicode="&#xd2;" horiz-adv-x="1566" 
d="M699 -20q-169 0 -295 72t-195.5 206.5t-69.5 321.5q0 177 55 343.5t159 298.5t250 210t327 78q169 0 294 -72t194.5 -206t69.5 -321q0 -178 -55 -344.5t-158.5 -299t-249 -210t-326.5 -77.5zM706 156q140 0 251 64t188.5 172t118 241.5t40.5 272.5q0 140 -48.5 235.5
t-134.5 144t-198 48.5q-140 0 -251 -64t-189 -172t-119 -241t-41 -272q0 -140 49 -235.5t135.5 -144.5t198.5 -49zM891 1636l-144 294h201l90 -294h-147z" />
    <glyph glyph-name="Oacute" unicode="&#xd3;" horiz-adv-x="1566" 
d="M699 -20q-169 0 -295 72t-195.5 206.5t-69.5 321.5q0 177 55 343.5t159 298.5t250 210t327 78q169 0 294 -72t194.5 -206t69.5 -321q0 -178 -55 -344.5t-158.5 -299t-249 -210t-326.5 -77.5zM706 156q140 0 251 64t188.5 172t118 241.5t40.5 272.5q0 140 -48.5 235.5
t-134.5 144t-198 48.5q-140 0 -251 -64t-189 -172t-119 -241t-41 -272q0 -140 49 -235.5t135.5 -144.5t198.5 -49zM879 1654l186 276h201l-240 -276h-147z" />
    <glyph glyph-name="Ocircumflex" unicode="&#xd4;" horiz-adv-x="1566" 
d="M699 -20q-169 0 -295 72t-195.5 206.5t-69.5 321.5q0 177 55 343.5t159 298.5t250 210t327 78q169 0 294 -72t194.5 -206t69.5 -321q0 -178 -55 -344.5t-158.5 -299t-249 -210t-326.5 -77.5zM706 156q140 0 251 64t188.5 172t118 241.5t40.5 272.5q0 140 -48.5 235.5
t-134.5 144t-198 48.5q-140 0 -251 -64t-189 -172t-119 -241t-41 -272q0 -140 49 -235.5t135.5 -144.5t198.5 -49zM821 1654h-177l2 9l279 267h171l192 -267l-2 -9h-179l-112 175z" />
    <glyph glyph-name="Otilde" unicode="&#xd5;" horiz-adv-x="1566" 
d="M699 -20q-169 0 -295 72t-195.5 206.5t-69.5 321.5q0 177 55 343.5t159 298.5t250 210t327 78q169 0 294 -72t194.5 -206t69.5 -321q0 -178 -55 -344.5t-158.5 -299t-249 -210t-326.5 -77.5zM706 156q140 0 251 64t188.5 172t118 241.5t40.5 272.5q0 140 -48.5 235.5
t-134.5 144t-198 48.5q-140 0 -251 -64t-189 -172t-119 -241t-41 -272q0 -140 49 -235.5t135.5 -144.5t198.5 -49zM1102 1685q-37 0 -70.5 12.5t-62.5 29t-53 29t-43 12.5q-28 0 -44.5 -25.5t-22.5 -53.5h-126q19 92 68.5 150t128.5 58q39 0 70 -13t57.5 -29.5t50.5 -29.5
t49 -13q26 0 41.5 19.5t27.5 61.5h123q-19 -97 -70.5 -152.5t-123.5 -55.5z" />
    <glyph glyph-name="Odieresis" unicode="&#xd6;" horiz-adv-x="1566" 
d="M699 -20q-169 0 -295 72t-195.5 206.5t-69.5 321.5q0 177 55 343.5t159 298.5t250 210t327 78q169 0 294 -72t194.5 -206t69.5 -321q0 -178 -55 -344.5t-158.5 -299t-249 -210t-326.5 -77.5zM706 156q140 0 251 64t188.5 172t118 241.5t40.5 272.5q0 140 -48.5 235.5
t-134.5 144t-198 48.5q-140 0 -251 -64t-189 -172t-119 -241t-41 -272q0 -140 49 -235.5t135.5 -144.5t198.5 -49zM1179 1673q-49 0 -78 35t-21 84t49 83.5t90 34.5t77.5 -34.5t20.5 -83.5t-48.5 -84t-89.5 -35zM758 1673q-49 0 -78 35t-21 84t49 83.5t90 34.5t77.5 -34.5
t20.5 -83.5t-48.5 -84t-89.5 -35z" />
    <glyph glyph-name="multiply" unicode="&#xd7;" horiz-adv-x="1356" 
d="M961 112l-687 824l125 108l687 -823zM269 116l-107 124l939 802l107 -125z" />
    <glyph glyph-name="Oslash" unicode="&#xd8;" horiz-adv-x="1566" 
d="M699 -20q-169 0 -295 72t-195.5 206.5t-69.5 321.5q0 177 55 343.5t159 298.5t250 210t327 78q169 0 294 -72t194.5 -206t69.5 -321q0 -178 -55 -344.5t-158.5 -299t-249 -210t-326.5 -77.5zM706 156q140 0 251 64t188.5 172t118 241.5t40.5 272.5q0 140 -48.5 235.5
t-134.5 144t-198 48.5q-140 0 -251 -64t-189 -172t-119 -241t-41 -272q0 -140 49 -235.5t135.5 -144.5t198.5 -49zM230 -46l-115 90l1286 1492l114 -91z" />
    <glyph glyph-name="Ugrave" unicode="&#xd9;" horiz-adv-x="1523" 
d="M677 -24q-179 0 -301 70.5t-175.5 192.5t-28.5 275l162 976h190l-161 -974q-18 -109 15 -191t111 -127.5t195 -45.5q123 0 221 49t161.5 134t81.5 194l159 961h190l-163 -989q-25 -154 -115.5 -272.5t-229.5 -185.5t-312 -67zM869 1636l-144 294h201l90 -294h-147z" />
    <glyph glyph-name="Uacute" unicode="&#xda;" horiz-adv-x="1523" 
d="M677 -24q-179 0 -301 70.5t-175.5 192.5t-28.5 275l162 976h190l-161 -974q-18 -109 15 -191t111 -127.5t195 -45.5q123 0 221 49t161.5 134t81.5 194l159 961h190l-163 -989q-25 -154 -115.5 -272.5t-229.5 -185.5t-312 -67zM857 1654l186 276h201l-240 -276h-147z" />
    <glyph glyph-name="Ucircumflex" unicode="&#xdb;" horiz-adv-x="1523" 
d="M677 -24q-179 0 -301 70.5t-175.5 192.5t-28.5 275l162 976h190l-161 -974q-18 -109 15 -191t111 -127.5t195 -45.5q123 0 221 49t161.5 134t81.5 194l159 961h190l-163 -989q-25 -154 -115.5 -272.5t-229.5 -185.5t-312 -67zM799 1654h-177l2 9l279 267h171l192 -267
l-2 -9h-179l-112 175z" />
    <glyph glyph-name="Udieresis" unicode="&#xdc;" horiz-adv-x="1523" 
d="M677 -24q-179 0 -301 70.5t-175.5 192.5t-28.5 275l162 976h190l-161 -974q-18 -109 15 -191t111 -127.5t195 -45.5q123 0 221 49t161.5 134t81.5 194l159 961h190l-163 -989q-25 -154 -115.5 -272.5t-229.5 -185.5t-312 -67zM1157 1673q-49 0 -78 35t-21 84t49 83.5
t90 34.5t77.5 -34.5t20.5 -83.5t-48.5 -84t-89.5 -35zM736 1673q-49 0 -78 35t-21 84t49 83.5t90 34.5t77.5 -34.5t20.5 -83.5t-48.5 -84t-89.5 -35z" />
    <glyph glyph-name="Yacute" unicode="&#xdd;" horiz-adv-x="1390" 
d="M507 0l101 610l-402 880h206l215 -481q36 -81 62.5 -154.5t49.5 -185.5h-76q60 114 111 188.5t111 151.5l374 481h233l-694 -880l-101 -610h-190zM790 1654l186 276h201l-240 -276h-147z" />
    <glyph glyph-name="Thorn" unicode="&#xde;" horiz-adv-x="1302" 
d="M322 1490h192l-248 -1490h-190zM359 1185l384 -1q161 0 261.5 -57.5t142.5 -153t25 -210.5q-17 -118 -89.5 -218t-193 -160t-284.5 -60h-385l27 166h385q104 0 179 31.5t120.5 90.5t58.5 140q14 82 -13 141t-92.5 91.5t-168.5 32.5h-384z" />
    <glyph glyph-name="germandbls" unicode="&#xdf;" horiz-adv-x="1262" 
d="M87 0l184 1107q21 124 90.5 214t176 139.5t235.5 49.5q125 0 217.5 -46t136.5 -132.5t24 -207.5q-21 -127 -100.5 -213t-189.5 -122l-2 -14q141 -14 215 -113t47 -255q-20 -118 -90 -210t-177 -144.5t-238 -52.5h-165l29 167h164q77 0 139 31t103 85.5t53 126.5
q20 113 -43.5 187t-197.5 74h-129l28 170h91q73 0 131 36.5t96 95.5t49 124q17 103 -39 174.5t-175 71.5q-109 0 -194 -65.5t-103 -173.5l-184 -1104h-182z" />
    <glyph glyph-name="agrave" unicode="&#xe0;" horiz-adv-x="1257" 
d="M481 -24q-139 0 -234 71.5t-133.5 202t-9.5 307.5q30 178 112 306.5t201 198.5t258 70q108 0 166 -35.5t84.5 -81t40.5 -76.5h15l29 179h181l-185 -1118h-175l28 173h-21q-25 -33 -68 -79.5t-113 -82t-176 -35.5zM537 137q102 0 180.5 54t130.5 149t72 219
q21 124 0.5 216.5t-82 144t-163.5 51.5q-107 0 -187.5 -55.5t-131 -148.5t-69.5 -208q-19 -117 1 -213t82 -152.5t167 -56.5zM673 1264l-144 294h201l90 -294h-147z" />
    <glyph glyph-name="aacute" unicode="&#xe1;" horiz-adv-x="1257" 
d="M481 -24q-139 0 -234 71.5t-133.5 202t-9.5 307.5q30 178 112 306.5t201 198.5t258 70q108 0 166 -35.5t84.5 -81t40.5 -76.5h15l29 179h181l-185 -1118h-175l28 173h-21q-25 -33 -68 -79.5t-113 -82t-176 -35.5zM537 137q102 0 180.5 54t130.5 149t72 219
q21 124 0.5 216.5t-82 144t-163.5 51.5q-107 0 -187.5 -55.5t-131 -148.5t-69.5 -208q-19 -117 1 -213t82 -152.5t167 -56.5zM661 1282l186 276h201l-240 -276h-147z" />
    <glyph glyph-name="acircumflex" unicode="&#xe2;" horiz-adv-x="1257" 
d="M481 -24q-139 0 -234 71.5t-133.5 202t-9.5 307.5q30 178 112 306.5t201 198.5t258 70q108 0 166 -35.5t84.5 -81t40.5 -76.5h15l29 179h181l-185 -1118h-175l28 173h-21q-25 -33 -68 -79.5t-113 -82t-176 -35.5zM537 137q102 0 180.5 54t130.5 149t72 219
q21 124 0.5 216.5t-82 144t-163.5 51.5q-107 0 -187.5 -55.5t-131 -148.5t-69.5 -208q-19 -117 1 -213t82 -152.5t167 -56.5zM603 1282h-177l2 9l279 267h171l192 -267l-2 -9h-179l-112 175z" />
    <glyph glyph-name="atilde" unicode="&#xe3;" horiz-adv-x="1257" 
d="M481 -24q-139 0 -234 71.5t-133.5 202t-9.5 307.5q30 178 112 306.5t201 198.5t258 70q108 0 166 -35.5t84.5 -81t40.5 -76.5h15l29 179h181l-185 -1118h-175l28 173h-21q-25 -33 -68 -79.5t-113 -82t-176 -35.5zM537 137q102 0 180.5 54t130.5 149t72 219
q21 124 0.5 216.5t-82 144t-163.5 51.5q-107 0 -187.5 -55.5t-131 -148.5t-69.5 -208q-19 -117 1 -213t82 -152.5t167 -56.5zM884 1313q-37 0 -70.5 12.5t-62.5 29t-53 29t-43 12.5q-28 0 -44.5 -25.5t-22.5 -53.5h-126q19 92 68.5 150t128.5 58q39 0 70 -13t57.5 -29.5
t50.5 -29.5t49 -13q26 0 41.5 19.5t27.5 61.5h123q-19 -97 -70.5 -152.5t-123.5 -55.5z" />
    <glyph glyph-name="adieresis" unicode="&#xe4;" horiz-adv-x="1257" 
d="M481 -24q-139 0 -234 71.5t-133.5 202t-9.5 307.5q30 178 112 306.5t201 198.5t258 70q108 0 166 -35.5t84.5 -81t40.5 -76.5h15l29 179h181l-185 -1118h-175l28 173h-21q-25 -33 -68 -79.5t-113 -82t-176 -35.5zM537 137q102 0 180.5 54t130.5 149t72 219
q21 124 0.5 216.5t-82 144t-163.5 51.5q-107 0 -187.5 -55.5t-131 -148.5t-69.5 -208q-19 -117 1 -213t82 -152.5t167 -56.5zM961 1301q-49 0 -78 35t-21 84t49 83.5t90 34.5t77.5 -34.5t20.5 -83.5t-48.5 -84t-89.5 -35zM540 1301q-49 0 -78 35t-21 84t49 83.5t90 34.5
t77.5 -34.5t20.5 -83.5t-48.5 -84t-89.5 -35z" />
    <glyph glyph-name="aring" unicode="&#xe5;" horiz-adv-x="1257" 
d="M481 -24q-139 0 -234 71.5t-133.5 202t-9.5 307.5q30 178 112 306.5t201 198.5t258 70q108 0 166 -35.5t84.5 -81t40.5 -76.5h15l29 179h181l-185 -1118h-175l28 173h-21q-25 -33 -68 -79.5t-113 -82t-176 -35.5zM537 137q102 0 180.5 54t130.5 149t72 219
q21 124 0.5 216.5t-82 144t-163.5 51.5q-107 0 -187.5 -55.5t-131 -148.5t-69.5 -208q-19 -117 1 -213t82 -152.5t167 -56.5zM732 1189q-73 0 -127 34t-80 91.5t-15 126.5q12 70 57 126.5t110.5 90.5t137.5 34q73 0 127 -34t80 -90.5t14 -126.5q-11 -69 -56 -126.5
t-110 -91.5t-138 -34zM753 1315q53 0 95.5 37t50.5 90t-23.5 88.5t-81.5 35.5q-52 0 -94.5 -36t-51.5 -88t21.5 -89.5t83.5 -37.5z" />
    <glyph glyph-name="ae" unicode="&#xe6;" horiz-adv-x="1859" 
d="M391 -16q-173 0 -262.5 92.5t-63.5 247.5q13 77 59 145.5t139 111.5t246 43q54 0 102.5 0.5t105 0.5h133.5l-12 -138q-78 0 -161 -1t-156 -1q-110 0 -187 -40t-91 -125q-15 -89 31.5 -134.5t147.5 -45.5q105 0 176.5 38.5t112.5 99.5t53 128l67 359q21 113 -26.5 166.5
t-178.5 53.5q-70 0 -127.5 -22.5t-95.5 -63.5t-53 -98l-182 2q21 101 87.5 177t167.5 118.5t225 42.5q125 0 210.5 -44.5t123.5 -124.5t20 -186l-88 -532l-17 -1q-40 -78 -109 -138.5t-167.5 -95.5t-229.5 -35zM1215 -24q-138 0 -234 53.5t-146 154.5t-50 241q0 149 46 279
t128 228.5t190.5 154t234.5 55.5q108 0 188 -37.5t124 -106t44 -161.5q0 -94 -48.5 -160.5t-150.5 -108.5t-261 -61.5t-381 -19.5l24 136q183 0 306 10.5t195.5 35.5t104 67t31.5 105q0 64 -53.5 102.5t-140.5 38.5q-93 0 -175 -47.5t-138.5 -129t-73.5 -182.5
q-11 -67 -17 -105t-8 -59t-2 -38q0 -138 70.5 -212t203.5 -74q108 0 191.5 47t125.5 126l167 -45q-62 -133 -195 -210t-300 -77z" />
    <glyph glyph-name="ccedilla" unicode="&#xe7;" horiz-adv-x="1171" 
d="M528 -24q-135 0 -232 56.5t-149.5 159.5t-52.5 241q0 133 41.5 258t119.5 224.5t189.5 158t252.5 58.5q83 0 153.5 -21.5t124 -62.5t87.5 -99t45 -131l-176 -39q-5 43 -23 78t-48 60.5t-71.5 39.5t-95.5 14q-102 0 -180 -48t-131.5 -127t-80.5 -173.5t-27 -187.5
q0 -83 26.5 -151t83.5 -107.5t148 -39.5q58 0 109.5 16t94 44.5t74.5 67t51 83.5l166 -58q-34 -74 -86 -132t-117 -98.5t-140 -62t-156 -21.5zM340 -418l17 105h118q55 0 79 14.5t30 50.5t-12 51t-75 15h-82l68 230h95l-8 -48l-14 -86q95 -4 135 -41.5t27 -117.5
q-14 -89 -75 -131t-184 -42h-119z" />
    <glyph glyph-name="egrave" unicode="&#xe8;" horiz-adv-x="1179" 
d="M535 -24q-138 0 -236.5 54t-151.5 155t-53 242q0 147 47 276.5t131 228t194.5 154.5t237.5 56q108 0 188 -37.5t124 -106t44 -161.5q0 -94 -48.5 -160.5t-150.5 -108.5t-261.5 -61.5t-380.5 -19.5l24 136q183 0 306 10.5t195.5 35.5t104 67t31.5 105q0 64 -53.5 102.5
t-140.5 38.5q-113 0 -192.5 -54.5t-129.5 -140t-73.5 -181t-23.5 -178.5q0 -82 27 -148.5t88.5 -105.5t163.5 -39q107 0 190.5 46.5t126.5 126.5l167 -47q-62 -132 -195.5 -208.5t-299.5 -76.5zM658 1264l-144 294h201l90 -294h-147z" />
    <glyph glyph-name="eacute" unicode="&#xe9;" horiz-adv-x="1179" 
d="M535 -24q-138 0 -236.5 54t-151.5 155t-53 242q0 147 47 276.5t131 228t194.5 154.5t237.5 56q108 0 188 -37.5t124 -106t44 -161.5q0 -94 -48.5 -160.5t-150.5 -108.5t-261.5 -61.5t-380.5 -19.5l24 136q183 0 306 10.5t195.5 35.5t104 67t31.5 105q0 64 -53.5 102.5
t-140.5 38.5q-113 0 -192.5 -54.5t-129.5 -140t-73.5 -181t-23.5 -178.5q0 -82 27 -148.5t88.5 -105.5t163.5 -39q107 0 190.5 46.5t126.5 126.5l167 -47q-62 -132 -195.5 -208.5t-299.5 -76.5zM646 1282l186 276h201l-240 -276h-147z" />
    <glyph glyph-name="ecircumflex" unicode="&#xea;" horiz-adv-x="1179" 
d="M535 -24q-138 0 -236.5 54t-151.5 155t-53 242q0 147 47 276.5t131 228t194.5 154.5t237.5 56q108 0 188 -37.5t124 -106t44 -161.5q0 -94 -48.5 -160.5t-150.5 -108.5t-261.5 -61.5t-380.5 -19.5l24 136q183 0 306 10.5t195.5 35.5t104 67t31.5 105q0 64 -53.5 102.5
t-140.5 38.5q-113 0 -192.5 -54.5t-129.5 -140t-73.5 -181t-23.5 -178.5q0 -82 27 -148.5t88.5 -105.5t163.5 -39q107 0 190.5 46.5t126.5 126.5l167 -47q-62 -132 -195.5 -208.5t-299.5 -76.5zM588 1282h-177l2 9l279 267h171l192 -267l-2 -9h-179l-112 175z" />
    <glyph glyph-name="edieresis" unicode="&#xeb;" horiz-adv-x="1179" 
d="M535 -24q-138 0 -236.5 54t-151.5 155t-53 242q0 147 47 276.5t131 228t194.5 154.5t237.5 56q108 0 188 -37.5t124 -106t44 -161.5q0 -94 -48.5 -160.5t-150.5 -108.5t-261.5 -61.5t-380.5 -19.5l24 136q183 0 306 10.5t195.5 35.5t104 67t31.5 105q0 64 -53.5 102.5
t-140.5 38.5q-113 0 -192.5 -54.5t-129.5 -140t-73.5 -181t-23.5 -178.5q0 -82 27 -148.5t88.5 -105.5t163.5 -39q107 0 190.5 46.5t126.5 126.5l167 -47q-62 -132 -195.5 -208.5t-299.5 -76.5zM946 1301q-49 0 -78 35t-21 84t49 83.5t90 34.5t77.5 -34.5t20.5 -83.5
t-48.5 -84t-89.5 -35zM525 1301q-49 0 -78 35t-21 84t49 83.5t90 34.5t77.5 -34.5t20.5 -83.5t-48.5 -84t-89.5 -35z" />
    <glyph glyph-name="igrave" unicode="&#xec;" horiz-adv-x="497" 
d="M66 0l185 1118h180l-185 -1118h-180zM295 1264l-144 294h201l90 -294h-147z" />
    <glyph glyph-name="iacute" unicode="&#xed;" horiz-adv-x="497" 
d="M66 0l185 1118h180l-185 -1118h-180zM283 1282l186 276h201l-240 -276h-147z" />
    <glyph glyph-name="icircumflex" unicode="&#xee;" horiz-adv-x="497" 
d="M66 0l185 1118h180l-185 -1118h-180zM225 1282h-177l2 9l279 267h171l192 -267l-2 -9h-179l-112 175z" />
    <glyph glyph-name="idieresis" unicode="&#xef;" horiz-adv-x="497" 
d="M66 0l185 1118h180l-185 -1118h-180zM583 1301q-49 0 -78 35t-21 84t49 83.5t90 34.5t77.5 -34.5t20.5 -83.5t-48.5 -84t-89.5 -35zM162 1301q-49 0 -78 35t-21 84t49 83.5t90 34.5t77.5 -34.5t20.5 -83.5t-48.5 -84t-89.5 -35z" />
    <glyph glyph-name="eth" unicode="&#xf0;" horiz-adv-x="1192" 
d="M1109 1415l-653 -292l-28 110l651 292zM499 -24q-150 0 -249 69t-139 190t-15 276q26 158 105.5 279t192 189t236.5 68q84 0 142 -28.5t94.5 -71.5t54.5 -86h14q-18 92 -66.5 197t-142.5 208.5t-250 189.5l93 125q113 -60 218.5 -155.5t184 -225t112 -291.5t3.5 -355
q-29 -184 -112 -313t-205.5 -197t-270.5 -68zM529 136q104 0 182.5 49t128 132.5t65.5 184.5q16 96 -2 187t-77.5 150.5t-170.5 59.5q-106 0 -185 -54.5t-127.5 -142.5t-65.5 -190q-16 -98 2.5 -184t79 -139t170.5 -53z" />
    <glyph glyph-name="ntilde" unicode="&#xf1;" horiz-adv-x="1211" 
d="M356 664l-111 -664h-180l186 1118h173l-44 -271l-26 6q75 152 177 215.5t227 63.5q116 0 196 -48t113.5 -143t9.5 -237l-117 -704h-180l117 701q22 131 -32 200t-167 69q-82 0 -154 -36.5t-122 -105t-66 -164.5zM862 1313q-37 0 -70.5 12.5t-62.5 29t-53 29t-43 12.5
q-28 0 -44.5 -25.5t-22.5 -53.5h-126q19 92 68.5 150t128.5 58q39 0 70 -13t57.5 -29.5t50.5 -29.5t49 -13q26 0 41.5 19.5t27.5 61.5h123q-19 -97 -70.5 -152.5t-123.5 -55.5z" />
    <glyph glyph-name="ograve" unicode="&#xf2;" horiz-adv-x="1229" 
d="M528 -24q-135 0 -232 56.5t-149.5 159.5t-52.5 241q0 133 41.5 258t120 224.5t190 158t251.5 58.5q135 0 233 -56t150.5 -159t52.5 -243q0 -135 -42 -260t-121.5 -224t-191 -156.5t-250.5 -57.5zM532 137q103 0 181.5 48t131.5 126.5t80 172.5t27 186q0 85 -27 153
t-84 108t-149 40q-102 0 -180 -48t-131 -127t-80 -173.5t-27 -187.5q0 -126 61 -212t197 -86zM659 1264l-144 294h201l90 -294h-147z" />
    <glyph glyph-name="oacute" unicode="&#xf3;" horiz-adv-x="1229" 
d="M528 -24q-135 0 -232 56.5t-149.5 159.5t-52.5 241q0 133 41.5 258t120 224.5t190 158t251.5 58.5q135 0 233 -56t150.5 -159t52.5 -243q0 -135 -42 -260t-121.5 -224t-191 -156.5t-250.5 -57.5zM532 137q103 0 181.5 48t131.5 126.5t80 172.5t27 186q0 85 -27 153
t-84 108t-149 40q-102 0 -180 -48t-131 -127t-80 -173.5t-27 -187.5q0 -126 61 -212t197 -86zM647 1282l186 276h201l-240 -276h-147z" />
    <glyph glyph-name="ocircumflex" unicode="&#xf4;" horiz-adv-x="1229" 
d="M528 -24q-135 0 -232 56.5t-149.5 159.5t-52.5 241q0 133 41.5 258t120 224.5t190 158t251.5 58.5q135 0 233 -56t150.5 -159t52.5 -243q0 -135 -42 -260t-121.5 -224t-191 -156.5t-250.5 -57.5zM532 137q103 0 181.5 48t131.5 126.5t80 172.5t27 186q0 85 -27 153
t-84 108t-149 40q-102 0 -180 -48t-131 -127t-80 -173.5t-27 -187.5q0 -126 61 -212t197 -86zM589 1282h-177l2 9l279 267h171l192 -267l-2 -9h-179l-112 175z" />
    <glyph glyph-name="otilde" unicode="&#xf5;" horiz-adv-x="1229" 
d="M528 -24q-135 0 -232 56.5t-149.5 159.5t-52.5 241q0 133 41.5 258t120 224.5t190 158t251.5 58.5q135 0 233 -56t150.5 -159t52.5 -243q0 -135 -42 -260t-121.5 -224t-191 -156.5t-250.5 -57.5zM532 137q103 0 181.5 48t131.5 126.5t80 172.5t27 186q0 85 -27 153
t-84 108t-149 40q-102 0 -180 -48t-131 -127t-80 -173.5t-27 -187.5q0 -126 61 -212t197 -86zM870 1313q-37 0 -70.5 12.5t-62.5 29t-53 29t-43 12.5q-28 0 -44.5 -25.5t-22.5 -53.5h-126q19 92 68.5 150t128.5 58q39 0 70 -13t57.5 -29.5t50.5 -29.5t49 -13q26 0 41.5 19.5
t27.5 61.5h123q-19 -97 -70.5 -152.5t-123.5 -55.5z" />
    <glyph glyph-name="odieresis" unicode="&#xf6;" horiz-adv-x="1229" 
d="M528 -24q-135 0 -232 56.5t-149.5 159.5t-52.5 241q0 133 41.5 258t120 224.5t190 158t251.5 58.5q135 0 233 -56t150.5 -159t52.5 -243q0 -135 -42 -260t-121.5 -224t-191 -156.5t-250.5 -57.5zM532 137q103 0 181.5 48t131.5 126.5t80 172.5t27 186q0 85 -27 153
t-84 108t-149 40q-102 0 -180 -48t-131 -127t-80 -173.5t-27 -187.5q0 -126 61 -212t197 -86zM947 1301q-49 0 -78 35t-21 84t49 83.5t90 34.5t77.5 -34.5t20.5 -83.5t-48.5 -84t-89.5 -35zM526 1301q-49 0 -78 35t-21 84t49 83.5t90 34.5t77.5 -34.5t20.5 -83.5t-48.5 -84
t-89.5 -35z" />
    <glyph glyph-name="divide" unicode="&#xf7;" horiz-adv-x="1356" 
d="M1165 668l-27 -170h-938l27 170h938zM609 72q-62 0 -95 43t-26 100q4 34 25 61.5t52.5 43.5t65.5 16q53 0 89 -39t29 -101q-6 -55 -49.5 -89.5t-90.5 -34.5zM734 830q-39 0 -69 19t-45 51.5t-9 72.5q8 51 51 86.5t96 35.5q54 0 90 -41.5t26 -101.5q-8 -51 -49 -86.5
t-91 -35.5z" />
    <glyph glyph-name="oslash" unicode="&#xf8;" horiz-adv-x="1229" 
d="M528 -24q-135 0 -232 56.5t-149.5 159.5t-52.5 241q0 133 41.5 258t120 224.5t190 158t251.5 58.5q135 0 233 -56t150.5 -159t52.5 -243q0 -135 -42 -260t-121.5 -224t-191 -156.5t-250.5 -57.5zM532 137q103 0 181.5 48t131.5 126.5t80 172.5t27 186q0 85 -27 153
t-84 108t-149 40q-102 0 -180 -48t-131 -127t-80 -173.5t-27 -187.5q0 -126 61 -212t197 -86zM90 -45l-92 90l1139 1118l92 -90z" />
    <glyph glyph-name="ugrave" unicode="&#xf9;" horiz-adv-x="1212" 
d="M443 -14q-112 0 -189.5 46t-110 140t-9.5 236l117 710h180l-114 -695q-21 -128 33.5 -201.5t172.5 -73.5q79 0 148.5 34.5t118.5 101.5t65 164l110 670h181l-185 -1118h-174l45 271h24q-77 -157 -183 -221t-230 -64zM651 1264l-144 294h201l90 -294h-147z" />
    <glyph glyph-name="uacute" unicode="&#xfa;" horiz-adv-x="1212" 
d="M443 -14q-112 0 -189.5 46t-110 140t-9.5 236l117 710h180l-114 -695q-21 -128 33.5 -201.5t172.5 -73.5q79 0 148.5 34.5t118.5 101.5t65 164l110 670h181l-185 -1118h-174l45 271h24q-77 -157 -183 -221t-230 -64zM639 1282l186 276h201l-240 -276h-147z" />
    <glyph glyph-name="ucircumflex" unicode="&#xfb;" horiz-adv-x="1212" 
d="M443 -14q-112 0 -189.5 46t-110 140t-9.5 236l117 710h180l-114 -695q-21 -128 33.5 -201.5t172.5 -73.5q79 0 148.5 34.5t118.5 101.5t65 164l110 670h181l-185 -1118h-174l45 271h24q-77 -157 -183 -221t-230 -64zM581 1282h-177l2 9l279 267h171l192 -267l-2 -9h-179
l-112 175z" />
    <glyph glyph-name="udieresis" unicode="&#xfc;" horiz-adv-x="1212" 
d="M443 -14q-112 0 -189.5 46t-110 140t-9.5 236l117 710h180l-114 -695q-21 -128 33.5 -201.5t172.5 -73.5q79 0 148.5 34.5t118.5 101.5t65 164l110 670h181l-185 -1118h-174l45 271h24q-77 -157 -183 -221t-230 -64zM939 1301q-49 0 -78 35t-21 84t49 83.5t90 34.5
t77.5 -34.5t20.5 -83.5t-48.5 -84t-89.5 -35zM518 1301q-49 0 -78 35t-21 84t49 83.5t90 34.5t77.5 -34.5t20.5 -83.5t-48.5 -84t-89.5 -35z" />
    <glyph glyph-name="yacute" unicode="&#xfd;" horiz-adv-x="1151" 
d="M-19 -405l72 156l17 -4q55 -13 101.5 -6.5t88 44t81.5 116.5l47 93l-241 1124h188l129 -663q20 -103 29.5 -205.5t22.5 -198.5h-66q45 96 88 198.5t98 205.5l349 663h205l-704 -1285q-48 -88 -105.5 -145.5t-125 -85.5t-147.5 -28q-44 0 -78.5 7t-48.5 14zM609 1282
l186 276h201l-240 -276h-147z" />
    <glyph glyph-name="thorn" unicode="&#xfe;" horiz-adv-x="1254" 
d="M580 -24q-105 0 -163 35.5t-86 82t-43 79.5h-14l-98 -591h-180l316 1908h180l-91 -551h14q25 31 66.5 76.5t111.5 81t178 35.5q139 0 234 -69.5t134.5 -198t10.5 -306.5q-29 -180 -112 -310.5t-201.5 -201t-256.5 -70.5zM580 137q105 0 184.5 56.5t131.5 152t71 213.5
q19 115 -0.5 208.5t-80.5 148.5t-168 55q-102 0 -180.5 -51.5t-129.5 -144t-72 -216.5q-20 -123 0 -218.5t81 -149.5t163 -54z" />
    <glyph glyph-name="ydieresis" unicode="&#xff;" horiz-adv-x="1151" 
d="M-19 -405l72 156l17 -4q55 -13 101.5 -6.5t88 44t81.5 116.5l47 93l-241 1124h188l129 -663q20 -103 29.5 -205.5t22.5 -198.5h-66q45 96 88 198.5t98 205.5l349 663h205l-704 -1285q-48 -88 -105.5 -145.5t-125 -85.5t-147.5 -28q-44 0 -78.5 7t-48.5 14zM909 1301
q-49 0 -78 35t-21 84t49 83.5t90 34.5t77.5 -34.5t20.5 -83.5t-48.5 -84t-89.5 -35zM488 1301q-49 0 -78 35t-21 84t49 83.5t90 34.5t77.5 -34.5t20.5 -83.5t-48.5 -84t-89.5 -35z" />
    <glyph glyph-name="Amacron" unicode="&#x100;" horiz-adv-x="1413" 
d="M-41 0l788 1490h220l301 -1490h-192l-169 884q-13 71 -33 199t-43 318h36q-81 -181 -141.5 -308t-102.5 -209l-454 -884h-210zM300 416l27 166h765l-27 -166h-765zM1200 1863l-24 -142h-554l24 142h554z" />
    <glyph glyph-name="amacron" unicode="&#x101;" horiz-adv-x="1257" 
d="M481 -24q-139 0 -234 71.5t-133.5 202t-9.5 307.5q30 178 112 306.5t201 198.5t258 70q108 0 166 -35.5t84.5 -81t40.5 -76.5h15l29 179h181l-185 -1118h-175l28 173h-21q-25 -33 -68 -79.5t-113 -82t-176 -35.5zM537 137q102 0 180.5 54t130.5 149t72 219
q21 124 0.5 216.5t-82 144t-163.5 51.5q-107 0 -187.5 -55.5t-131 -148.5t-69.5 -208q-19 -117 1 -213t82 -152.5t167 -56.5zM1060 1491l-24 -142h-554l24 142h554z" />
    <glyph glyph-name="Abreve" unicode="&#x102;" horiz-adv-x="1413" 
d="M-41 0l788 1490h220l301 -1490h-192l-169 884q-13 71 -33 199t-43 318h36q-81 -181 -141.5 -308t-102.5 -209l-454 -884h-210zM300 416l27 166h765l-27 -166h-765zM885 1647q-81 0 -140.5 38t-87 102t-14.5 143h132q-11 -69 26 -112t106 -43q46 0 85 19.5t65.5 54.5
t33.5 81h132q-13 -79 -62.5 -143.5t-121.5 -102t-154 -37.5z" />
    <glyph glyph-name="abreve" unicode="&#x103;" horiz-adv-x="1257" 
d="M481 -24q-139 0 -234 71.5t-133.5 202t-9.5 307.5q30 178 112 306.5t201 198.5t258 70q108 0 166 -35.5t84.5 -81t40.5 -76.5h15l29 179h181l-185 -1118h-175l28 173h-21q-25 -33 -68 -79.5t-113 -82t-176 -35.5zM537 137q102 0 180.5 54t130.5 149t72 219
q21 124 0.5 216.5t-82 144t-163.5 51.5q-107 0 -187.5 -55.5t-131 -148.5t-69.5 -208q-19 -117 1 -213t82 -152.5t167 -56.5zM745 1275q-81 0 -140.5 38t-87 102t-14.5 143h132q-11 -69 26 -112t106 -43q46 0 85 19.5t65.5 54.5t33.5 81h132q-13 -79 -62.5 -143.5
t-121.5 -102t-154 -37.5z" />
    <glyph glyph-name="Aogonek" unicode="&#x104;" horiz-adv-x="1413" 
d="M-41 0l788 1490h220l301 -1490h-192l-169 884q-13 71 -33 199t-43 318h36q-81 -181 -141.5 -308t-102.5 -209l-454 -884h-210zM300 416l27 166h765l-27 -166h-765zM1082 -436q-94 0 -157 49t-47 146q12 71 67.5 136.5t146.5 120.5l176 -16q-79 -50 -135 -97t-67 -108
q-7 -39 11.5 -59.5t58.5 -20.5q30 0 55 9t43 19l38 -129q-33 -17 -80.5 -33.5t-109.5 -16.5z" />
    <glyph glyph-name="aogonek" unicode="&#x105;" horiz-adv-x="1257" 
d="M481 -24q-139 0 -234 71.5t-133.5 202t-9.5 307.5q30 178 112 306.5t201 198.5t258 70q108 0 166 -35.5t84.5 -81t40.5 -76.5h15l29 179h181l-185 -1118h-175l28 173h-21q-25 -33 -68 -79.5t-113 -82t-176 -35.5zM537 137q102 0 180.5 54t130.5 149t72 219
q21 124 0.5 216.5t-82 144t-163.5 51.5q-107 0 -187.5 -55.5t-131 -148.5t-69.5 -208q-19 -117 1 -213t82 -152.5t167 -56.5zM822 -426q-97 0 -157.5 50t-45.5 143q12 74 69 135.5t144 113.5l174 -16q-66 -41 -127.5 -86.5t-72.5 -110.5q-6 -37 12 -57.5t58 -20.5
q29 0 53 8.5t45 18.5l38 -128q-33 -17 -80.5 -33.5t-109.5 -16.5z" />
    <glyph glyph-name="Cacute" unicode="&#x106;" horiz-adv-x="1495" 
d="M698 -20q-169 0 -295 72t-195 206.5t-69 321.5q0 176 55 342.5t158 299t249 210.5t328 78q115 0 211.5 -33t168 -96t111 -153.5t40.5 -206.5h-190q-3 76 -30.5 134t-74.5 98t-109 60.5t-134 20.5q-140 0 -251 -64t-188.5 -172t-118.5 -241.5t-41 -271.5q0 -140 49 -236
t135 -144.5t198 -48.5q76 0 148.5 20.5t136 60.5t112.5 98t77 134h191q-39 -114 -106 -204t-156.5 -154t-193.5 -97.5t-216 -33.5zM878 1654l186 276h201l-240 -276h-147z" />
    <glyph glyph-name="cacute" unicode="&#x107;" horiz-adv-x="1171" 
d="M528 -24q-135 0 -232 56.5t-149.5 159.5t-52.5 241q0 133 41.5 258t119.5 224.5t189.5 158t252.5 58.5q83 0 153.5 -21.5t124 -62.5t87.5 -99t45 -131l-176 -39q-5 43 -23 78t-48 60.5t-71.5 39.5t-95.5 14q-102 0 -180 -48t-131.5 -127t-80.5 -173.5t-27 -187.5
q0 -83 26.5 -151t83.5 -107.5t148 -39.5q58 0 109.5 16t94 44.5t74.5 67t51 83.5l166 -58q-34 -74 -86 -132t-117 -98.5t-140 -62t-156 -21.5zM647 1282l186 276h201l-240 -276h-147z" />
    <glyph glyph-name="Ccircumflex" unicode="&#x108;" horiz-adv-x="1495" 
d="M698 -20q-169 0 -295 72t-195 206.5t-69 321.5q0 176 55 342.5t158 299t249 210.5t328 78q115 0 211.5 -33t168 -96t111 -153.5t40.5 -206.5h-190q-3 76 -30.5 134t-74.5 98t-109 60.5t-134 20.5q-140 0 -251 -64t-188.5 -172t-118.5 -241.5t-41 -271.5q0 -140 49 -236
t135 -144.5t198 -48.5q76 0 148.5 20.5t136 60.5t112.5 98t77 134h191q-39 -114 -106 -204t-156.5 -154t-193.5 -97.5t-216 -33.5zM820 1654h-177l2 9l279 267h171l192 -267l-2 -9h-179l-112 175z" />
    <glyph glyph-name="ccircumflex" unicode="&#x109;" horiz-adv-x="1171" 
d="M528 -24q-135 0 -232 56.5t-149.5 159.5t-52.5 241q0 133 41.5 258t119.5 224.5t189.5 158t252.5 58.5q83 0 153.5 -21.5t124 -62.5t87.5 -99t45 -131l-176 -39q-5 43 -23 78t-48 60.5t-71.5 39.5t-95.5 14q-102 0 -180 -48t-131.5 -127t-80.5 -173.5t-27 -187.5
q0 -83 26.5 -151t83.5 -107.5t148 -39.5q58 0 109.5 16t94 44.5t74.5 67t51 83.5l166 -58q-34 -74 -86 -132t-117 -98.5t-140 -62t-156 -21.5zM589 1282h-177l2 9l279 267h171l192 -267l-2 -9h-179l-112 175z" />
    <glyph glyph-name="Cdotaccent" unicode="&#x10a;" horiz-adv-x="1495" 
d="M698 -20q-169 0 -295 72t-195 206.5t-69 321.5q0 176 55 342.5t158 299t249 210.5t328 78q115 0 211.5 -33t168 -96t111 -153.5t40.5 -206.5h-190q-3 76 -30.5 134t-74.5 98t-109 60.5t-134 20.5q-140 0 -251 -64t-188.5 -172t-118.5 -241.5t-41 -271.5q0 -140 49 -236
t135 -144.5t198 -48.5q76 0 148.5 20.5t136 60.5t112.5 98t77 134h191q-39 -114 -106 -204t-156.5 -154t-193.5 -97.5t-216 -33.5zM967 1673q-51 0 -82 35t-23 84q8 50 51 84.5t94 34.5q52 0 83 -34.5t23 -84.5q-8 -49 -51 -84t-95 -35z" />
    <glyph glyph-name="cdotaccent" unicode="&#x10b;" horiz-adv-x="1171" 
d="M528 -24q-135 0 -232 56.5t-149.5 159.5t-52.5 241q0 133 41.5 258t119.5 224.5t189.5 158t252.5 58.5q83 0 153.5 -21.5t124 -62.5t87.5 -99t45 -131l-176 -39q-5 43 -23 78t-48 60.5t-71.5 39.5t-95.5 14q-102 0 -180 -48t-131.5 -127t-80.5 -173.5t-27 -187.5
q0 -83 26.5 -151t83.5 -107.5t148 -39.5q58 0 109.5 16t94 44.5t74.5 67t51 83.5l166 -58q-34 -74 -86 -132t-117 -98.5t-140 -62t-156 -21.5zM736 1301q-51 0 -82 35t-23 84q8 50 51 84.5t94 34.5q52 0 83 -34.5t23 -84.5q-8 -49 -51 -84t-95 -35z" />
    <glyph glyph-name="Ccaron" unicode="&#x10c;" horiz-adv-x="1495" 
d="M698 -20q-169 0 -295 72t-195 206.5t-69 321.5q0 176 55 342.5t158 299t249 210.5t328 78q115 0 211.5 -33t168 -96t111 -153.5t40.5 -206.5h-190q-3 76 -30.5 134t-74.5 98t-109 60.5t-134 20.5q-140 0 -251 -64t-188.5 -172t-118.5 -241.5t-41 -271.5q0 -140 49 -236
t135 -144.5t198 -48.5q76 0 148.5 20.5t136 60.5t112.5 98t77 134h191q-39 -114 -106 -204t-156.5 -154t-193.5 -97.5t-216 -33.5zM866 1930l115 -175l171 175h179l-2 -9l-281 -267h-171l-190 267l2 9h177z" />
    <glyph glyph-name="ccaron" unicode="&#x10d;" horiz-adv-x="1171" 
d="M528 -24q-135 0 -232 56.5t-149.5 159.5t-52.5 241q0 133 41.5 258t119.5 224.5t189.5 158t252.5 58.5q83 0 153.5 -21.5t124 -62.5t87.5 -99t45 -131l-176 -39q-5 43 -23 78t-48 60.5t-71.5 39.5t-95.5 14q-102 0 -180 -48t-131.5 -127t-80.5 -173.5t-27 -187.5
q0 -83 26.5 -151t83.5 -107.5t148 -39.5q58 0 109.5 16t94 44.5t74.5 67t51 83.5l166 -58q-34 -74 -86 -132t-117 -98.5t-140 -62t-156 -21.5zM635 1558l115 -175l171 175h179l-2 -9l-281 -267h-171l-190 267l2 9h177z" />
    <glyph glyph-name="Dcaron" unicode="&#x10e;" horiz-adv-x="1477" 
d="M585 0h-393l27 168h348q183 0 314.5 70t212 200.5t109.5 309.5q30 180 -7.5 308.5t-142 197t-276.5 68.5h-374l28 168h363q218 0 364 -89.5t207 -256t22 -398.5q-39 -235 -142.5 -401.5t-269 -255.5t-390.5 -89zM524 1490l-247 -1490h-190l247 1490h190zM702 1930
l115 -175l171 175h179l-2 -9l-281 -267h-171l-190 267l2 9h177z" />
    <glyph glyph-name="dcaron" unicode="&#x10f;" horiz-adv-x="1404" 
d="M492 -24q-183 0 -290.5 120.5t-107.5 328.5q0 132 38.5 258t112 227.5t179 161.5t239.5 60q111 0 171.5 -36.5t89 -83.5t42.5 -78h12l92 556h181l-247 -1490h-175l30 173h-19q-24 -35 -65.5 -81.5t-110 -81t-172.5 -34.5zM524 137q101 0 177 49t127 130t77 178t26 192
q0 131 -61 208t-186 77q-100 0 -176 -47.5t-127.5 -126t-78 -173t-26.5 -189.5q0 -130 60.5 -214t187.5 -84zM1344 1182l62 378h180l-114 -378h-128z" />
    <glyph glyph-name="Dcroat" unicode="&#x110;" horiz-adv-x="1504" 
d="M612 0h-393l27 168h348q183 0 314.5 70t212 200.5t109.5 309.5q30 180 -7.5 308.5t-142 197t-276.5 68.5h-374l28 168h363q218 0 364 -89.5t207 -256t22 -398.5q-39 -235 -142.5 -401.5t-269 -255.5t-390.5 -89zM551 1490l-247 -1490h-190l247 1490h190zM43 668l25 154
h773l-25 -154h-773z" />
    <glyph glyph-name="dcroat" unicode="&#x111;" horiz-adv-x="1255" 
d="M492 -24q-183 0 -290.5 120.5t-107.5 328.5q0 132 38.5 258t112 227.5t179 161.5t239.5 60q111 0 171.5 -36.5t89 -83.5t42.5 -78h12l92 556h181l-247 -1490h-175l30 173h-19q-24 -35 -65.5 -81.5t-110 -81t-172.5 -34.5zM524 137q101 0 177 49t127 130t77 178t26 192
q0 131 -61 208t-186 77q-100 0 -176 -47.5t-127.5 -126t-78 -173t-26.5 -189.5q0 -130 60.5 -214t187.5 -84zM710 1235l23 138h646l-23 -138h-646z" />
    <glyph glyph-name="Emacron" unicode="&#x112;" horiz-adv-x="1232" 
d="M87 0l247 1490h908l-28 -167h-718l-80 -487h669l-28 -167h-670l-83 -502h727l-27 -167h-917zM1133 1863l-24 -142h-554l24 142h554z" />
    <glyph glyph-name="emacron" unicode="&#x113;" horiz-adv-x="1179" 
d="M535 -24q-138 0 -236.5 54t-151.5 155t-53 242q0 147 47 276.5t131 228t194.5 154.5t237.5 56q108 0 188 -37.5t124 -106t44 -161.5q0 -94 -48.5 -160.5t-150.5 -108.5t-261.5 -61.5t-380.5 -19.5l24 136q183 0 306 10.5t195.5 35.5t104 67t31.5 105q0 64 -53.5 102.5
t-140.5 38.5q-113 0 -192.5 -54.5t-129.5 -140t-73.5 -181t-23.5 -178.5q0 -82 27 -148.5t88.5 -105.5t163.5 -39q107 0 190.5 46.5t126.5 126.5l167 -47q-62 -132 -195.5 -208.5t-299.5 -76.5zM1045 1491l-24 -142h-554l24 142h554z" />
    <glyph glyph-name="Ebreve" unicode="&#x114;" horiz-adv-x="1232" 
d="M87 0l247 1490h908l-28 -167h-718l-80 -487h669l-28 -167h-670l-83 -502h727l-27 -167h-917zM818 1647q-81 0 -140.5 38t-87 102t-14.5 143h132q-11 -69 26 -112t106 -43q46 0 85 19.5t65.5 54.5t33.5 81h132q-13 -79 -62.5 -143.5t-121.5 -102t-154 -37.5z" />
    <glyph glyph-name="ebreve" unicode="&#x115;" horiz-adv-x="1179" 
d="M535 -24q-138 0 -236.5 54t-151.5 155t-53 242q0 147 47 276.5t131 228t194.5 154.5t237.5 56q108 0 188 -37.5t124 -106t44 -161.5q0 -94 -48.5 -160.5t-150.5 -108.5t-261.5 -61.5t-380.5 -19.5l24 136q183 0 306 10.5t195.5 35.5t104 67t31.5 105q0 64 -53.5 102.5
t-140.5 38.5q-113 0 -192.5 -54.5t-129.5 -140t-73.5 -181t-23.5 -178.5q0 -82 27 -148.5t88.5 -105.5t163.5 -39q107 0 190.5 46.5t126.5 126.5l167 -47q-62 -132 -195.5 -208.5t-299.5 -76.5zM730 1275q-81 0 -140.5 38t-87 102t-14.5 143h132q-11 -69 26 -112t106 -43
q46 0 85 19.5t65.5 54.5t33.5 81h132q-13 -79 -62.5 -143.5t-121.5 -102t-154 -37.5z" />
    <glyph glyph-name="Edotaccent" unicode="&#x116;" horiz-adv-x="1232" 
d="M87 0l247 1490h908l-28 -167h-718l-80 -487h669l-28 -167h-670l-83 -502h727l-27 -167h-917zM823 1673q-51 0 -82 35t-23 84q8 50 51 84.5t94 34.5q52 0 83 -34.5t23 -84.5q-8 -49 -51 -84t-95 -35z" />
    <glyph glyph-name="edotaccent" unicode="&#x117;" horiz-adv-x="1179" 
d="M535 -24q-138 0 -236.5 54t-151.5 155t-53 242q0 147 47 276.5t131 228t194.5 154.5t237.5 56q108 0 188 -37.5t124 -106t44 -161.5q0 -94 -48.5 -160.5t-150.5 -108.5t-261.5 -61.5t-380.5 -19.5l24 136q183 0 306 10.5t195.5 35.5t104 67t31.5 105q0 64 -53.5 102.5
t-140.5 38.5q-113 0 -192.5 -54.5t-129.5 -140t-73.5 -181t-23.5 -178.5q0 -82 27 -148.5t88.5 -105.5t163.5 -39q107 0 190.5 46.5t126.5 126.5l167 -47q-62 -132 -195.5 -208.5t-299.5 -76.5zM735 1301q-51 0 -82 35t-23 84q8 50 51 84.5t94 34.5q52 0 83 -34.5t23 -84.5
q-8 -49 -51 -84t-95 -35z" />
    <glyph glyph-name="Eogonek" unicode="&#x118;" horiz-adv-x="1232" 
d="M87 0l247 1490h908l-28 -167h-718l-80 -487h669l-28 -167h-670l-83 -502h727l-27 -167h-917zM819 -436q-97 0 -158 50t-45 144q12 71 67.5 137t146.5 121l174 -16q-77 -49 -134.5 -97t-67.5 -110q-6 -38 12 -58t58 -20q28 0 53 8.5t45 19.5l38 -129q-33 -17 -80 -33.5
t-109 -16.5z" />
    <glyph glyph-name="eogonek" unicode="&#x119;" horiz-adv-x="1179" 
d="M535 -24q-138 0 -236.5 54t-151.5 155t-53 242q0 147 47 276.5t131 228t194.5 154.5t237.5 56q108 0 188 -37.5t124 -106t44 -161.5q0 -94 -48.5 -160.5t-150.5 -108.5t-261.5 -61.5t-380.5 -19.5l24 136q183 0 306 10.5t195.5 35.5t104 67t31.5 105q0 64 -53.5 102.5
t-140.5 38.5q-113 0 -192.5 -54.5t-129.5 -140t-73.5 -181t-23.5 -178.5q0 -82 27 -148.5t88.5 -105.5t163.5 -39q107 0 190.5 46.5t126.5 126.5l167 -47q-62 -132 -195.5 -208.5t-299.5 -76.5zM726 -436q-97 0 -158 50t-45 144q12 72 64.5 142.5t130.5 152.5l312 208
q-42 -88 -94.5 -156t-102 -122t-84 -100t-40.5 -90q-5 -35 11 -56.5t59 -21.5q30 0 55 9t43 19l38 -129q-33 -17 -80 -33.5t-109 -16.5z" />
    <glyph glyph-name="Ecaron" unicode="&#x11a;" horiz-adv-x="1232" 
d="M87 0l247 1490h908l-28 -167h-718l-80 -487h669l-28 -167h-670l-83 -502h727l-27 -167h-917zM722 1930l115 -175l171 175h179l-2 -9l-281 -267h-171l-190 267l2 9h177z" />
    <glyph glyph-name="ecaron" unicode="&#x11b;" horiz-adv-x="1179" 
d="M535 -24q-138 0 -236.5 54t-151.5 155t-53 242q0 147 47 276.5t131 228t194.5 154.5t237.5 56q108 0 188 -37.5t124 -106t44 -161.5q0 -94 -48.5 -160.5t-150.5 -108.5t-261.5 -61.5t-380.5 -19.5l24 136q183 0 306 10.5t195.5 35.5t104 67t31.5 105q0 64 -53.5 102.5
t-140.5 38.5q-113 0 -192.5 -54.5t-129.5 -140t-73.5 -181t-23.5 -178.5q0 -82 27 -148.5t88.5 -105.5t163.5 -39q107 0 190.5 46.5t126.5 126.5l167 -47q-62 -132 -195.5 -208.5t-299.5 -76.5zM634 1558l115 -175l171 175h179l-2 -9l-281 -267h-171l-190 267l2 9h177z" />
    <glyph glyph-name="Gcircumflex" unicode="&#x11c;" horiz-adv-x="1527" 
d="M704 -20q-175 0 -301.5 72t-195 205.5t-68.5 318.5q0 177 54 344t156 300t247.5 211.5t327.5 78.5q120 0 219 -35.5t170.5 -100t111 -154t41.5 -197.5h-196q-11 72 -38.5 129t-71.5 98t-105 62.5t-138 21.5q-138 0 -247.5 -64t-187 -172t-118.5 -241t-41 -271
q0 -211 108 -320.5t280 -109.5q129 0 236.5 55t179.5 155t94 234l53 -17h-443l28 166h572l-28 -169q-23 -138 -85 -248.5t-155 -189t-210 -120.5t-249 -42zM814 1654h-177l2 9l279 267h171l192 -267l-2 -9h-179l-112 175z" />
    <glyph glyph-name="gcircumflex" unicode="&#x11d;" horiz-adv-x="1256" 
d="M456 -442q-129 0 -216 33.5t-139 87t-76 112.5l155 84q17 -30 45 -67.5t83 -65t152 -27.5q138 0 239 67.5t124 204.5l37 218l-16 -4q-25 -33 -66 -76t-108 -75t-172 -32q-119 0 -209.5 49.5t-141.5 144.5t-51 231q0 128 39 250.5t113 221.5t179 158t237 59q83 0 137 -22
t86.5 -55t50 -66t27.5 -55l21 5l30 179h175l-192 -1153q-24 -144 -102 -233.5t-192.5 -131.5t-248.5 -42zM531 178q103 0 178.5 45t125 119.5t73.5 165t24 182.5q0 128 -61 204.5t-186 76.5q-97 0 -173 -45t-128.5 -120.5t-79.5 -167.5t-27 -185q0 -125 63 -200t191 -75z
M581 1282h-177l2 9l279 267h171l192 -267l-2 -9h-179l-112 175z" />
    <glyph glyph-name="Gbreve" unicode="&#x11e;" horiz-adv-x="1527" 
d="M704 -20q-175 0 -301.5 72t-195 205.5t-68.5 318.5q0 177 54 344t156 300t247.5 211.5t327.5 78.5q120 0 219 -35.5t170.5 -100t111 -154t41.5 -197.5h-196q-11 72 -38.5 129t-71.5 98t-105 62.5t-138 21.5q-138 0 -247.5 -64t-187 -172t-118.5 -241t-41 -271
q0 -211 108 -320.5t280 -109.5q129 0 236.5 55t179.5 155t94 234l53 -17h-443l28 166h572l-28 -169q-23 -138 -85 -248.5t-155 -189t-210 -120.5t-249 -42zM956 1647q-81 0 -140.5 38t-87 102t-14.5 143h132q-11 -69 26 -112t106 -43q46 0 85 19.5t65.5 54.5t33.5 81h132
q-13 -79 -62.5 -143.5t-121.5 -102t-154 -37.5z" />
    <glyph glyph-name="gbreve" unicode="&#x11f;" horiz-adv-x="1256" 
d="M456 -442q-129 0 -216 33.5t-139 87t-76 112.5l155 84q17 -30 45 -67.5t83 -65t152 -27.5q138 0 239 67.5t124 204.5l37 218l-16 -4q-25 -33 -66 -76t-108 -75t-172 -32q-119 0 -209.5 49.5t-141.5 144.5t-51 231q0 128 39 250.5t113 221.5t179 158t237 59q83 0 137 -22
t86.5 -55t50 -66t27.5 -55l21 5l30 179h175l-192 -1153q-24 -144 -102 -233.5t-192.5 -131.5t-248.5 -42zM531 178q103 0 178.5 45t125 119.5t73.5 165t24 182.5q0 128 -61 204.5t-186 76.5q-97 0 -173 -45t-128.5 -120.5t-79.5 -167.5t-27 -185q0 -125 63 -200t191 -75z
M723 1275q-81 0 -140.5 38t-87 102t-14.5 143h132q-11 -69 26 -112t106 -43q46 0 85 19.5t65.5 54.5t33.5 81h132q-13 -79 -62.5 -143.5t-121.5 -102t-154 -37.5z" />
    <glyph glyph-name="Gdotaccent" unicode="&#x120;" horiz-adv-x="1527" 
d="M704 -20q-175 0 -301.5 72t-195 205.5t-68.5 318.5q0 177 54 344t156 300t247.5 211.5t327.5 78.5q120 0 219 -35.5t170.5 -100t111 -154t41.5 -197.5h-196q-11 72 -38.5 129t-71.5 98t-105 62.5t-138 21.5q-138 0 -247.5 -64t-187 -172t-118.5 -241t-41 -271
q0 -211 108 -320.5t280 -109.5q129 0 236.5 55t179.5 155t94 234l53 -17h-443l28 166h572l-28 -169q-23 -138 -85 -248.5t-155 -189t-210 -120.5t-249 -42zM961 1673q-51 0 -82 35t-23 84q8 50 51 84.5t94 34.5q52 0 83 -34.5t23 -84.5q-8 -49 -51 -84t-95 -35z" />
    <glyph glyph-name="gdotaccent" unicode="&#x121;" horiz-adv-x="1256" 
d="M456 -442q-129 0 -216 33.5t-139 87t-76 112.5l155 84q17 -30 45 -67.5t83 -65t152 -27.5q138 0 239 67.5t124 204.5l37 218l-16 -4q-25 -33 -66 -76t-108 -75t-172 -32q-119 0 -209.5 49.5t-141.5 144.5t-51 231q0 128 39 250.5t113 221.5t179 158t237 59q83 0 137 -22
t86.5 -55t50 -66t27.5 -55l21 5l30 179h175l-192 -1153q-24 -144 -102 -233.5t-192.5 -131.5t-248.5 -42zM531 178q103 0 178.5 45t125 119.5t73.5 165t24 182.5q0 128 -61 204.5t-186 76.5q-97 0 -173 -45t-128.5 -120.5t-79.5 -167.5t-27 -185q0 -125 63 -200t191 -75z
M728 1301q-51 0 -82 35t-23 84q8 50 51 84.5t94 34.5q52 0 83 -34.5t23 -84.5q-8 -49 -51 -84t-95 -35z" />
    <glyph glyph-name="uni0122" unicode="&#x122;" horiz-adv-x="1527" 
d="M704 -20q-175 0 -301.5 72t-195 205.5t-68.5 318.5q0 177 54 344t156 300t247.5 211.5t327.5 78.5q120 0 219 -35.5t170.5 -100t111 -154t41.5 -197.5h-196q-11 72 -38.5 129t-71.5 98t-105 62.5t-138 21.5q-138 0 -247.5 -64t-187 -172t-118.5 -241t-41 -271
q0 -211 108 -320.5t280 -109.5q129 0 236.5 55t179.5 155t94 234l53 -17h-443l28 166h572l-28 -169q-23 -138 -85 -248.5t-155 -189t-210 -120.5t-249 -42zM424 -493l144 375h185l-189 -375h-140z" />
    <glyph glyph-name="uni0123" unicode="&#x123;" horiz-adv-x="1256" 
d="M456 -442q-129 0 -216 33.5t-139 87t-76 112.5l155 84q17 -30 45 -67.5t83 -65t152 -27.5q138 0 239 67.5t124 204.5l37 218l-16 -4q-25 -33 -66 -76t-108 -75t-172 -32q-119 0 -209.5 49.5t-141.5 144.5t-51 231q0 128 39 250.5t113 221.5t179 158t237 59q83 0 137 -22
t86.5 -55t50 -66t27.5 -55l21 5l30 179h175l-192 -1153q-24 -144 -102 -233.5t-192.5 -131.5t-248.5 -42zM531 178q103 0 178.5 45t125 119.5t73.5 165t24 182.5q0 128 -61 204.5t-186 76.5q-97 0 -173 -45t-128.5 -120.5t-79.5 -167.5t-27 -185q0 -125 63 -200t191 -75z
M638 1232l21 129q10 62 39 117t67.5 100.5t74.5 76.5l99 -70q-49 -61 -80 -115t-42 -118l-21 -120h-158z" />
    <glyph glyph-name="Hcircumflex" unicode="&#x124;" horiz-adv-x="1522" 
d="M87 0l247 1490h190l-107 -644h782l107 644h190l-247 -1490h-190l113 678h-783l-112 -678h-190zM797 1654h-177l2 9l279 267h171l192 -267l-2 -9h-179l-112 175z" />
    <glyph glyph-name="hcircumflex" unicode="&#x125;" horiz-adv-x="1211" 
d="M356 670l-111 -670h-180l247 1490h180l-107 -643h-31q52 105 114.5 167.5t135.5 90t156 27.5q113 0 193 -46.5t114.5 -140t10.5 -235.5l-118 -710h-181l116 695q22 131 -35 203t-173 72q-79 0 -148.5 -35t-118 -101.5t-64.5 -163.5zM285 1654h-177l2 9l279 267h171
l192 -267l-2 -9h-179l-112 175z" />
    <glyph glyph-name="Hbar" unicode="&#x126;" horiz-adv-x="1593" 
d="M1596 1176l-24 -152h-1392l22 152h1394zM127 0l247 1490h190l-107 -644h782l107 644h190l-247 -1490h-190l113 678h-783l-112 -678h-190z" />
    <glyph glyph-name="hbar" unicode="&#x127;" horiz-adv-x="1211" 
d="M356 670l-111 -670h-180l247 1490h180l-107 -643h-31q52 105 114.5 167.5t135.5 90t156 27.5q113 0 193 -46.5t114.5 -140t10.5 -235.5l-118 -710h-181l116 695q22 131 -35 203t-173 72q-79 0 -148.5 -35t-118 -101.5t-64.5 -163.5zM120 1235l23 138h646l-23 -138h-646z
" />
    <glyph glyph-name="Itilde" unicode="&#x128;" horiz-adv-x="550" 
d="M524 1490l-247 -1490h-190l247 1490h190zM593 1685q-37 0 -70.5 12.5t-62.5 29t-53 29t-43 12.5q-28 0 -44.5 -25.5t-22.5 -53.5h-126q19 92 68.5 150t128.5 58q39 0 70 -13t57.5 -29.5t50.5 -29.5t49 -13q26 0 41.5 19.5t27.5 61.5h123q-19 -97 -70.5 -152.5
t-123.5 -55.5z" />
    <glyph glyph-name="itilde" unicode="&#x129;" horiz-adv-x="497" 
d="M66 0l185 1118h180l-185 -1118h-180zM506 1313q-37 0 -70.5 12.5t-62.5 29t-53 29t-43 12.5q-28 0 -44.5 -25.5t-22.5 -53.5h-126q19 92 68.5 150t128.5 58q39 0 70 -13t57.5 -29.5t50.5 -29.5t49 -13q26 0 41.5 19.5t27.5 61.5h123q-19 -97 -70.5 -152.5t-123.5 -55.5z
" />
    <glyph glyph-name="Imacron" unicode="&#x12a;" horiz-adv-x="550" 
d="M524 1490l-247 -1490h-190l247 1490h190zM769 1863l-24 -142h-554l24 142h554z" />
    <glyph glyph-name="imacron" unicode="&#x12b;" horiz-adv-x="497" 
d="M66 0l185 1118h180l-185 -1118h-180zM682 1491l-24 -142h-554l24 142h554z" />
    <glyph glyph-name="Ibreve" unicode="&#x12c;" horiz-adv-x="550" 
d="M524 1490l-247 -1490h-190l247 1490h190zM454 1647q-81 0 -140.5 38t-87 102t-14.5 143h132q-11 -69 26 -112t106 -43q46 0 85 19.5t65.5 54.5t33.5 81h132q-13 -79 -62.5 -143.5t-121.5 -102t-154 -37.5z" />
    <glyph glyph-name="ibreve" unicode="&#x12d;" horiz-adv-x="497" 
d="M66 0l185 1118h180l-185 -1118h-180zM367 1275q-81 0 -140.5 38t-87 102t-14.5 143h132q-11 -69 26 -112t106 -43q46 0 85 19.5t65.5 54.5t33.5 81h132q-13 -79 -62.5 -143.5t-121.5 -102t-154 -37.5z" />
    <glyph glyph-name="Iogonek" unicode="&#x12e;" horiz-adv-x="550" 
d="M524 1490l-247 -1490h-190l247 1490h190zM92 -436q-97 0 -158 50t-45 144q12 71 67.5 137t146.5 121l174 -16q-77 -49 -134.5 -97t-67.5 -110q-6 -38 12 -58t58 -20q28 0 53 8.5t45 19.5l38 -129q-33 -17 -80 -33.5t-109 -16.5z" />
    <glyph glyph-name="iogonek" unicode="&#x12f;" horiz-adv-x="497" 
d="M66 0l185 1118h180l-185 -1118h-180zM61 -436q-97 0 -158 50t-45 144q12 71 67.5 137t146.5 121l174 -16q-77 -49 -134.5 -97t-67.5 -110q-6 -38 12 -58t58 -20q28 0 53 8.5t45 19.5l38 -129q-33 -17 -80 -33.5t-109 -16.5zM372 1301q-51 0 -82 35t-23 84q8 50 51 84.5
t94 34.5q52 0 83 -34.5t23 -84.5q-8 -49 -51 -84t-95 -35z" />
    <glyph glyph-name="Idotaccent" unicode="&#x130;" horiz-adv-x="550" 
d="M524 1490l-247 -1490h-190l247 1490h190zM459 1673q-51 0 -82 35t-23 84q8 50 51 84.5t94 34.5q52 0 83 -34.5t23 -84.5q-8 -49 -51 -84t-95 -35z" />
    <glyph glyph-name="dotlessi" unicode="&#x131;" horiz-adv-x="497" 
d="M66 0l185 1118h180l-185 -1118h-180z" />
    <glyph glyph-name="IJ" unicode="&#x132;" horiz-adv-x="1719" 
d="M524 1490l-247 -1490h-190l247 1490h190zM1008 -20q-175 0 -281.5 91.5t-106.5 260.5q0 15 1.5 33.5t6 51.5t13.5 89h190q-8 -52 -12.5 -80.5t-5.5 -43t-1 -25.5q0 -102 57.5 -156t157.5 -54q112 0 194.5 70t105.5 209l177 1064h190l-177 -1064q-35 -212 -172.5 -329
t-336.5 -117z" />
    <glyph glyph-name="ij" unicode="&#x133;" horiz-adv-x="993" 
d="M66 0l185 1118h180l-185 -1118h-180zM372 1301q-51 0 -82 35t-23 84q8 50 51 84.5t94 34.5q52 0 83 -34.5t23 -84.5q-8 -49 -51 -84t-95 -35zM747 1118h181l-199 -1198q-17 -106 -66 -181.5t-128.5 -116t-188.5 -40.5h-36l27 166h33q77 0 121.5 44t57.5 128zM868 1301
q-51 0 -82 35t-23 84q8 50 51 84.5t94 34.5q52 0 83 -34.5t23 -84.5q-8 -49 -51 -84t-95 -35z" />
    <glyph glyph-name="Jcircumflex" unicode="&#x134;" horiz-adv-x="1169" 
d="M458 -20q-175 0 -281.5 91.5t-106.5 260.5q0 15 1.5 33.5t6 51.5t13.5 89h190q-8 -52 -12.5 -80.5t-5.5 -43t-1 -25.5q0 -102 57.5 -156t157.5 -54q112 0 194.5 70t105.5 209l177 1064h190l-177 -1064q-35 -212 -172.5 -329t-336.5 -117zM932 1654h-177l2 9l279 267h171
l192 -267l-2 -9h-179l-112 175z" />
    <glyph glyph-name="jcircumflex" unicode="&#x135;" horiz-adv-x="496" 
d="M250 1118h181l-199 -1198q-17 -106 -66 -181.5t-128.5 -116t-188.5 -40.5h-36l27 166h33q77 0 121.5 44t57.5 128zM224 1282h-177l2 9l279 267h171l192 -267l-2 -9h-179l-112 175z" />
    <glyph glyph-name="uni0136" unicode="&#x136;" horiz-adv-x="1376" 
d="M288 426l24 203q63 70 124.5 134t124.5 125t128 121l525 481h258l-749 -682l-11 1zM87 0l247 1490h191l-85 -510l-57 -321l-12 -93l-93 -566h-191zM1017 0l-412 758l125 148l496 -906h-209zM355 -493l144 375h185l-189 -375h-140z" />
    <glyph glyph-name="uni0137" unicode="&#x137;" horiz-adv-x="1125" 
d="M301 402l37 223h33l559 493h223l-605 -531h-20zM65 0l247 1490h180l-247 -1490h-180zM772 0l-338 547l150 127l419 -674h-231zM232 -493l144 375h185l-189 -375h-140z" />
    <glyph glyph-name="kgreenlandic" unicode="&#x138;" horiz-adv-x="1077" 
d="M431 1118l-185 -1118h-180l185 1118h180zM1141 1118l-645 -640h-239l26 160h169l470 480h219zM726 0l-327 483l120 143l431 -626h-224z" />
    <glyph glyph-name="Lacute" unicode="&#x139;" horiz-adv-x="1158" 
d="M87 0l247 1490h190l-219 -1322h690l-28 -168h-880zM370 1654l186 276h201l-240 -276h-147z" />
    <glyph glyph-name="lacute" unicode="&#x13a;" horiz-adv-x="496" 
d="M492 1490l-247 -1490h-180l247 1490h180zM343 1654l186 276h201l-240 -276h-147z" />
    <glyph glyph-name="uni013B" unicode="&#x13b;" horiz-adv-x="1158" 
d="M87 0l247 1490h190l-219 -1322h690l-28 -168h-880zM270 -493l144 375h185l-189 -375h-140z" />
    <glyph glyph-name="uni013C" unicode="&#x13c;" horiz-adv-x="496" 
d="M492 1490l-247 -1490h-180l247 1490h180zM-102 -493l144 375h185l-189 -375h-140z" />
    <glyph glyph-name="Lcaron" unicode="&#x13d;" horiz-adv-x="1158" 
d="M87 0l247 1490h190l-219 -1322h690l-28 -168h-880zM726 1182l62 378h180l-114 -378h-128z" />
    <glyph glyph-name="lcaron" unicode="&#x13e;" horiz-adv-x="624" 
d="M492 1490l-247 -1490h-180l247 1490h180zM585 1182l62 378h180l-114 -378h-128z" />
    <glyph glyph-name="Ldot" unicode="&#x13f;" horiz-adv-x="1152" 
d="M87 0l247 1490h190l-219 -1322h690l-28 -168h-880zM746 733q-51 0 -82 35t-23 84q8 50 51 84.5t94 34.5q52 0 83 -34.5t23 -84.5q-8 -49 -51 -84t-95 -35z" />
    <glyph glyph-name="ldot" unicode="&#x140;" horiz-adv-x="736" 
d="M492 1490l-247 -1490h-180l247 1490h180zM619 610q-58 0 -94.5 43t-26.5 104q9 53 51.5 87.5t91.5 34.5q61 0 95.5 -43t26.5 -100q-7 -52 -49 -89t-95 -37z" />
    <glyph glyph-name="Lslash" unicode="&#x141;" horiz-adv-x="1158" 
d="M87 0l247 1490h190l-219 -1322h690l-28 -168h-880zM132 511l31 189l816 430l-31 -189z" />
    <glyph glyph-name="lslash" unicode="&#x142;" horiz-adv-x="496" 
d="M492 1490l-247 -1490h-180l247 1490h180zM5 665l26 161l568 300l-26 -161z" />
    <glyph glyph-name="Nacute" unicode="&#x143;" horiz-adv-x="1543" 
d="M87 0l247 1490h218l448 -953q14 -30 38.5 -86.5t53 -132t54.5 -163.5h-21q5 86 14 163.5t19 143.5t18 114l151 914h190l-247 -1490h-219l-400 848q-25 54 -51.5 115.5t-61 148.5t-86.5 217h28q-15 -121 -26.5 -214t-20 -159t-15.5 -106l-140 -850h-191zM867 1654l186 276
h201l-240 -276h-147z" />
    <glyph glyph-name="nacute" unicode="&#x144;" horiz-adv-x="1211" 
d="M356 664l-111 -664h-180l186 1118h173l-44 -271l-26 6q75 152 177 215.5t227 63.5q116 0 196 -48t113.5 -143t9.5 -237l-117 -704h-180l117 701q22 131 -32 200t-167 69q-82 0 -154 -36.5t-122 -105t-66 -164.5zM639 1282l186 276h201l-240 -276h-147z" />
    <glyph glyph-name="uni0145" unicode="&#x145;" horiz-adv-x="1543" 
d="M87 0l247 1490h218l448 -953q14 -30 38.5 -86.5t53 -132t54.5 -163.5h-21q5 86 14 163.5t19 143.5t18 114l151 914h190l-247 -1490h-219l-400 848q-25 54 -51.5 115.5t-61 148.5t-86.5 217h28q-15 -121 -26.5 -214t-20 -159t-15.5 -106l-140 -850h-191zM423 -493l144 375
h185l-189 -375h-140z" />
    <glyph glyph-name="uni0146" unicode="&#x146;" horiz-adv-x="1211" 
d="M356 664l-111 -664h-180l186 1118h173l-44 -271l-26 6q75 152 177 215.5t227 63.5q116 0 196 -48t113.5 -143t9.5 -237l-117 -704h-180l117 701q22 131 -32 200t-167 69q-82 0 -154 -36.5t-122 -105t-66 -164.5zM256 -493l144 375h185l-189 -375h-140z" />
    <glyph glyph-name="Ncaron" unicode="&#x147;" horiz-adv-x="1543" 
d="M87 0l247 1490h218l448 -953q14 -30 38.5 -86.5t53 -132t54.5 -163.5h-21q5 86 14 163.5t19 143.5t18 114l151 914h190l-247 -1490h-219l-400 848q-25 54 -51.5 115.5t-61 148.5t-86.5 217h28q-15 -121 -26.5 -214t-20 -159t-15.5 -106l-140 -850h-191zM855 1930
l115 -175l171 175h179l-2 -9l-281 -267h-171l-190 267l2 9h177z" />
    <glyph glyph-name="ncaron" unicode="&#x148;" horiz-adv-x="1211" 
d="M356 664l-111 -664h-180l186 1118h173l-44 -271l-26 6q75 152 177 215.5t227 63.5q116 0 196 -48t113.5 -143t9.5 -237l-117 -704h-180l117 701q22 131 -32 200t-167 69q-82 0 -154 -36.5t-122 -105t-66 -164.5zM627 1558l115 -175l171 175h179l-2 -9l-281 -267h-171
l-190 267l2 9h177z" />
    <glyph glyph-name="Eng" unicode="&#x14a;" horiz-adv-x="1543" 
d="M817 -418l26 159q16 -3 31.5 -4t26.5 -1q86 0 120.5 25.5t42.5 75.5l48 291h190l-50 -299q-21 -125 -106.5 -190.5t-226.5 -65.5q-33 0 -60.5 2.5t-41.5 6.5zM87 0l247 1490h218l448 -953q14 -30 38.5 -86.5t53 -132t54.5 -163.5h-21q5 86 14 163.5t19 143.5t18 114
l151 914h190l-247 -1490h-219l-400 848q-25 54 -51.5 115.5t-61 148.5t-86.5 217h28q-15 -121 -26.5 -214t-20 -159t-15.5 -106l-140 -850h-191z" />
    <glyph glyph-name="eng" unicode="&#x14b;" horiz-adv-x="1211" 
d="M496 -418l26 159q16 -3 36.5 -4t30.5 -1q80 0 117 23.5t46 77.5l27 163h181l-29 -171q-22 -128 -109 -192t-224 -64q-33 0 -60.5 2.5t-41.5 6.5zM356 664l-111 -664h-180l186 1118h173l-44 -271l-26 6q75 152 177 215.5t227 63.5q116 0 196 -48t113.5 -143t9.5 -237
l-117 -704h-180l117 701q22 131 -32 200t-167 69q-82 0 -154 -36.5t-122 -105t-66 -164.5z" />
    <glyph glyph-name="Omacron" unicode="&#x14c;" horiz-adv-x="1566" 
d="M699 -20q-169 0 -295 72t-195.5 206.5t-69.5 321.5q0 177 55 343.5t159 298.5t250 210t327 78q169 0 294 -72t194.5 -206t69.5 -321q0 -178 -55 -344.5t-158.5 -299t-249 -210t-326.5 -77.5zM706 156q140 0 251 64t188.5 172t118 241.5t40.5 272.5q0 140 -48.5 235.5
t-134.5 144t-198 48.5q-140 0 -251 -64t-189 -172t-119 -241t-41 -272q0 -140 49 -235.5t135.5 -144.5t198.5 -49zM1278 1863l-24 -142h-554l24 142h554z" />
    <glyph glyph-name="omacron" unicode="&#x14d;" horiz-adv-x="1229" 
d="M528 -24q-135 0 -232 56.5t-149.5 159.5t-52.5 241q0 133 41.5 258t120 224.5t190 158t251.5 58.5q135 0 233 -56t150.5 -159t52.5 -243q0 -135 -42 -260t-121.5 -224t-191 -156.5t-250.5 -57.5zM532 137q103 0 181.5 48t131.5 126.5t80 172.5t27 186q0 85 -27 153
t-84 108t-149 40q-102 0 -180 -48t-131 -127t-80 -173.5t-27 -187.5q0 -126 61 -212t197 -86zM1046 1491l-24 -142h-554l24 142h554z" />
    <glyph glyph-name="Obreve" unicode="&#x14e;" horiz-adv-x="1566" 
d="M699 -20q-169 0 -295 72t-195.5 206.5t-69.5 321.5q0 177 55 343.5t159 298.5t250 210t327 78q169 0 294 -72t194.5 -206t69.5 -321q0 -178 -55 -344.5t-158.5 -299t-249 -210t-326.5 -77.5zM706 156q140 0 251 64t188.5 172t118 241.5t40.5 272.5q0 140 -48.5 235.5
t-134.5 144t-198 48.5q-140 0 -251 -64t-189 -172t-119 -241t-41 -272q0 -140 49 -235.5t135.5 -144.5t198.5 -49zM963 1647q-81 0 -140.5 38t-87 102t-14.5 143h132q-11 -69 26 -112t106 -43q46 0 85 19.5t65.5 54.5t33.5 81h132q-13 -79 -62.5 -143.5t-121.5 -102
t-154 -37.5z" />
    <glyph glyph-name="obreve" unicode="&#x14f;" horiz-adv-x="1229" 
d="M528 -24q-135 0 -232 56.5t-149.5 159.5t-52.5 241q0 133 41.5 258t120 224.5t190 158t251.5 58.5q135 0 233 -56t150.5 -159t52.5 -243q0 -135 -42 -260t-121.5 -224t-191 -156.5t-250.5 -57.5zM532 137q103 0 181.5 48t131.5 126.5t80 172.5t27 186q0 85 -27 153
t-84 108t-149 40q-102 0 -180 -48t-131 -127t-80 -173.5t-27 -187.5q0 -126 61 -212t197 -86zM731 1275q-81 0 -140.5 38t-87 102t-14.5 143h132q-11 -69 26 -112t106 -43q46 0 85 19.5t65.5 54.5t33.5 81h132q-13 -79 -62.5 -143.5t-121.5 -102t-154 -37.5z" />
    <glyph glyph-name="Ohungarumlaut" unicode="&#x150;" horiz-adv-x="1566" 
d="M699 -20q-169 0 -295 72t-195.5 206.5t-69.5 321.5q0 177 55 343.5t159 298.5t250 210t327 78q169 0 294 -72t194.5 -206t69.5 -321q0 -178 -55 -344.5t-158.5 -299t-249 -210t-326.5 -77.5zM706 156q140 0 251 64t188.5 172t118 241.5t40.5 272.5q0 140 -48.5 235.5
t-134.5 144t-198 48.5q-140 0 -251 -64t-189 -172t-119 -241t-41 -272q0 -140 49 -235.5t135.5 -144.5t198.5 -49zM791 1636h-147l166 294h200zM1119 1636h-148l217 294h201z" />
    <glyph glyph-name="ohungarumlaut" unicode="&#x151;" horiz-adv-x="1229" 
d="M528 -24q-135 0 -232 56.5t-149.5 159.5t-52.5 241q0 133 41.5 258t120 224.5t190 158t251.5 58.5q135 0 233 -56t150.5 -159t52.5 -243q0 -135 -42 -260t-121.5 -224t-191 -156.5t-250.5 -57.5zM532 137q103 0 181.5 48t131.5 126.5t80 172.5t27 186q0 85 -27 153
t-84 108t-149 40q-102 0 -180 -48t-131 -127t-80 -173.5t-27 -187.5q0 -126 61 -212t197 -86zM559 1264h-147l166 294h200zM887 1264h-148l217 294h201z" />
    <glyph glyph-name="OE" unicode="&#x152;" horiz-adv-x="1956" 
d="M684 0q-196 0 -328.5 93.5t-186.5 261t-17 389.5q37 225 147 392.5t273 260.5t358 93h202l-26 -160h-202q-143 0 -263.5 -73t-203 -204.5t-111.5 -308.5q-29 -174 9.5 -305.5t135.5 -205t241 -73.5h202l-30 -160h-200zM811 0l247 1490h908l-28 -167h-718l-80 -487h669
l-28 -167h-670l-83 -502h727l-27 -167h-917z" />
    <glyph glyph-name="oe" unicode="&#x153;" horiz-adv-x="2019" 
d="M528 -24q-135 0 -232 56.5t-149.5 159.5t-52.5 241q0 133 41.5 258t120 224.5t190 158t251.5 58.5q135 0 233 -56t150.5 -159t52.5 -243q0 -135 -42 -260t-121.5 -224t-191 -156.5t-250.5 -57.5zM532 137q103 0 181.5 48t131.5 126.5t80 172.5t27 186q0 85 -27 153
t-84 108t-149 40q-102 0 -180 -48t-131 -127t-80 -173.5t-27 -187.5q0 -126 61 -212t197 -86zM1375 -24q-138 0 -236.5 54t-151.5 155t-53 242q0 147 47 276.5t131 228t194.5 154.5t237.5 56q108 0 188 -37.5t124 -106t44 -161.5q0 -94 -48.5 -160.5t-150.5 -108.5
t-261.5 -61.5t-380.5 -19.5l24 136q183 0 306 10.5t195.5 35.5t104 67t31.5 105q0 64 -53.5 102.5t-140.5 38.5q-113 0 -192.5 -54.5t-129.5 -140t-73.5 -181t-23.5 -178.5q0 -82 27 -148.5t88.5 -105.5t163.5 -39q107 0 190.5 46.5t126.5 126.5l167 -47
q-62 -132 -195.5 -208.5t-299.5 -76.5z" />
    <glyph glyph-name="Racute" unicode="&#x154;" horiz-adv-x="1318" 
d="M87 0l247 1490h510q176 0 278.5 -60t139 -164t14.5 -236t-93 -234t-193 -160t-296 -58h-405l28 169h395q119 0 197 34.5t121 98.5t57 150q23 139 -43 216t-238 77h-310l-219 -1323h-190zM943 0l-249 671h214l255 -671h-220zM746 1654l186 276h201l-240 -276h-147z" />
    <glyph glyph-name="racute" unicode="&#x155;" horiz-adv-x="772" 
d="M66 0l185 1118h174l-28 -172h12q44 85 132.5 136.5t188.5 51.5q20 0 47 -1t43 -2l-30 -181q-12 2 -42.5 6t-63.5 4q-80 0 -149 -33.5t-114.5 -92t-58.5 -134.5l-116 -700h-180zM461 1282l186 276h201l-240 -276h-147z" />
    <glyph glyph-name="uni0156" unicode="&#x156;" horiz-adv-x="1318" 
d="M87 0l247 1490h510q176 0 278.5 -60t139 -164t14.5 -236t-93 -234t-193 -160t-296 -58h-405l28 169h395q119 0 197 34.5t121 98.5t57 150q23 139 -43 216t-238 77h-310l-219 -1323h-190zM943 0l-249 671h214l255 -671h-220zM328 -493l144 375h185l-189 -375h-140z" />
    <glyph glyph-name="uni0157" unicode="&#x157;" horiz-adv-x="772" 
d="M66 0l185 1118h174l-28 -172h12q44 85 132.5 136.5t188.5 51.5q20 0 47 -1t43 -2l-30 -181q-12 2 -42.5 6t-63.5 4q-80 0 -149 -33.5t-114.5 -92t-58.5 -134.5l-116 -700h-180zM-101 -493l144 375h185l-189 -375h-140z" />
    <glyph glyph-name="Rcaron" unicode="&#x158;" horiz-adv-x="1318" 
d="M87 0l247 1490h510q176 0 278.5 -60t139 -164t14.5 -236t-93 -234t-193 -160t-296 -58h-405l28 169h395q119 0 197 34.5t121 98.5t57 150q23 139 -43 216t-238 77h-310l-219 -1323h-190zM943 0l-249 671h214l255 -671h-220zM734 1930l115 -175l171 175h179l-2 -9
l-281 -267h-171l-190 267l2 9h177z" />
    <glyph glyph-name="rcaron" unicode="&#x159;" horiz-adv-x="772" 
d="M66 0l185 1118h174l-28 -172h12q44 85 132.5 136.5t188.5 51.5q20 0 47 -1t43 -2l-30 -181q-12 2 -42.5 6t-63.5 4q-80 0 -149 -33.5t-114.5 -92t-58.5 -134.5l-116 -700h-180zM449 1558l115 -175l171 175h179l-2 -9l-281 -267h-171l-190 267l2 9h177z" />
    <glyph glyph-name="Sacute" unicode="&#x15a;" horiz-adv-x="1312" 
d="M575 -26q-160 0 -274 51.5t-170 145.5t-44 219h195q-6 -84 34 -138.5t111.5 -81t159.5 -26.5q101 0 187 33t143 92.5t70 139.5q12 72 -20.5 116.5t-94.5 73.5t-140 52l-172 51q-160 47 -250.5 139t-65.5 248q20 126 99.5 221t200.5 147.5t266 52.5t253.5 -51.5t164 -141
t40.5 -203.5h-185q5 108 -76 168t-215 60q-97 0 -174 -31t-126 -85.5t-61 -123.5q-13 -78 26.5 -126t102 -74.5t115.5 -42.5l142 -41q56 -16 123.5 -43.5t126.5 -73.5t90 -118t14 -177q-20 -122 -95.5 -220t-201.5 -155t-299 -57zM750 1654l186 276h201l-240 -276h-147z" />
    <glyph glyph-name="sacute" unicode="&#x15b;" horiz-adv-x="1080" 
d="M451 -24q-112 0 -195.5 32t-133 93t-59.5 149q-1 7 -1.5 13.5t-0.5 13.5l174 29q8 -92 65 -132t154 -40q81 0 145 25t104 66t48 90q8 53 -24 88.5t-111 54.5l-179 44q-146 36 -209.5 115t-43.5 201q16 93 80 164t161.5 110.5t213.5 39.5q161 0 245.5 -65.5t111.5 -167.5
q3 -10 5.5 -20.5t3.5 -21.5l-165 -30q-13 60 -56.5 106t-147.5 46q-69 0 -128 -23t-97.5 -62t-46.5 -89q-10 -58 27 -92t131 -57l162 -40q146 -36 209 -115t43 -198q-12 -71 -53 -131t-105.5 -104t-147.5 -68t-179 -24zM576 1282l186 276h201l-240 -276h-147z" />
    <glyph glyph-name="Scircumflex" unicode="&#x15c;" horiz-adv-x="1312" 
d="M575 -26q-160 0 -274 51.5t-170 145.5t-44 219h195q-6 -84 34 -138.5t111.5 -81t159.5 -26.5q101 0 187 33t143 92.5t70 139.5q12 72 -20.5 116.5t-94.5 73.5t-140 52l-172 51q-160 47 -250.5 139t-65.5 248q20 126 99.5 221t200.5 147.5t266 52.5t253.5 -51.5t164 -141
t40.5 -203.5h-185q5 108 -76 168t-215 60q-97 0 -174 -31t-126 -85.5t-61 -123.5q-13 -78 26.5 -126t102 -74.5t115.5 -42.5l142 -41q56 -16 123.5 -43.5t126.5 -73.5t90 -118t14 -177q-20 -122 -95.5 -220t-201.5 -155t-299 -57zM692 1654h-177l2 9l279 267h171l192 -267
l-2 -9h-179l-112 175z" />
    <glyph glyph-name="scircumflex" unicode="&#x15d;" horiz-adv-x="1080" 
d="M451 -24q-112 0 -195.5 32t-133 93t-59.5 149q-1 7 -1.5 13.5t-0.5 13.5l174 29q8 -92 65 -132t154 -40q81 0 145 25t104 66t48 90q8 53 -24 88.5t-111 54.5l-179 44q-146 36 -209.5 115t-43.5 201q16 93 80 164t161.5 110.5t213.5 39.5q161 0 245.5 -65.5t111.5 -167.5
q3 -10 5.5 -20.5t3.5 -21.5l-165 -30q-13 60 -56.5 106t-147.5 46q-69 0 -128 -23t-97.5 -62t-46.5 -89q-10 -58 27 -92t131 -57l162 -40q146 -36 209 -115t43 -198q-12 -71 -53 -131t-105.5 -104t-147.5 -68t-179 -24zM518 1282h-177l2 9l279 267h171l192 -267l-2 -9h-179
l-112 175z" />
    <glyph glyph-name="Scedilla" unicode="&#x15e;" horiz-adv-x="1312" 
d="M575 -26q-160 0 -274 51.5t-170 145.5t-44 219h195q-6 -84 34 -138.5t111.5 -81t159.5 -26.5q101 0 187 33t143 92.5t70 139.5q12 72 -20.5 116.5t-94.5 73.5t-140 52l-172 51q-160 47 -250.5 139t-65.5 248q20 126 99.5 221t200.5 147.5t266 52.5t253.5 -51.5t164 -141
t40.5 -203.5h-185q5 108 -76 168t-215 60q-97 0 -174 -31t-126 -85.5t-61 -123.5q-13 -78 26.5 -126t102 -74.5t115.5 -42.5l142 -41q56 -16 123.5 -43.5t126.5 -73.5t90 -118t14 -177q-20 -122 -95.5 -220t-201.5 -155t-299 -57zM384 -418l17 105h118q55 0 79 14.5t30 50.5
t-12 51t-75 15h-82l68 230h95l-8 -48l-14 -86q95 -4 135 -41.5t27 -117.5q-14 -89 -75 -131t-184 -42h-119z" />
    <glyph glyph-name="scedilla" unicode="&#x15f;" horiz-adv-x="1080" 
d="M451 -24q-112 0 -195.5 32t-133 93t-59.5 149q-1 7 -1.5 13.5t-0.5 13.5l174 29q8 -92 65 -132t154 -40q81 0 145 25t104 66t48 90q8 53 -24 88.5t-111 54.5l-179 44q-146 36 -209.5 115t-43.5 201q16 93 80 164t161.5 110.5t213.5 39.5q161 0 245.5 -65.5t111.5 -167.5
q3 -10 5.5 -20.5t3.5 -21.5l-165 -30q-13 60 -56.5 106t-147.5 46q-69 0 -128 -23t-97.5 -62t-46.5 -89q-10 -58 27 -92t131 -57l162 -40q146 -36 209 -115t43 -198q-12 -71 -53 -131t-105.5 -104t-147.5 -68t-179 -24zM267 -418l17 105h118q55 0 79 14.5t30 50.5t-12 51
t-75 15h-82l68 230h95l-8 -48l-14 -86q95 -4 135 -41.5t27 -117.5q-14 -89 -75 -131t-184 -42h-119z" />
    <glyph glyph-name="Scaron" unicode="&#x160;" horiz-adv-x="1312" 
d="M575 -26q-160 0 -274 51.5t-170 145.5t-44 219h195q-6 -84 34 -138.5t111.5 -81t159.5 -26.5q101 0 187 33t143 92.5t70 139.5q12 72 -20.5 116.5t-94.5 73.5t-140 52l-172 51q-160 47 -250.5 139t-65.5 248q20 126 99.5 221t200.5 147.5t266 52.5t253.5 -51.5t164 -141
t40.5 -203.5h-185q5 108 -76 168t-215 60q-97 0 -174 -31t-126 -85.5t-61 -123.5q-13 -78 26.5 -126t102 -74.5t115.5 -42.5l142 -41q56 -16 123.5 -43.5t126.5 -73.5t90 -118t14 -177q-20 -122 -95.5 -220t-201.5 -155t-299 -57zM738 1930l115 -175l171 175h179l-2 -9
l-281 -267h-171l-190 267l2 9h177z" />
    <glyph glyph-name="scaron" unicode="&#x161;" horiz-adv-x="1080" 
d="M451 -24q-112 0 -195.5 32t-133 93t-59.5 149q-1 7 -1.5 13.5t-0.5 13.5l174 29q8 -92 65 -132t154 -40q81 0 145 25t104 66t48 90q8 53 -24 88.5t-111 54.5l-179 44q-146 36 -209.5 115t-43.5 201q16 93 80 164t161.5 110.5t213.5 39.5q161 0 245.5 -65.5t111.5 -167.5
q3 -10 5.5 -20.5t3.5 -21.5l-165 -30q-13 60 -56.5 106t-147.5 46q-69 0 -128 -23t-97.5 -62t-46.5 -89q-10 -58 27 -92t131 -57l162 -40q146 -36 209 -115t43 -198q-12 -71 -53 -131t-105.5 -104t-147.5 -68t-179 -24zM564 1558l115 -175l171 175h179l-2 -9l-281 -267h-171
l-190 267l2 9h177z" />
    <glyph glyph-name="uni021A" unicode="&#x162;" horiz-adv-x="1324" 
d="M226 1323l28 167h1126l-28 -167h-467l-219 -1323h-190l219 1323h-469zM392 -418l17 105h118q55 0 79 14.5t30 50.5t-12 51t-75 15h-82l68 230h95l-8 -48l-14 -86q95 -4 135 -41.5t27 -117.5q-14 -89 -75 -131t-184 -42h-119z" />
    <glyph glyph-name="uni0163" unicode="&#x163;" horiz-adv-x="672" 
d="M691 1118l-25 -154h-578l25 154h578zM326 1384h180l-181 -1094q-13 -77 13 -110.5t95 -33.5q17 0 44 4t50 8l11 -152q-27 -9 -63 -14.5t-73 -5.5q-147 0 -214.5 77t-45.5 213zM160 -418l17 105h118q55 0 79 14.5t30 50.5t-12 51t-75 15h-82l68 230h95l-8 -48l-14 -86
q95 -4 135 -41.5t27 -117.5q-14 -89 -75 -131t-184 -42h-119z" />
    <glyph glyph-name="Tcaron" unicode="&#x164;" horiz-adv-x="1324" 
d="M226 1323l28 167h1126l-28 -167h-467l-219 -1323h-190l219 1323h-469zM747 1930l115 -175l171 175h179l-2 -9l-281 -267h-171l-190 267l2 9h177z" />
    <glyph glyph-name="tcaron" unicode="&#x165;" horiz-adv-x="672" 
d="M691 1118l-25 -154h-578l25 154h578zM326 1384h180l-181 -1094q-13 -77 13 -110.5t95 -33.5q17 0 44 4t50 8l11 -152q-27 -9 -63 -14.5t-73 -5.5q-147 0 -214.5 77t-45.5 213zM601 1254l62 378h180l-114 -378h-128z" />
    <glyph glyph-name="Tbar" unicode="&#x166;" horiz-adv-x="1324" 
d="M226 1323l28 167h1126l-28 -167h-467l-219 -1323h-190l219 1323h-469zM279 686l25 154h813l-25 -154h-813z" />
    <glyph glyph-name="tbar" unicode="&#x167;" horiz-adv-x="673" 
d="M631 753l-26 -154h-578l26 154h578zM692 1118l-25 -154h-578l25 154h578zM327 1384h180l-181 -1094q-13 -77 13 -110.5t95 -33.5q17 0 44 4t50 8l11 -152q-27 -9 -63 -14.5t-73 -5.5q-147 0 -214.5 77t-45.5 213z" />
    <glyph glyph-name="Utilde" unicode="&#x168;" horiz-adv-x="1523" 
d="M677 -24q-179 0 -301 70.5t-175.5 192.5t-28.5 275l162 976h190l-161 -974q-18 -109 15 -191t111 -127.5t195 -45.5q123 0 221 49t161.5 134t81.5 194l159 961h190l-163 -989q-25 -154 -115.5 -272.5t-229.5 -185.5t-312 -67zM1080 1685q-37 0 -70.5 12.5t-62.5 29
t-53 29t-43 12.5q-28 0 -44.5 -25.5t-22.5 -53.5h-126q19 92 68.5 150t128.5 58q39 0 70 -13t57.5 -29.5t50.5 -29.5t49 -13q26 0 41.5 19.5t27.5 61.5h123q-19 -97 -70.5 -152.5t-123.5 -55.5z" />
    <glyph glyph-name="utilde" unicode="&#x169;" horiz-adv-x="1212" 
d="M443 -14q-112 0 -189.5 46t-110 140t-9.5 236l117 710h180l-114 -695q-21 -128 33.5 -201.5t172.5 -73.5q79 0 148.5 34.5t118.5 101.5t65 164l110 670h181l-185 -1118h-174l45 271h24q-77 -157 -183 -221t-230 -64zM862 1313q-37 0 -70.5 12.5t-62.5 29t-53 29t-43 12.5
q-28 0 -44.5 -25.5t-22.5 -53.5h-126q19 92 68.5 150t128.5 58q39 0 70 -13t57.5 -29.5t50.5 -29.5t49 -13q26 0 41.5 19.5t27.5 61.5h123q-19 -97 -70.5 -152.5t-123.5 -55.5z" />
    <glyph glyph-name="Umacron" unicode="&#x16a;" horiz-adv-x="1523" 
d="M677 -24q-179 0 -301 70.5t-175.5 192.5t-28.5 275l162 976h190l-161 -974q-18 -109 15 -191t111 -127.5t195 -45.5q123 0 221 49t161.5 134t81.5 194l159 961h190l-163 -989q-25 -154 -115.5 -272.5t-229.5 -185.5t-312 -67zM1256 1863l-24 -142h-554l24 142h554z" />
    <glyph glyph-name="umacron" unicode="&#x16b;" horiz-adv-x="1212" 
d="M443 -14q-112 0 -189.5 46t-110 140t-9.5 236l117 710h180l-114 -695q-21 -128 33.5 -201.5t172.5 -73.5q79 0 148.5 34.5t118.5 101.5t65 164l110 670h181l-185 -1118h-174l45 271h24q-77 -157 -183 -221t-230 -64zM1038 1491l-24 -142h-554l24 142h554z" />
    <glyph glyph-name="Ubreve" unicode="&#x16c;" horiz-adv-x="1523" 
d="M677 -24q-179 0 -301 70.5t-175.5 192.5t-28.5 275l162 976h190l-161 -974q-18 -109 15 -191t111 -127.5t195 -45.5q123 0 221 49t161.5 134t81.5 194l159 961h190l-163 -989q-25 -154 -115.5 -272.5t-229.5 -185.5t-312 -67zM941 1647q-81 0 -140.5 38t-87 102
t-14.5 143h132q-11 -69 26 -112t106 -43q46 0 85 19.5t65.5 54.5t33.5 81h132q-13 -79 -62.5 -143.5t-121.5 -102t-154 -37.5z" />
    <glyph glyph-name="ubreve" unicode="&#x16d;" horiz-adv-x="1212" 
d="M443 -14q-112 0 -189.5 46t-110 140t-9.5 236l117 710h180l-114 -695q-21 -128 33.5 -201.5t172.5 -73.5q79 0 148.5 34.5t118.5 101.5t65 164l110 670h181l-185 -1118h-174l45 271h24q-77 -157 -183 -221t-230 -64zM723 1275q-81 0 -140.5 38t-87 102t-14.5 143h132
q-11 -69 26 -112t106 -43q46 0 85 19.5t65.5 54.5t33.5 81h132q-13 -79 -62.5 -143.5t-121.5 -102t-154 -37.5z" />
    <glyph glyph-name="Uring" unicode="&#x16e;" horiz-adv-x="1523" 
d="M677 -24q-179 0 -301 70.5t-175.5 192.5t-28.5 275l162 976h190l-161 -974q-18 -109 15 -191t111 -127.5t195 -45.5q123 0 221 49t161.5 134t81.5 194l159 961h190l-163 -989q-25 -154 -115.5 -272.5t-229.5 -185.5t-312 -67zM935 1541q-76 0 -132.5 36t-83 96t-14.5 131
q11 66 53 120t104.5 86t133.5 32q77 0 133 -35.5t83 -95t15 -130.5q-11 -68 -54 -122.5t-105.5 -86t-132.5 -31.5zM945 1667q50 0 93 35t53 87q10 53 -20 90.5t-84 37.5q-52 0 -94.5 -36t-51.5 -88t21 -89t83 -37z" />
    <glyph glyph-name="uring" unicode="&#x16f;" horiz-adv-x="1212" 
d="M443 -14q-112 0 -189.5 46t-110 140t-9.5 236l117 710h180l-114 -695q-21 -128 33.5 -201.5t172.5 -73.5q79 0 148.5 34.5t118.5 101.5t65 164l110 670h181l-185 -1118h-174l45 271h24q-77 -157 -183 -221t-230 -64zM710 1189q-73 0 -127 34t-80 91.5t-15 126.5
q12 70 57 126.5t110.5 90.5t137.5 34q73 0 127 -34t80 -90.5t14 -126.5q-11 -69 -56 -126.5t-110 -91.5t-138 -34zM731 1315q53 0 95.5 37t50.5 90t-23.5 88.5t-81.5 35.5q-52 0 -94.5 -36t-51.5 -88t21.5 -89.5t83.5 -37.5z" />
    <glyph glyph-name="Uhungarumlaut" unicode="&#x170;" horiz-adv-x="1523" 
d="M677 -24q-179 0 -301 70.5t-175.5 192.5t-28.5 275l162 976h190l-161 -974q-18 -109 15 -191t111 -127.5t195 -45.5q123 0 221 49t161.5 134t81.5 194l159 961h190l-163 -989q-25 -154 -115.5 -272.5t-229.5 -185.5t-312 -67zM769 1636h-147l166 294h200zM1097 1636h-148
l217 294h201z" />
    <glyph glyph-name="uhungarumlaut" unicode="&#x171;" horiz-adv-x="1212" 
d="M443 -14q-112 0 -189.5 46t-110 140t-9.5 236l117 710h180l-114 -695q-21 -128 33.5 -201.5t172.5 -73.5q79 0 148.5 34.5t118.5 101.5t65 164l110 670h181l-185 -1118h-174l45 271h24q-77 -157 -183 -221t-230 -64zM551 1264h-147l166 294h200zM879 1264h-148l217 294
h201z" />
    <glyph glyph-name="Uogonek" unicode="&#x172;" horiz-adv-x="1523" 
d="M677 -24q-179 0 -301 70.5t-175.5 192.5t-28.5 275l162 976h190l-161 -974q-18 -109 15 -191t111 -127.5t195 -45.5q123 0 221 49t161.5 134t81.5 194l159 961h190l-163 -989q-25 -154 -115.5 -272.5t-229.5 -185.5t-312 -67zM659 -436q-95 0 -157 49.5t-46 145.5
q11 63 55.5 109t111.5 83.5t145.5 73.5t157.5 78t148.5 96.5t119 129.5t66.5 178l74 -6q-22 -131 -78.5 -221t-132 -150t-156 -101.5t-151.5 -75.5t-118.5 -71t-55.5 -89q-6 -37 12 -57.5t58 -20.5q30 0 55 9t43 19l38 -129q-33 -17 -80 -33.5t-109 -16.5z" />
    <glyph glyph-name="uogonek" unicode="&#x173;" horiz-adv-x="1212" 
d="M443 -14q-112 0 -189.5 46t-110 140t-9.5 236l117 710h180l-114 -695q-21 -128 33.5 -201.5t172.5 -73.5q79 0 148.5 34.5t118.5 101.5t65 164l110 670h181l-185 -1118h-174l45 271h24q-77 -157 -183 -221t-230 -64zM776 -436q-97 0 -158 50t-45 144q12 71 67.5 137
t146.5 121l174 -16q-77 -49 -134.5 -97t-67.5 -110q-6 -38 12 -58t58 -20q28 0 53 8.5t45 19.5l38 -129q-33 -17 -80 -33.5t-109 -16.5z" />
    <glyph glyph-name="Wcircumflex" unicode="&#x174;" horiz-adv-x="2018" 
d="M365 0l-159 1490h194l84 -914q7 -73 11.5 -148.5t8 -153t4.5 -159.5h-24q28 82 57 159.5t59.5 153t61.5 148.5l393 914h216l88 -914q7 -73 12.5 -148.5t9.5 -153t6 -159.5h-27q28 82 57.5 159.5t59.5 153t61 148.5l386 914h196l-655 -1490h-221l-99 944
q-10 93 -14.5 199.5t-3.5 251.5h39q-44 -137 -83.5 -243.5t-83.5 -207.5l-412 -944h-222zM1046 1654h-177l2 9l279 267h171l192 -267l-2 -9h-179l-112 175z" />
    <glyph glyph-name="wcircumflex" unicode="&#x175;" horiz-adv-x="1676" 
d="M317 0l-154 1118h191l55 -488q11 -100 22 -226t17 -287h-31q55 153 106.5 279.5t98.5 233.5l215 488h192l51 -488q11 -100 20.5 -226t14.5 -287h-32q56 154 108 279.5t100 233.5l217 488h191l-524 -1118h-179l-61 506q-8 71 -16 150t-14.5 165.5t-12.5 176.5h39
q-35 -89 -70.5 -174.5t-69.5 -165.5t-67 -153l-228 -505h-179zM814 1282h-177l2 9l279 267h171l192 -267l-2 -9h-179l-112 175z" />
    <glyph glyph-name="Ycircumflex" unicode="&#x176;" horiz-adv-x="1390" 
d="M507 0l101 610l-402 880h206l215 -481q36 -81 62.5 -154.5t49.5 -185.5h-76q60 114 111 188.5t111 151.5l374 481h233l-694 -880l-101 -610h-190zM732 1654h-177l2 9l279 267h171l192 -267l-2 -9h-179l-112 175z" />
    <glyph glyph-name="ycircumflex" unicode="&#x177;" horiz-adv-x="1151" 
d="M-19 -405l72 156l17 -4q55 -13 101.5 -6.5t88 44t81.5 116.5l47 93l-241 1124h188l129 -663q20 -103 29.5 -205.5t22.5 -198.5h-66q45 96 88 198.5t98 205.5l349 663h205l-704 -1285q-48 -88 -105.5 -145.5t-125 -85.5t-147.5 -28q-44 0 -78.5 7t-48.5 14zM551 1282h-177
l2 9l279 267h171l192 -267l-2 -9h-179l-112 175z" />
    <glyph glyph-name="Ydieresis" unicode="&#x178;" horiz-adv-x="1390" 
d="M507 0l101 610l-402 880h206l215 -481q36 -81 62.5 -154.5t49.5 -185.5h-76q60 114 111 188.5t111 151.5l374 481h233l-694 -880l-101 -610h-190zM1090 1673q-49 0 -78 35t-21 84t49 83.5t90 34.5t77.5 -34.5t20.5 -83.5t-48.5 -84t-89.5 -35zM669 1673q-49 0 -78 35
t-21 84t49 83.5t90 34.5t77.5 -34.5t20.5 -83.5t-48.5 -84t-89.5 -35z" />
    <glyph glyph-name="Zacute" unicode="&#x179;" horiz-adv-x="1290" 
d="M38 0l23 134l995 1189h-807l28 167h1037l-23 -136l-996 -1187h807l-28 -167h-1036zM741 1654l186 276h201l-240 -276h-147z" />
    <glyph glyph-name="zacute" unicode="&#x17a;" horiz-adv-x="1131" 
d="M33 0l23 134l752 806l2 11h-599l27 167h839l-24 -143l-732 -797l-2 -11h620l-27 -167h-879zM588 1282l186 276h201l-240 -276h-147z" />
    <glyph glyph-name="Zdotaccent" unicode="&#x17b;" horiz-adv-x="1290" 
d="M38 0l23 134l995 1189h-807l28 167h1037l-23 -136l-996 -1187h807l-28 -167h-1036zM830 1673q-51 0 -82 35t-23 84q8 50 51 84.5t94 34.5q52 0 83 -34.5t23 -84.5q-8 -49 -51 -84t-95 -35z" />
    <glyph glyph-name="zdotaccent" unicode="&#x17c;" horiz-adv-x="1131" 
d="M33 0l23 134l752 806l2 11h-599l27 167h839l-24 -143l-732 -797l-2 -11h620l-27 -167h-879zM677 1301q-51 0 -82 35t-23 84q8 50 51 84.5t94 34.5q52 0 83 -34.5t23 -84.5q-8 -49 -51 -84t-95 -35z" />
    <glyph glyph-name="Zcaron" unicode="&#x17d;" horiz-adv-x="1290" 
d="M38 0l23 134l995 1189h-807l28 167h1037l-23 -136l-996 -1187h807l-28 -167h-1036zM729 1930l115 -175l171 175h179l-2 -9l-281 -267h-171l-190 267l2 9h177z" />
    <glyph glyph-name="zcaron" unicode="&#x17e;" horiz-adv-x="1131" 
d="M33 0l23 134l752 806l2 11h-599l27 167h839l-24 -143l-732 -797l-2 -11h620l-27 -167h-879zM576 1558l115 -175l171 175h179l-2 -9l-281 -267h-171l-190 267l2 9h177z" />
    <glyph glyph-name="longs" unicode="&#x17f;" horiz-adv-x="641" 
d="M-147 -448q-21 0 -41.5 2t-39 5.5t-36.5 9.5l45 161q14 -5 48 -8.5t47 -3.5q72 0 113.5 39.5t55.5 125.5l217 1312q20 118 72 199.5t134 123.5t190 42q39 0 74 -6t71 -14l-50 -154q-17 4 -54 6t-67 2q-80 0 -126 -48t-63 -148l-217 -1314q-18 -109 -67 -183
t-126.5 -111.5t-179.5 -37.5z" />
    <glyph glyph-name="bbar" unicode="&#x180;" horiz-adv-x="1255" 
d="M592 -24q-108 0 -169 35.5t-91 82t-45 79.5h-18l-30 -173h-174l247 1490h180l-92 -551h15q26 32 66 77.5t106.5 80.5t171.5 35q123 0 213 -54t139 -154t49 -239q0 -130 -38.5 -256.5t-111.5 -228.5t-178.5 -163t-239.5 -61zM568 137q100 0 176.5 49t129 129.5t79 176
t26.5 188.5q0 128 -60.5 209.5t-189.5 81.5q-101 0 -177 -47.5t-126.5 -126.5t-76 -175t-25.5 -193q0 -133 61 -212.5t183 -79.5zM121 1235l23 138h646l-23 -138h-646z" />
    <glyph glyph-name="uni0181" unicode="&#x181;" horiz-adv-x="1620" 
d="M151 1114l12 74q24 148 112 225t246 77h93l-28 -167h-92q-67 0 -104 -32.5t-49 -104.5l-12 -72h-178zM367 0l247 1490h522q156 0 249.5 -54.5t130 -146t18.5 -202.5q-14 -91 -58.5 -153t-107.5 -99.5t-134 -56.5v-10q70 -4 132.5 -49.5t95.5 -129t14 -201.5
q-18 -112 -83 -199.5t-182 -138t-292 -50.5h-552zM585 167h345q177 0 264 73.5t103 173.5q12 74 -16.5 133t-91 94t-154.5 35h-365zM696 836h323q79 0 150 33t121 92.5t63 139.5q16 93 -37.5 157.5t-199.5 64.5h-339z" />
    <glyph glyph-name="uni0182" unicode="&#x182;" horiz-adv-x="1344" 
d="M88 0l246 1490h907l-28 -167h-716l-76 -453h368q163 0 266 -53t145 -149t20 -227q-22 -130 -96.5 -229.5t-195.5 -155.5t-282 -56h-558zM305 165h368q100 0 176 39.5t123.5 103t59.5 135.5q19 108 -50 184t-220 76h-368z" />
    <glyph glyph-name="uni0183" unicode="&#x183;" horiz-adv-x="1255" 
d="M380 1337l-68 153h837l-25 -153h-744zM592 -24q-108 0 -169 35.5t-91 82t-45 79.5h-18l-30 -173h-174l247 1490h180l-92 -551h15q26 32 66 77.5t106.5 80.5t171.5 35q123 0 213 -54t139 -154t49 -239q0 -130 -38.5 -256.5t-111.5 -228.5t-178.5 -163t-239.5 -61zM568 137
q100 0 176.5 49t129 129.5t79 176t26.5 188.5q0 128 -60.5 209.5t-189.5 81.5q-101 0 -177 -47.5t-126.5 -126.5t-76 -175t-25.5 -193q0 -133 61 -212.5t183 -79.5z" />
    <glyph glyph-name="uni0184" unicode="&#x184;" horiz-adv-x="1611" 
d="M274 950l-143 87l328 453h206zM657 902h405q155 0 258.5 -54t148 -153.5t22.5 -234.5q-23 -141 -99 -244.5t-195.5 -159.5t-274.5 -56h-553l247 1490h190l-220 -1325h355q96 0 172 36t125.5 102t64.5 155q15 87 -11 149t-89 95t-159 33h-414z" />
    <glyph glyph-name="uni0185" unicode="&#x185;" horiz-adv-x="1422" 
d="M206 626l-128 76l307 416h196zM614 717h321q133 0 216.5 -46t117 -126t16.5 -183q-17 -102 -78.5 -184t-160.5 -130t-230 -48h-473l185 1118h180l-158 -952h293q102 0 174 53.5t85 134.5q14 86 -40 141t-155 55h-322z" />
    <glyph glyph-name="uni0186" unicode="&#x186;" horiz-adv-x="1495" 
d="M859 1510q170 0 295.5 -72t194.5 -206.5t69 -321.5q0 -176 -55 -342.5t-158 -299t-249 -210.5t-328 -78q-115 0 -211.5 33t-168 96t-111 154t-40.5 206h190q3 -76 30.5 -134t74.5 -98t109 -60.5t134 -20.5q140 0 251 64t188.5 172t118.5 241.5t41 271.5q0 141 -49 236.5
t-135 144t-198 48.5q-76 0 -148.5 -20.5t-136 -60.5t-112.5 -98t-77 -134h-191q39 114 106 204t156.5 154t193.5 97.5t216 33.5z" />
    <glyph glyph-name="uni0187" unicode="&#x187;" horiz-adv-x="1495" 
d="M1286 1021l67 409q21 128 108.5 191.5t224.5 63.5q33 0 60.5 -2.5t41.5 -6.5l-24 -149q-15 2 -31 3t-27 1q-87 0 -129 -25.5t-50 -75.5l-67 -409h-174zM698 -20q-169 0 -295 72t-195 206.5t-69 321.5q0 176 55 342.5t158 299t249 210.5t328 78q115 0 211.5 -33t168 -96
t111 -153.5t40.5 -206.5h-190q-3 76 -30.5 134t-74.5 98t-109 60.5t-134 20.5q-140 0 -251 -64t-188.5 -172t-118.5 -241.5t-41 -271.5q0 -140 49 -236t135 -144.5t198 -48.5q76 0 148.5 20.5t136 60.5t112.5 98t77 134h191q-39 -114 -106 -204t-156.5 -154t-193.5 -97.5
t-216 -33.5z" />
    <glyph glyph-name="uni0188" unicode="&#x188;" horiz-adv-x="1171" 
d="M948 791l-37 188q-34 172 38.5 250t222.5 78q34 0 57 -2.5t36 -5.5l-24 -148q-21 3 -44 4.5t-39 1.5q-53 0 -77.5 -32.5t-11.5 -101.5l38 -205zM528 -24q-135 0 -232 56.5t-149.5 159.5t-52.5 241q0 133 41.5 258t119.5 224.5t189.5 158t252.5 58.5q83 0 153.5 -21.5
t124 -62.5t87.5 -99t45 -131l-176 -39q-5 43 -23 78t-48 60.5t-71.5 39.5t-95.5 14q-102 0 -180 -48t-131.5 -127t-80.5 -173.5t-27 -187.5q0 -83 26.5 -151t83.5 -107.5t148 -39.5q58 0 109.5 16t94 44.5t74.5 67t51 83.5l166 -58q-34 -74 -86 -132t-117 -98.5t-140 -62
t-156 -21.5z" />
    <glyph glyph-name="Dbar1" unicode="&#x189;" horiz-adv-x="1504" 
d="M612 0h-393l27 168h348q183 0 314.5 70t212 200.5t109.5 309.5q30 180 -7.5 308.5t-142 197t-276.5 68.5h-374l28 168h363q218 0 364 -89.5t207 -256t22 -398.5q-39 -235 -142.5 -401.5t-269 -255.5t-390.5 -89zM551 1490l-247 -1490h-190l247 1490h190zM43 668l25 154
h773l-25 -154h-773z" />
    <glyph glyph-name="uni018A" unicode="&#x18a;" horiz-adv-x="1757" 
d="M151 1114l12 74q24 148 112 225t246 77h93l-28 -167h-92q-67 0 -104 -32.5t-49 -104.5l-12 -72h-178zM865 0h-393l27 168h348q183 0 314.5 70t212 200.5t109.5 309.5q30 180 -7.5 308.5t-142 197t-276.5 68.5h-374l28 168h363q218 0 364 -89.5t207 -256t22 -398.5
q-39 -235 -142.5 -401.5t-269 -255.5t-390.5 -89zM804 1490l-247 -1490h-190l247 1490h190z" />
    <glyph glyph-name="uni018B" unicode="&#x18b;" horiz-adv-x="1298" 
d="M1085 0h-556q-160 0 -263.5 55.5t-146 155t-21.5 229.5q22 131 97 228.5t197 152t284 54.5h340l68 408h-688l27 177h903zM900 173l87 528h-342q-152 0 -232 -74.5t-97 -183.5q-11 -72 8.5 -133.5t76.5 -99t157 -37.5h342z" />
    <glyph glyph-name="uni018C" unicode="&#x18c;" horiz-adv-x="1255" 
d="M1133 1337h-744l25 153h837zM492 -24q-183 0 -290.5 120.5t-107.5 328.5q0 132 38.5 258t112 227.5t179 161.5t239.5 60q111 0 171.5 -36.5t89 -83.5t42.5 -78h12l92 556h181l-247 -1490h-175l30 173h-19q-24 -35 -65.5 -81.5t-110 -81t-172.5 -34.5zM524 137
q101 0 177 49t127 130t77 178t26 192q0 131 -61 208t-186 77q-100 0 -176 -47.5t-127.5 -126t-78 -173t-26.5 -189.5q0 -130 60.5 -214t187.5 -84z" />
    <glyph glyph-name="deltaturn" unicode="&#x18d;" horiz-adv-x="1113" 
d="M752 -376h-718l29 161h440q-10 15 -38 47.5t-62.5 70t-64.5 66.5q-92 91 -158 181.5t-96 188.5t-13 211l3 20q26 170 104.5 296.5t198.5 196t269 69.5q155 0 252.5 -71t136 -197t14.5 -291l-3 -21q-17 -119 -86.5 -220.5t-181 -169t-254.5 -85.5q-18 -2 -24 -2.5
l-18 -1.5q36 -39 75.5 -80t78 -82t74 -82t64.5 -82zM837 550l3 20q17 114 2 203.5t-69 141t-154 51.5q-97 0 -167 -51.5t-113 -141t-60 -203.5l-3 -20q-18 -120 22 -206.5t100 -130.5q19 -7 37.5 -9.5t43.5 -2.5q104 0 178 48.5t119 128.5t61 172z" />
    <glyph glyph-name="Eturn" unicode="&#x18e;" horiz-adv-x="1232" 
d="M1207 1490l-247 -1490h-908l28 167h718l80 487h-669l28 167h670l83 502h-727l27 167h917z" />
    <glyph glyph-name="uni018F" unicode="&#x18f;" horiz-adv-x="1526" 
d="M658 -20q-177 0 -306 74.5t-189 210.5t-31 321l26 163h1168l-28 -166h-1038l59 11q-22 -134 19.5 -232.5t132.5 -152t216 -53.5q138 0 254.5 68.5t197.5 200.5t112 322q31 191 -10.5 321.5t-136.5 198t-226 67.5q-79 0 -149 -21.5t-129.5 -62.5t-106.5 -98t-82 -129h-196
q38 108 106 197.5t159.5 154t200 100t226.5 35.5q192 0 324 -93t187.5 -263.5t17.5 -405.5q-29 -178 -98 -320t-171 -242t-231 -153t-278 -53z" />
    <glyph glyph-name="Epsilon1" unicode="&#x190;" horiz-adv-x="1264" 
d="M534 -20q-146 0 -251.5 55.5t-156 151.5t-30.5 218q16 94 64 169t123.5 124t172.5 64l2 12q-108 34 -160 122t-31 214q18 106 87 197t178.5 147t248.5 56q131 0 231 -50t151.5 -139t36.5 -206h-183q9 73 -25 124t-96 78.5t-138 27.5q-81 0 -146 -30.5t-106.5 -85.5
t-54.5 -129q-12 -77 15.5 -134t88.5 -88.5t148 -31.5h121l-27 -165h-121q-110 0 -193.5 -35t-134 -96.5t-64.5 -142.5q-12 -77 20 -136t99.5 -91.5t160.5 -32.5q85 0 159 27.5t125.5 79t68.5 122.5h192q-24 -118 -105 -207t-202.5 -139t-267.5 -50z" />
    <glyph glyph-name="uni0191" unicode="&#x191;" horiz-adv-x="1209" 
d="M-187 -418l26 159q16 -3 31.5 -4t26.5 -1q86 0 120.5 25.5t42.5 75.5l48 291h190l-50 -299q-21 -125 -106.5 -190.5t-226.5 -65.5q-33 0 -60.5 2.5t-41.5 6.5zM87 0l247 1490h901l-28 -167h-711l-85 -512h643l-27 -167h-643l-107 -644h-190z" />
    <glyph glyph-name="florin" unicode="&#x192;" horiz-adv-x="798" 
d="M758 1082l-26 -153h-205l-165 -998q-19 -115 -70 -192.5t-129.5 -117t-179.5 -39.5q-31 0 -57.5 2.5t-55.5 11.5l41 162q16 -6 49.5 -8t46.5 -2q59 0 105.5 48.5t60.5 134.5l165 998h-180l27 153h179l18 109q20 118 74.5 199.5t133.5 123.5t172 42q42 0 90.5 -7.5
t75.5 -18.5l-70 -161q-13 4 -33 7t-47 3q-85 0 -138 -46.5t-69 -141.5l-18 -109h205z" />
    <glyph glyph-name="uni0193" unicode="&#x193;" horiz-adv-x="1527" 
d="M1354 1067l8 362q2 91 48.5 147t121 82t159.5 26q33 0 60.5 -2.5t41.5 -6.5l-24 -149q-15 2 -31 3t-27 1q-85 0 -128 -25t-51 -76l-66 -406zM704 -20q-175 0 -301.5 72t-195 205.5t-68.5 318.5q0 177 54 344t156 300t247.5 211.5t327.5 78.5q120 0 219 -35.5t170.5 -100
t111 -154t41.5 -197.5h-196q-11 72 -38.5 129t-71.5 98t-105 62.5t-138 21.5q-138 0 -247.5 -64t-187 -172t-118.5 -241t-41 -271q0 -211 108 -320.5t280 -109.5q129 0 236.5 55t179.5 155t94 234l53 -17h-443l28 166h572l-28 -169q-23 -138 -85 -248.5t-155 -189
t-210 -120.5t-249 -42z" />
    <glyph glyph-name="Gamma1" unicode="&#x194;" horiz-adv-x="1302" 
d="M174 1490h208l306 -1190q33 -126 62.5 -220.5t45.5 -162t8 -114.5q-14 -81 -58 -135.5t-111 -82t-150 -27.5q-126 0 -191 62t-46 183q5 30 18.5 62.5t36 73t54.5 92t73 118t92 151.5l706 1190h208l-824 -1374q-53 -89 -89.5 -147t-56.5 -95.5t-24 -66.5q-5 -37 16 -60
t58 -23q40 0 66 26.5t30 57.5q4 30 -2.5 68.5t-21.5 96t-39 143.5z" />
    <glyph glyph-name="uni0195" unicode="&#x195;" horiz-adv-x="1950" 
d="M65 0l248 1490h180l-91 -550h16q53 90 141.5 141t219.5 51q114 0 192 -46t110.5 -139.5t8.5 -236.5l-25 -152h-182l22 137q21 131 -34.5 203t-174.5 72q-81 0 -152.5 -34.5t-121 -101t-65.5 -164.5l-110 -670h-182zM1165 -20q-109 0 -186.5 49.5t-110 151.5t-5.5 260
l20 117h182l-20 -117q-21 -125 2 -190.5t68 -89t89 -23.5q89 0 179 80t167 262t128 488l25 150h182l-25 -150q-58 -351 -164 -568.5t-243 -318.5t-288 -101z" />
    <glyph glyph-name="Iota" unicode="&#x196;" horiz-adv-x="564" 
d="M316 -8q-126 0 -177.5 67.5t-31.5 188.5l206 1242h180l-198 -1197q-13 -77 0 -108.5t69 -31.5q29 0 45 2t29 6l10 -152q-25 -7 -60.5 -12t-71.5 -5z" />
    <glyph glyph-name="uni0197" unicode="&#x197;" horiz-adv-x="690" 
d="M594 1490l-247 -1490h-190l247 1490h190zM45 702l22 134h646l-22 -134h-646z" />
    <glyph glyph-name="uni0198" unicode="&#x198;" horiz-adv-x="1389" 
d="M88 0l246 1490h190l-121 -733h18l689 642q67 63 140 89.5t142.5 17.5t126.5 -55l-99 -140q-40 29 -91 22t-117 -67l-494 -449l488 -817h-230l-398 684l-219 -209l-81 -475h-190z" />
    <glyph glyph-name="uni0199" unicode="&#x199;" horiz-adv-x="1127" 
d="M220 927l31 191l22 131q20 121 106.5 188t231.5 67q34 0 61.5 -2.5t42.5 -6.5l-25 -149q-16 2 -31 3t-28 1q-81 0 -124.5 -24t-52.5 -77l-22 -131l-32 -191h-180zM303 402l37 223h33l559 493h223l-605 -531h-20zM67 0l185 1118h180l-185 -1118h-180zM774 0l-338 547
l150 127l419 -674h-231z" />
    <glyph glyph-name="uni019A" unicode="&#x19a;" horiz-adv-x="496" 
d="M492 1490l-247 -1490h-180l247 1490h180zM-54 699l23 138h646l-23 -138h-646z" />
    <glyph glyph-name="lambdabar" unicode="&#x19b;" horiz-adv-x="1300" 
d="M839 1418l-30 -174l-533 -187l29 170zM657 784l-411 -784h-230l602 1103l143 -8zM505 1512q109 0 157.5 -43t66.5 -123l247 -1102q8 -33 18 -51.5t25.5 -26t37.5 -7.5h18.5h16.5l-23 -166q-13 -4 -36 -7.5t-46 -3.5q-60 0 -103 13.5t-72.5 57t-49.5 133.5l-176 791
l-64 275q-13 55 -38 74.5t-62 19.5q-10 0 -25 -0.5t-24 -3.5l26 157q14 5 49 9t57 4z" />
    <glyph glyph-name="mcapturn" unicode="&#x19c;" horiz-adv-x="1859" 
d="M1429 215l212 1275h206l-246 -1490h-197zM1494 504l94 2q-25 -151 -86.5 -270t-164 -187.5t-249.5 -68.5q-110 0 -182.5 44t-99.5 145.5t0 271.5l174 1049h206l-174 -1049q-18 -113 -2 -176t54 -88t87 -25q105 0 174.5 46t110.5 125.5t58 180.5zM836 504l94 2
q-24 -151 -87 -270t-166.5 -187.5t-251.5 -68.5q-108 0 -181 43.5t-99.5 144.5t1.5 273l174 1049h208l-174 -1049q-19 -117 -2.5 -179.5t55 -86t82.5 -23.5q105 0 176 46t112.5 125.5t58.5 180.5z" />
    <glyph glyph-name="Nhook" unicode="&#x19d;" horiz-adv-x="1543" 
d="M-187 -418l26 159q16 -3 31.5 -4t26.5 -1q86 0 120.5 25.5t42.5 75.5l48 291h190l-50 -299q-21 -125 -106.5 -190.5t-226.5 -65.5q-33 0 -60.5 2.5t-41.5 6.5zM87 0l247 1490h218l448 -953q14 -30 38.5 -86.5t53 -132t54.5 -163.5h-21q5 86 14 163.5t19 143.5t18 114
l151 914h190l-247 -1490h-219l-400 848q-25 54 -51.5 115.5t-61 148.5t-86.5 217h28q-15 -121 -26.5 -214t-20 -159t-15.5 -106l-140 -850h-191z" />
    <glyph glyph-name="uni019E" unicode="&#x19e;" horiz-adv-x="1212" 
d="M357 670l-111 -670h-180l185 1118h173l-44 -271h-25q52 105 113.5 167.5t134 90t155.5 27.5q113 0 193.5 -46.5t116 -140t11.5 -235.5l-187 -1128h-181l185 1113q22 131 -28.5 203t-166.5 72q-79 0 -152 -35t-124.5 -101.5t-67.5 -163.5z" />
    <glyph glyph-name="Obar" unicode="&#x19f;" horiz-adv-x="1566" 
d="M1320 824v-160h-1024v160h1024zM699 -20q-169 0 -295 72t-195.5 206.5t-69.5 321.5q0 177 55 343.5t159 298.5t250 210t327 78q169 0 294 -72t194.5 -206t69.5 -321q0 -178 -55 -344.5t-158.5 -299t-249 -210t-326.5 -77.5zM706 156q140 0 251 64t188.5 172t118 241.5
t40.5 272.5q0 140 -48.5 235.5t-134.5 144t-198 48.5q-140 0 -251 -64t-189 -172t-119 -241t-41 -272q0 -140 49 -235.5t135.5 -144.5t198.5 -49z" />
    <glyph glyph-name="Ohorn" unicode="&#x1a0;" horiz-adv-x="1560" 
d="M916 1386l21 124q47 0 77 -2t57.5 -5t66 -6t101.5 -5t165 -2q18 0 21 18l31 190h170l-30 -182q-14 -85 -63 -127.5t-135 -42.5q-39 0 -71.5 6t-79.5 14t-124.5 14t-206.5 6zM699 -20q-169 0 -295 72t-195.5 206.5t-69.5 321.5q0 177 55 343.5t159 298.5t250 210t327 78
q169 0 294 -72t194.5 -206t69.5 -321q0 -178 -55 -344.5t-158.5 -299t-249 -210t-326.5 -77.5zM706 156q140 0 251 64t188.5 172t118 241.5t40.5 272.5q0 140 -48.5 235.5t-134.5 144t-198 48.5q-140 0 -251 -64t-189 -172t-119 -241t-41 -272q0 -140 49 -235.5
t135.5 -144.5t198.5 -49z" />
    <glyph glyph-name="ohorn" unicode="&#x1a1;" horiz-adv-x="1222" 
d="M686 1014l19 118q44 -2 89.5 -4.5t92 -4.5t92.5 -3.5t89 -1.5q18 0 21 18l32 190h160l-27 -158q-9 -57 -34 -95t-66 -56.5t-98 -18.5q-89 0 -185 8t-185 8zM528 -24q-135 0 -232 56.5t-149.5 159.5t-52.5 241q0 133 41.5 258t120 224.5t190 158t251.5 58.5q135 0 233 -56
t150.5 -159t52.5 -243q0 -135 -42 -260t-121.5 -224t-191 -156.5t-250.5 -57.5zM532 137q103 0 181.5 48t131.5 126.5t80 172.5t27 186q0 85 -27 153t-84 108t-149 40q-102 0 -180 -48t-131 -127t-80 -173.5t-27 -187.5q0 -126 61 -212t197 -86z" />
    <glyph glyph-name="OI" unicode="&#x1a2;" horiz-adv-x="1786" 
d="M1287 769l-94 -572q-56 -68 -140.5 -116.5t-187.5 -74.5t-214 -26q-198 0 -323.5 86t-173 242.5t-12.5 370.5l20 122l216 4l-20 -126q-26 -167 1.5 -285t110.5 -180t222 -62q89 0 168.5 25.5t135.5 76.5l85 515h206zM1375 1293l-93 -560h-206l83 499q-34 47 -105 75.5
t-164 28.5q-105 0 -189.5 -33.5t-149 -99.5t-108 -164.5t-64.5 -227.5l-19 -115h-214l18 115q35 221 137.5 377t261 239t359.5 83q106 0 197 -27t157.5 -76t98.5 -114zM1758 1490l-316 -1908h-208l282 1698l-255 -89l30 180l307 119h160z" />
    <glyph glyph-name="uni01A3" unicode="&#x1a3;" horiz-adv-x="1307" 
d="M489 146q46 0 82 12t69 32l60 360h208l-67 -409q-47 -46 -105.5 -82.5t-129.5 -57.5t-154 -21q-156 0 -249.5 74t-127 197.5t-11.5 269.5l6 40q24 160 99 289.5t197 205.5t286 76q78 0 140.5 -20t109.5 -56t77 -85l-76 -457l-209 2l68 403q-26 23 -62 35t-81 12
q-104 0 -173.5 -55.5t-110 -147.5t-57.5 -202l-6 -40q-18 -120 2 -203.5t74.5 -127.5t140.5 -44zM1329 1118l-252 -1536h-206l209 1270l-241 -126l43 257l286 135h161z" />
    <glyph glyph-name="uni01A4" unicode="&#x1a4;" horiz-adv-x="1588" 
d="M151 1114l12 74q24 148 112 225t246 77h93l-28 -167h-92q-67 0 -104 -32.5t-49 -104.5l-12 -72h-178zM367 0l247 1490h510q173 0 275 -62.5t139.5 -169.5t15.5 -240q-21 -133 -93.5 -241.5t-195.5 -173t-297 -64.5h-361l28 167h351q121 0 199.5 41.5t122 112.5t57.5 157
q14 87 -7 156t-86.5 109.5t-185.5 40.5h-310l-219 -1323h-190z" />
    <glyph glyph-name="uni01A5" unicode="&#x1a5;" horiz-adv-x="1255" 
d="M219 927l31 191l22 131q20 121 106.5 188t231.5 67q34 0 61.5 -2.5t42.5 -6.5l-25 -149q-16 2 -31 3t-28 1q-81 0 -124.5 -24t-52.5 -77l-22 -131l-32 -191h-180zM-4 -418l255 1536h174l-30 -179h9q24 34 66.5 79.5t112.5 79.5t176 34q123 0 213 -54t139 -154t49 -239
q0 -130 -38.5 -256.5t-111.5 -228.5t-178.5 -163t-239.5 -61q-109 0 -169.5 37.5t-89 85.5t-41.5 79h-17l-99 -596h-180zM568 137q100 0 176.5 49t129 129.5t79 176t26.5 188.5q0 128 -60.5 209.5t-189.5 81.5q-101 0 -177 -47.5t-126.5 -126.5t-76 -175t-25.5 -193
q0 -133 61 -212.5t183 -79.5z" />
    <glyph glyph-name="YR" unicode="&#x1a6;" horiz-adv-x="1486" 
d="M248 1390l34 202h218l-34 -202h-218zM266 1490h492q170 0 276.5 -51.5t148.5 -150.5t17 -240q-18 -101 -72.5 -182.5t-138.5 -139t-193 -86.5l-62 -23h-445l27 171h324q103 0 176 35.5t115.5 95t53.5 131.5q19 118 -37.5 191.5t-220.5 73.5h-274l-217 -1315h-218z
M993 -359l-373 1022h227l379 -1012l-2 -10h-231z" />
    <glyph glyph-name="uni01A7" unicode="&#x1a7;" horiz-adv-x="1314" 
d="M560 -26q-174 0 -285.5 58t-158 156t-26.5 218q17 104 71 175.5t127 117.5t150.5 74t141.5 45l156 41q59 16 130 43t126.5 75t67.5 126q11 72 -17.5 125.5t-92 83.5t-156.5 30q-90 0 -169.5 -27.5t-135.5 -78.5t-76 -122h-186q23 113 103.5 202.5t202 141.5t267.5 52
q145 0 252.5 -52.5t159.5 -147t31 -220.5q-25 -152 -144 -245.5t-300 -142.5l-189 -51q-83 -22 -155 -51t-120 -74t-60 -118q-19 -121 65 -192.5t233 -71.5q88 0 172 26.5t146.5 81t83.5 138.5h195q-29 -124 -111.5 -218t-209 -146t-289.5 -52z" />
    <glyph glyph-name="uni01A8" unicode="&#x1a8;" horiz-adv-x="1081" 
d="M172 861q39 81 100 142t147 95t200 34q120 0 207 -41.5t128.5 -115t25.5 -169.5q-19 -112 -102.5 -189.5t-248.5 -115.5l-193 -44q-85 -19 -132.5 -57.5t-57.5 -96.5q-12 -71 50.5 -120.5t177.5 -49.5q101 0 174 43t111 134l166 -38q-35 -96 -103.5 -162t-164 -100
t-211.5 -34q-130 0 -222 44t-135 121t-27 175q19 113 103.5 188.5t244.5 112.5l175 40q99 23 151 59t63 99q13 72 -47 118t-158 46q-111 0 -172 -50.5t-93 -107.5z" />
    <glyph glyph-name="uni01A9" unicode="&#x1a9;" horiz-adv-x="1292" 
d="M30 0l27 154l497 443q41 36 79.5 68t73 59.5t64 50t51.5 40.5l-13 -80q-18 19 -50.5 51.5t-71 74t-75.5 87.5l-323 402l22 140h1099l-28 -167h-598q-92 0 -164.5 1.5t-133.5 6.5l-11 35q22 -20 55.5 -52t76 -77.5t89.5 -105.5l262 -331l-10 -67l-375 -337
q-70 -63 -132 -114t-113.5 -90.5t-92.5 -69.5l22 37q71 5 151 6.5t185 1.5h608l-28 -167h-1143z" />
    <glyph glyph-name="eshlooprev" unicode="&#x1aa;" horiz-adv-x="1118" 
d="M693 1123l223 90l-213 -1280q-16 -99 10 -140.5t93 -41.5q14 0 33 3t35 7l-27 -164q-25 -8 -59.5 -12t-63.5 -4q-142 0 -201 89t-30 263zM223 1211q15 96 74 174.5t146 125.5t184 47q96 0 166.5 -47t104 -125.5t17.5 -174.5q-15 -92 -75 -170.5t-146.5 -126t-182.5 -47.5
q-94 0 -164.5 46t-104.5 124.5t-19 173.5zM544 1057q43 0 79.5 17.5t62.5 52.5t35 88q14 80 -23.5 120.5t-101.5 40.5q-42 0 -80 -17.5t-64.5 -53.5t-35.5 -91q-13 -82 27 -119.5t101 -37.5z" />
    <glyph glyph-name="uni01AB" unicode="&#x1ab;" horiz-adv-x="672" 
d="M73 -419l25 150q15 -2 30 -3t28 -1q116 0 165.5 44.5t44.5 134.5l-5 100h177l6 -99q6 -91 -34 -167t-124 -122t-210 -46q-33 0 -61 2.5t-42 6.5zM691 1118l-25 -154h-578l25 154h578zM326 1384h180l-181 -1094q-13 -77 13 -110.5t95 -33.5q17 0 44 4t50 8l11 -152
q-27 -9 -63 -14.5t-73 -5.5q-147 0 -214.5 77t-45.5 213z" />
    <glyph glyph-name="uni01AC" unicode="&#x1ac;" horiz-adv-x="1328" 
d="M156 1114l12 74q24 148 112 225t246 77h93l-28 -167h-92q-67 0 -104 -32.5t-49 -104.5l-12 -72h-178zM590 1323l29 167h765l-28 -167h-467l-219 -1323h-190l219 1323h-109z" />
    <glyph glyph-name="uni01AD" unicode="&#x1ad;" horiz-adv-x="746" 
d="M442 -14q-135 0 -206.5 80t-50.5 208l129 775h170l-121 -729q-14 -87 15 -127.5t107 -40.5q17 0 35.5 2t41.5 6l11 -154q-25 -9 -60.5 -14.5t-70.5 -5.5zM133 972l24 146h578l-24 -146h-578zM294 927l31 191l22 131q20 121 106.5 188t231.5 67q34 0 61.5 -2.5t42.5 -6.5
l-25 -149q-16 2 -31 3t-28 1q-81 0 -124.5 -24t-52.5 -77l-22 -131l-32 -191h-180z" />
    <glyph glyph-name="Trthook" unicode="&#x1ae;" horiz-adv-x="1324" 
d="M654 0l-20 -120q-14 -87 34 -113t118 -25h54l-26 -160h-98q-61 0 -114 18.5t-90.5 56t-53.5 93t-4 128.5l20 122h180zM226 1323l28 167h1126l-28 -167h-467l-219 -1323h-190l219 1323h-469z" />
    <glyph glyph-name="Uhorn" unicode="&#x1af;" horiz-adv-x="1518" 
d="M1288 1346l24 144h180q18 0 21 18l31 190h170l-30 -182q-14 -85 -63 -127.5t-135 -42.5h-198zM677 -24q-179 0 -301 70.5t-175.5 192.5t-28.5 275l162 976h190l-161 -974q-18 -109 15 -191t111 -127.5t195 -45.5q123 0 221 49t161.5 134t81.5 194l159 961h190l-163 -989
q-25 -154 -115.5 -272.5t-229.5 -185.5t-312 -67z" />
    <glyph glyph-name="uhorn" unicode="&#x1b0;" horiz-adv-x="1269" 
d="M1016 998l20 120h90q34 0 40 34l35 214h160l-33 -198q-14 -85 -63 -127.5t-135 -42.5h-114zM443 -14q-112 0 -189.5 46t-110 140t-9.5 236l117 710h180l-114 -695q-21 -128 33.5 -201.5t172.5 -73.5q79 0 148.5 34.5t118.5 101.5t65 164l110 670h181l-185 -1118h-174
l45 271h24q-77 -157 -183 -221t-230 -64z" />
    <glyph glyph-name="Upsilon2" unicode="&#x1b1;" horiz-adv-x="1567" 
d="M146 703q34 205 140.5 359t268.5 249l4 12h-310l27 167h535l-38 -213q-101 -41 -194.5 -124.5t-159.5 -199.5t-88 -253q-24 -153 17 -276t136.5 -195.5t232.5 -72.5q139 0 258.5 72.5t201 197t106.5 279.5q23 140 -6.5 254.5t-95.5 196.5t-154 121l38 213h534l-27 -167
h-310l-3 -12q130 -91 186.5 -245t21.5 -366q-26 -158 -96 -289.5t-174.5 -228t-234 -149.5t-274.5 -53t-257.5 53t-185 149.5t-99 229t-0.5 291.5z" />
    <glyph glyph-name="Vcursive" unicode="&#x1b2;" horiz-adv-x="1298" 
d="M553 -20q-149 0 -261 54t-164.5 164t-25.5 276l168 1016h216l-170 -1016q-28 -170 48 -246t216 -76q143 0 244 76.5t129 245.5l112 681q17 101 -18.5 138.5t-111.5 37.5q-16 0 -35.5 -1.5t-36.5 -4.5l30 167q24 7 56.5 12.5t67.5 5.5q137 0 216.5 -91.5t50.5 -263.5
l-113 -681q-27 -165 -120 -275t-224 -164.5t-274 -54.5z" />
    <glyph glyph-name="uni01B3" unicode="&#x1b3;" horiz-adv-x="1460" 
d="M707 764l6 34h34l-4 -34h-36zM210 1490h216l305 -706l422 555q64 84 135.5 125t144 44t137.5 -30l-73 -153q-49 22 -99.5 9.5t-100.5 -77.5l-503 -646l-101 -611h-190l102 611z" />
    <glyph glyph-name="uni01B4" unicode="&#x1b4;" horiz-adv-x="1396" 
d="M991 1118l72 141q30 57 59.5 102.5t64.5 77.5t83 48.5t115 16.5q38 0 70 -2.5t53 -6.5l-13 -142q-14 2 -28.5 2.5t-22.5 0.5q-59 0 -94 -13t-56 -37t-39 -57l-75 -131h-189zM-19 -405l72 156l17 -4q55 -13 101.5 -6.5t88 44t81.5 116.5l47 93l-241 1124h188l129 -663
q20 -103 29.5 -205.5t22.5 -198.5h-66q45 96 88 198.5t98 205.5l349 663h205l-704 -1285q-48 -88 -105.5 -145.5t-125 -85.5t-147.5 -28q-44 0 -78.5 7t-48.5 14z" />
    <glyph glyph-name="Zbar" unicode="&#x1b5;" horiz-adv-x="1290" 
d="M38 0l23 134l995 1189h-807l28 167h1037l-23 -136l-996 -1187h807l-28 -167h-1036zM257 668l25 154h813l-25 -154h-813z" />
    <glyph glyph-name="zbar" unicode="&#x1b6;" horiz-adv-x="1131" 
d="M33 0l23 134l752 806l2 11h-599l27 167h839l-24 -143l-732 -797l-2 -11h620l-27 -167h-879zM220 491l22 134h646l-22 -134h-646z" />
    <glyph glyph-name="uni01B7" unicode="&#x1b7;" horiz-adv-x="1403" 
d="M19 67h192q-10 -100 33 -176t125 -118.5t187 -42.5q124 0 224.5 59.5t167 160.5t87.5 227q24 144 -20.5 249.5t-145 163.5t-244.5 58h-114l27 155l574 504v12h-803l29 171h1064l-23 -139l-614 -543l-2 -14q166 -7 279.5 -88t162.5 -217t19 -310q-23 -135 -85 -248
t-155 -196.5t-210 -129t-251 -45.5q-160 0 -280 64t-180.5 178.5t-43.5 264.5z" />
    <glyph glyph-name="uni01B8" unicode="&#x1b8;" horiz-adv-x="1403" 
d="M1222 67q-33 -150 -132.5 -264.5t-240.5 -178.5t-302 -64q-134 0 -236 46t-167 129.5t-88.5 197.5t-1.5 249q29 175 123 310t234 215t306 87l2 14l-434 543l23 139h1066l-30 -171h-805v-12l407 -504l-25 -155h-113q-142 0 -262 -57t-200 -162.5t-104 -251.5
q-20 -127 12.5 -228t113.5 -160t204 -59q107 0 202.5 43t163 119t90.5 175h194z" />
    <glyph glyph-name="uni01B9" unicode="&#x1b9;" horiz-adv-x="1269" 
d="M478 -392q-151 0 -257.5 56.5t-156 155.5t-28.5 226q20 123 96.5 221.5t190 158t244.5 65.5l2 12l-322 476l23 139h892l-28 -167h-633l-2 -12l297 -440l-26 -152h-121q-134 0 -223.5 -41.5t-138.5 -109.5t-62 -148q-15 -90 17.5 -150.5t100.5 -91.5t159 -31
q86 0 159.5 26.5t125 78t71.5 124.5h194q-29 -124 -113.5 -212.5t-204.5 -136t-256 -47.5z" />
    <glyph glyph-name="uni01BA" unicode="&#x1ba;" horiz-adv-x="1110" 
d="M239 1118h873l-21 -128l-650 -498h-109l22 130l428 330h-570zM183 -131q-11 -70 39.5 -109.5t147.5 -39.5q61 0 120.5 17.5t104 60.5t61.5 117h205q-15 -90 -80.5 -172t-174 -134.5t-254.5 -52.5q-129 0 -217.5 41t-128.5 114.5t-24 169.5q11 65 44.5 116.5t91 92
t138.5 71t187 51.5q88 18 140 37.5t78 48.5t33 74q9 56 -33.5 88t-149.5 32h-81l40 164h69q125 0 211 -37t126 -102.5t25 -151.5q-12 -70 -47.5 -121.5t-93.5 -88.5t-135.5 -63.5t-173.5 -46.5q-101 -21 -157.5 -49t-80.5 -60.5t-30 -66.5z" />
    <glyph glyph-name="uni01BB" unicode="&#x1bb;" horiz-adv-x="1249" 
d="M61 0l23 137l583 537q99 91 166 160t104.5 130.5t48.5 130.5q13 79 -12 134.5t-79.5 85.5t-132.5 30q-84 0 -156 -34.5t-120.5 -96.5t-62.5 -147h-181q22 132 97.5 231.5t187.5 155.5t245 56q134 0 229 -56t139.5 -150.5t24.5 -211.5q-10 -61 -36.5 -119.5t-75 -122.5
t-126 -143t-190.5 -181l-384 -347l-2 -12h686l-27 -167h-949zM291 557l25 154h813l-25 -154h-813z" />
    <glyph glyph-name="uni01BC" unicode="&#x1bc;" horiz-adv-x="1247" 
d="M546 1490l-28 -167h-292l28 167h292zM535 -20q-131 0 -226.5 51.5t-143 141t-33.5 203.5h184q-7 -98 57.5 -163.5t179.5 -65.5q89 0 168.5 41.5t135 116t70.5 171.5q16 98 -12.5 172.5t-92.5 117t-155 42.5q-67 0 -146 -21.5t-130 -56.5l-174 22l211 738h784l-28 -167
h-624l-124 -435h8q52 38 126 62.5t151 24.5q136 0 232.5 -64.5t140 -177.5t18.5 -259q-24 -142 -106.5 -254t-205 -176t-265.5 -64z" />
    <glyph glyph-name="uni01BD" unicode="&#x1bd;" horiz-adv-x="1114" 
d="M374 471l-176 14l169 597h685l-29 -177h-511l-65 -232q35 23 98 41t121 20q179 5 265.5 -93t57.5 -281q-17 -109 -77 -194.5t-163.5 -134.5t-254.5 -49q-72 0 -142.5 20t-126.5 60t-83.5 101.5t-13.5 143.5l202 16q-13 -78 40.5 -124.5t150.5 -46.5q116 0 182 58t81 152
q15 95 -31.5 152t-154.5 57q-84 0 -136.5 -30t-87.5 -70zM483 1082l-29 -177h-303l29 177h303z" />
    <glyph glyph-name="glottalstopbarinv" unicode="&#x1be;" horiz-adv-x="1112" 
d="M744 293q7 47 -15 79.5t-59 58.5t-78.5 54.5t-76 66.5t-51.5 94t-3 139l93 558h208l-91 -553q-10 -62 9.5 -102t56 -67.5t79 -52.5t78.5 -57t54.5 -79.5t6.5 -122.5q-15 -97 -80.5 -171t-168.5 -116t-231 -42q-146 0 -238.5 52t-130.5 134.5t-22 173.5h209
q-10 -73 19.5 -116t81 -61.5t108.5 -18.5q70 0 122 19.5t83 53t37 76.5zM916 1082l-27 -153h-599l29 153h597z" />
    <glyph glyph-name="uni01BF" unicode="&#x1bf;" horiz-adv-x="1298" 
d="M444 910l-196 -1326h-208l226 1534h192zM359 679l-110 -78q42 168 113 286.5t174.5 181.5t239.5 63t220 -68.5t115.5 -193t6.5 -292.5l-7 -48q-30 -209 -146 -341.5t-306 -217.5t-444 -152l25 166q172 39 313.5 104.5t233.5 172.5t115 268l7 48q15 103 -1 190
t-69.5 139.5t-151.5 52.5q-87 0 -151 -39t-107.5 -103t-69.5 -139z" />
    <glyph glyph-name="pipe" unicode="&#x1c0;" horiz-adv-x="545" 
d="M507 1488l-247 -1488h-162l248 1488h161z" />
    <glyph glyph-name="pipedbl" unicode="&#x1c1;" horiz-adv-x="734" 
d="M467 1488l-247 -1488h-162l248 1488h161zM737 1488l-247 -1488h-162l248 1488h161z" />
    <glyph glyph-name="pipedblbar" unicode="&#x1c2;" horiz-adv-x="496" 
d="M478 1488l-247 -1488h-162l248 1488h161zM-12 952l23 138h646l-23 -138h-646zM-94 458l23 138h646l-23 -138h-646z" />
    <glyph glyph-name="exclam1" unicode="&#x1c3;" horiz-adv-x="589" 
d="M189 479l156 1011h204l-181 -1011h-179zM210 -13q-58 0 -94.5 43t-26.5 104q9 53 51.5 87.5t91.5 34.5q61 0 95.5 -43t26.5 -100q-7 -52 -49 -89t-95 -37z" />
    <glyph glyph-name="Dzcaron_" unicode="&#x1c5;" horiz-adv-x="2608" 
d="M585 0h-393l27 168h348q183 0 314.5 70t212 200.5t109.5 309.5q30 180 -7.5 308.5t-142 197t-276.5 68.5h-374l28 168h363q218 0 364 -89.5t207 -256t22 -398.5q-39 -235 -142.5 -401.5t-269 -255.5t-390.5 -89zM524 1490l-247 -1490h-190l247 1490h190zM1510 0l23 134
l752 806l2 11h-599l27 167h839l-24 -143l-732 -797l-2 -11h620l-27 -167h-879zM2053 1558l115 -175l171 175h179l-2 -9l-281 -267h-171l-190 267l2 9h177z" />
    <glyph glyph-name="uni01C6" unicode="&#x1c6;" horiz-adv-x="2189" 
d="M492 -24q-183 0 -290.5 120.5t-107.5 328.5q0 132 38.5 258t112 227.5t179 161.5t239.5 60q111 0 171.5 -36.5t89 -83.5t42.5 -78h12l92 556h181l-247 -1490h-175l30 173h-19q-24 -35 -65.5 -81.5t-110 -81t-172.5 -34.5zM524 137q101 0 177 49t127 130t77 178t26 192
q0 131 -61 208t-186 77q-100 0 -176 -47.5t-127.5 -126t-78 -173t-26.5 -189.5q0 -130 60.5 -214t187.5 -84zM1091 0l23 134l752 806l2 11h-599l27 167h839l-24 -143l-732 -797l-2 -11h620l-27 -167h-879zM1634 1558l115 -175l171 175h179l-2 -9l-281 -267h-171l-190 267
l2 9h177z" />
    <glyph glyph-name="uni01C7" unicode="&#x1c7;" horiz-adv-x="2327" 
d="M87 0l247 1490h190l-219 -1322h690l-28 -168h-880zM1616 -20q-175 0 -281.5 91.5t-106.5 260.5q0 15 1.5 33.5t6 51.5t13.5 89h190q-8 -52 -12.5 -80.5t-5.5 -43t-1 -25.5q0 -102 57.5 -156t157.5 -54q112 0 194.5 70t105.5 209l177 1064h190l-177 -1064
q-35 -212 -172.5 -329t-336.5 -117z" />
    <glyph glyph-name="uni01C8" unicode="&#x1c8;" horiz-adv-x="1654" 
d="M87 0l247 1490h190l-219 -1322h690l-28 -168h-880zM1408 1118h181l-199 -1198q-17 -106 -66 -181.5t-128.5 -116t-188.5 -40.5h-36l27 166h33q77 0 121.5 44t57.5 128zM1529 1301q-51 0 -82 35t-23 84q8 50 51 84.5t94 34.5q52 0 83 -34.5t23 -84.5q-8 -49 -51 -84
t-95 -35z" />
    <glyph glyph-name="uni01C9" unicode="&#x1c9;" horiz-adv-x="992" 
d="M492 1490l-247 -1490h-180l247 1490h180zM746 1118h181l-199 -1198q-17 -106 -66 -181.5t-128.5 -116t-188.5 -40.5h-36l27 166h33q77 0 121.5 44t57.5 128zM867 1301q-51 0 -82 35t-23 84q8 50 51 84.5t94 34.5q52 0 83 -34.5t23 -84.5q-8 -49 -51 -84t-95 -35z" />
    <glyph glyph-name="uni01CA" unicode="&#x1ca;" horiz-adv-x="2712" 
d="M87 0l247 1490h218l448 -953q14 -30 38.5 -86.5t53 -132t54.5 -163.5h-21q5 86 14 163.5t19 143.5t18 114l151 914h190l-247 -1490h-219l-400 848q-25 54 -51.5 115.5t-61 148.5t-86.5 217h28q-15 -121 -26.5 -214t-20 -159t-15.5 -106l-140 -850h-191zM2001 -20
q-175 0 -281.5 91.5t-106.5 260.5q0 15 1.5 33.5t6 51.5t13.5 89h190q-8 -52 -12.5 -80.5t-5.5 -43t-1 -25.5q0 -102 57.5 -156t157.5 -54q112 0 194.5 70t105.5 209l177 1064h190l-177 -1064q-35 -212 -172.5 -329t-336.5 -117z" />
    <glyph glyph-name="uni01CB" unicode="&#x1cb;" horiz-adv-x="2039" 
d="M87 0l247 1490h218l448 -953q14 -30 38.5 -86.5t53 -132t54.5 -163.5h-21q5 86 14 163.5t19 143.5t18 114l151 914h190l-247 -1490h-219l-400 848q-25 54 -51.5 115.5t-61 148.5t-86.5 217h28q-15 -121 -26.5 -214t-20 -159t-15.5 -106l-140 -850h-191zM1793 1118h181
l-199 -1198q-17 -106 -66 -181.5t-128.5 -116t-188.5 -40.5h-36l27 166h33q77 0 121.5 44t57.5 128zM1914 1301q-51 0 -82 35t-23 84q8 50 51 84.5t94 34.5q52 0 83 -34.5t23 -84.5q-8 -49 -51 -84t-95 -35z" />
    <glyph glyph-name="uni01CC" unicode="&#x1cc;" horiz-adv-x="1707" 
d="M356 664l-111 -664h-180l186 1118h173l-44 -271l-26 6q75 152 177 215.5t227 63.5q116 0 196 -48t113.5 -143t9.5 -237l-117 -704h-180l117 701q22 131 -32 200t-167 69q-82 0 -154 -36.5t-122 -105t-66 -164.5zM1461 1118h181l-199 -1198q-17 -106 -66 -181.5
t-128.5 -116t-188.5 -40.5h-36l27 166h33q77 0 121.5 44t57.5 128zM1582 1301q-51 0 -82 35t-23 84q8 50 51 84.5t94 34.5q52 0 83 -34.5t23 -84.5q-8 -49 -51 -84t-95 -35z" />
    <glyph glyph-name="uni01CD" unicode="&#x1cd;" horiz-adv-x="1413" 
d="M-41 0l788 1490h220l301 -1490h-192l-169 884q-13 71 -33 199t-43 318h36q-81 -181 -141.5 -308t-102.5 -209l-454 -884h-210zM300 416l27 166h765l-27 -166h-765zM789 1930l115 -175l171 175h179l-2 -9l-281 -267h-171l-190 267l2 9h177z" />
    <glyph glyph-name="uni01CE" unicode="&#x1ce;" horiz-adv-x="1257" 
d="M481 -24q-139 0 -234 71.5t-133.5 202t-9.5 307.5q30 178 112 306.5t201 198.5t258 70q108 0 166 -35.5t84.5 -81t40.5 -76.5h15l29 179h181l-185 -1118h-175l28 173h-21q-25 -33 -68 -79.5t-113 -82t-176 -35.5zM537 137q102 0 180.5 54t130.5 149t72 219
q21 124 0.5 216.5t-82 144t-163.5 51.5q-107 0 -187.5 -55.5t-131 -148.5t-69.5 -208q-19 -117 1 -213t82 -152.5t167 -56.5zM649 1558l115 -175l171 175h179l-2 -9l-281 -267h-171l-190 267l2 9h177z" />
    <glyph glyph-name="uni01CF" unicode="&#x1cf;" horiz-adv-x="550" 
d="M524 1490l-247 -1490h-190l247 1490h190zM358 1930l115 -175l171 175h179l-2 -9l-281 -267h-171l-190 267l2 9h177z" />
    <glyph glyph-name="uni01D0" unicode="&#x1d0;" horiz-adv-x="497" 
d="M66 0l185 1118h180l-185 -1118h-180zM271 1558l115 -175l171 175h179l-2 -9l-281 -267h-171l-190 267l2 9h177z" />
    <glyph glyph-name="uni01D1" unicode="&#x1d1;" horiz-adv-x="1566" 
d="M699 -20q-169 0 -295 72t-195.5 206.5t-69.5 321.5q0 177 55 343.5t159 298.5t250 210t327 78q169 0 294 -72t194.5 -206t69.5 -321q0 -178 -55 -344.5t-158.5 -299t-249 -210t-326.5 -77.5zM706 156q140 0 251 64t188.5 172t118 241.5t40.5 272.5q0 140 -48.5 235.5
t-134.5 144t-198 48.5q-140 0 -251 -64t-189 -172t-119 -241t-41 -272q0 -140 49 -235.5t135.5 -144.5t198.5 -49zM867 1930l115 -175l171 175h179l-2 -9l-281 -267h-171l-190 267l2 9h177z" />
    <glyph glyph-name="uni01D2" unicode="&#x1d2;" horiz-adv-x="1229" 
d="M528 -24q-135 0 -232 56.5t-149.5 159.5t-52.5 241q0 133 41.5 258t120 224.5t190 158t251.5 58.5q135 0 233 -56t150.5 -159t52.5 -243q0 -135 -42 -260t-121.5 -224t-191 -156.5t-250.5 -57.5zM532 137q103 0 181.5 48t131.5 126.5t80 172.5t27 186q0 85 -27 153
t-84 108t-149 40q-102 0 -180 -48t-131 -127t-80 -173.5t-27 -187.5q0 -126 61 -212t197 -86zM635 1558l115 -175l171 175h179l-2 -9l-281 -267h-171l-190 267l2 9h177z" />
    <glyph glyph-name="uni01D3" unicode="&#x1d3;" horiz-adv-x="1523" 
d="M677 -24q-179 0 -301 70.5t-175.5 192.5t-28.5 275l162 976h190l-161 -974q-18 -109 15 -191t111 -127.5t195 -45.5q123 0 221 49t161.5 134t81.5 194l159 961h190l-163 -989q-25 -154 -115.5 -272.5t-229.5 -185.5t-312 -67zM845 1930l115 -175l171 175h179l-2 -9
l-281 -267h-171l-190 267l2 9h177z" />
    <glyph glyph-name="uni01D4" unicode="&#x1d4;" horiz-adv-x="1212" 
d="M443 -14q-112 0 -189.5 46t-110 140t-9.5 236l117 710h180l-114 -695q-21 -128 33.5 -201.5t172.5 -73.5q79 0 148.5 34.5t118.5 101.5t65 164l110 670h181l-185 -1118h-174l45 271h24q-77 -157 -183 -221t-230 -64zM627 1558l115 -175l171 175h179l-2 -9l-281 -267h-171
l-190 267l2 9h177z" />
    <glyph glyph-name="uni01D5" unicode="&#x1d5;" horiz-adv-x="1523" 
d="M677 -24q-179 0 -301 70.5t-175.5 192.5t-28.5 275l162 976h190l-161 -974q-18 -109 15 -191t111 -127.5t195 -45.5q123 0 221 49t161.5 134t81.5 194l159 961h190l-163 -989q-25 -154 -115.5 -272.5t-229.5 -185.5t-312 -67zM1158 1645q-49 0 -78 35t-21 84t49 83.5
t90 34.5t77.5 -34.5t20.5 -83.5t-48.5 -84t-89.5 -35zM737 1645q-49 0 -78 35t-21 84t49 83.5t90 34.5t77.5 -34.5t20.5 -83.5t-48.5 -84t-89.5 -35zM1329 2153l-24 -128h-554l24 128h554z" />
    <glyph glyph-name="uni01D6" unicode="&#x1d6;" horiz-adv-x="1212" 
d="M443 -14q-112 0 -189.5 46t-110 140t-9.5 236l117 710h180l-114 -695q-21 -128 33.5 -201.5t172.5 -73.5q79 0 148.5 34.5t118.5 101.5t65 164l110 670h181l-185 -1118h-174l45 271h24q-77 -157 -183 -221t-230 -64zM940 1273q-49 0 -78 35t-21 84t49 83.5t90 34.5
t77.5 -34.5t20.5 -83.5t-48.5 -84t-89.5 -35zM519 1273q-49 0 -78 35t-21 84t49 83.5t90 34.5t77.5 -34.5t20.5 -83.5t-48.5 -84t-89.5 -35zM1111 1781l-24 -128h-554l24 128h554z" />
    <glyph glyph-name="uni01D7" unicode="&#x1d7;" horiz-adv-x="1523" 
d="M677 -24q-179 0 -301 70.5t-175.5 192.5t-28.5 275l162 976h190l-161 -974q-18 -109 15 -191t111 -127.5t195 -45.5q123 0 221 49t161.5 134t81.5 194l159 961h190l-163 -989q-25 -154 -115.5 -272.5t-229.5 -185.5t-312 -67zM1158 1645q-49 0 -78 35t-21 84t49 83.5
t90 34.5t77.5 -34.5t20.5 -83.5t-48.5 -84t-89.5 -35zM737 1645q-49 0 -78 35t-21 84t49 83.5t90 34.5t77.5 -34.5t20.5 -83.5t-48.5 -84t-89.5 -35zM926 1987l186 276h201l-240 -276h-147z" />
    <glyph glyph-name="uni01D8" unicode="&#x1d8;" horiz-adv-x="1212" 
d="M443 -14q-112 0 -189.5 46t-110 140t-9.5 236l117 710h180l-114 -695q-21 -128 33.5 -201.5t172.5 -73.5q79 0 148.5 34.5t118.5 101.5t65 164l110 670h181l-185 -1118h-174l45 271h24q-77 -157 -183 -221t-230 -64zM940 1273q-49 0 -78 35t-21 84t49 83.5t90 34.5
t77.5 -34.5t20.5 -83.5t-48.5 -84t-89.5 -35zM519 1273q-49 0 -78 35t-21 84t49 83.5t90 34.5t77.5 -34.5t20.5 -83.5t-48.5 -84t-89.5 -35zM708 1615l186 276h201l-240 -276h-147z" />
    <glyph glyph-name="uni01D9" unicode="&#x1d9;" horiz-adv-x="1523" 
d="M677 -24q-179 0 -301 70.5t-175.5 192.5t-28.5 275l162 976h190l-161 -974q-18 -109 15 -191t111 -127.5t195 -45.5q123 0 221 49t161.5 134t81.5 194l159 961h190l-163 -989q-25 -154 -115.5 -272.5t-229.5 -185.5t-312 -67zM1158 1645q-49 0 -78 35t-21 84t49 83.5
t90 34.5t77.5 -34.5t20.5 -83.5t-48.5 -84t-89.5 -35zM737 1645q-49 0 -78 35t-21 84t49 83.5t90 34.5t77.5 -34.5t20.5 -83.5t-48.5 -84t-89.5 -35zM908 2263l115 -175l171 175h179l-2 -9l-281 -267h-171l-190 267l2 9h177z" />
    <glyph glyph-name="uni01DA" unicode="&#x1da;" horiz-adv-x="1212" 
d="M443 -14q-112 0 -189.5 46t-110 140t-9.5 236l117 710h180l-114 -695q-21 -128 33.5 -201.5t172.5 -73.5q79 0 148.5 34.5t118.5 101.5t65 164l110 670h181l-185 -1118h-174l45 271h24q-77 -157 -183 -221t-230 -64zM940 1273q-49 0 -78 35t-21 84t49 83.5t90 34.5
t77.5 -34.5t20.5 -83.5t-48.5 -84t-89.5 -35zM519 1273q-49 0 -78 35t-21 84t49 83.5t90 34.5t77.5 -34.5t20.5 -83.5t-48.5 -84t-89.5 -35zM690 1891l115 -175l171 175h179l-2 -9l-281 -267h-171l-190 267l2 9h177z" />
    <glyph glyph-name="uni01DB" unicode="&#x1db;" horiz-adv-x="1523" 
d="M677 -24q-179 0 -301 70.5t-175.5 192.5t-28.5 275l162 976h190l-161 -974q-18 -109 15 -191t111 -127.5t195 -45.5q123 0 221 49t161.5 134t81.5 194l159 961h190l-163 -989q-25 -154 -115.5 -272.5t-229.5 -185.5t-312 -67zM1158 1645q-49 0 -78 35t-21 84t49 83.5
t90 34.5t77.5 -34.5t20.5 -83.5t-48.5 -84t-89.5 -35zM737 1645q-49 0 -78 35t-21 84t49 83.5t90 34.5t77.5 -34.5t20.5 -83.5t-48.5 -84t-89.5 -35zM920 1987l-147 276h201l93 -276h-147z" />
    <glyph glyph-name="uni01DC" unicode="&#x1dc;" horiz-adv-x="1212" 
d="M443 -14q-112 0 -189.5 46t-110 140t-9.5 236l117 710h180l-114 -695q-21 -128 33.5 -201.5t172.5 -73.5q79 0 148.5 34.5t118.5 101.5t65 164l110 670h181l-185 -1118h-174l45 271h24q-77 -157 -183 -221t-230 -64zM940 1273q-49 0 -78 35t-21 84t49 83.5t90 34.5
t77.5 -34.5t20.5 -83.5t-48.5 -84t-89.5 -35zM519 1273q-49 0 -78 35t-21 84t49 83.5t90 34.5t77.5 -34.5t20.5 -83.5t-48.5 -84t-89.5 -35zM702 1615l-147 276h201l93 -276h-147z" />
    <glyph glyph-name="eturn" unicode="&#x1dd;" horiz-adv-x="1179" 
d="M644 1142q138 0 237 -54t151.5 -154.5t52.5 -242.5q0 -147 -47 -276.5t-131 -228t-194.5 -154.5t-237.5 -56q-108 0 -188 37.5t-124 106t-44 161.5q0 94 48.5 160.5t150.5 108.5t261.5 61.5t380.5 19.5l-24 -136q-183 0 -306 -10.5t-195.5 -35.5t-104 -67t-31.5 -105
q0 -64 53.5 -102.5t140.5 -38.5q113 0 192.5 54.5t129.5 140t73.5 181t23.5 178.5q0 82 -27 148.5t-88 105.5t-164 39q-106 0 -190 -46.5t-127 -126.5l-167 47q62 132 195.5 208.5t299.5 76.5z" />
    <glyph glyph-name="uni01DE" unicode="&#x1de;" horiz-adv-x="1413" 
d="M-41 0l788 1490h220l301 -1490h-192l-169 884q-13 71 -33 199t-43 318h36q-81 -181 -141.5 -308t-102.5 -209l-454 -884h-210zM300 416l27 166h765l-27 -166h-765zM1102 1645q-49 0 -78 35t-21 84t49 83.5t90 34.5t77.5 -34.5t20.5 -83.5t-48.5 -84t-89.5 -35zM681 1645
q-49 0 -78 35t-21 84t49 83.5t90 34.5t77.5 -34.5t20.5 -83.5t-48.5 -84t-89.5 -35zM1273 2153l-24 -128h-554l24 128h554z" />
    <glyph glyph-name="uni01DF" unicode="&#x1df;" horiz-adv-x="1257" 
d="M481 -24q-139 0 -234 71.5t-133.5 202t-9.5 307.5q30 178 112 306.5t201 198.5t258 70q108 0 166 -35.5t84.5 -81t40.5 -76.5h15l29 179h181l-185 -1118h-175l28 173h-21q-25 -33 -68 -79.5t-113 -82t-176 -35.5zM537 137q102 0 180.5 54t130.5 149t72 219
q21 124 0.5 216.5t-82 144t-163.5 51.5q-107 0 -187.5 -55.5t-131 -148.5t-69.5 -208q-19 -117 1 -213t82 -152.5t167 -56.5zM962 1273q-49 0 -78 35t-21 84t49 83.5t90 34.5t77.5 -34.5t20.5 -83.5t-48.5 -84t-89.5 -35zM541 1273q-49 0 -78 35t-21 84t49 83.5t90 34.5
t77.5 -34.5t20.5 -83.5t-48.5 -84t-89.5 -35zM1133 1781l-24 -128h-554l24 128h554z" />
    <glyph glyph-name="uni01E0" unicode="&#x1e0;" horiz-adv-x="1413" 
d="M-41 0l788 1490h220l301 -1490h-192l-169 884q-13 71 -33 199t-43 318h36q-81 -181 -141.5 -308t-102.5 -209l-454 -884h-210zM300 416l27 166h765l-27 -166h-765zM889 1645q-51 0 -82 35t-23 84q8 50 51 84.5t94 34.5q52 0 83 -34.5t23 -84.5q-8 -49 -51 -84t-95 -35z
M1273 2153l-24 -128h-554l24 128h554z" />
    <glyph glyph-name="uni01E1" unicode="&#x1e1;" horiz-adv-x="1257" 
d="M481 -24q-139 0 -234 71.5t-133.5 202t-9.5 307.5q30 178 112 306.5t201 198.5t258 70q108 0 166 -35.5t84.5 -81t40.5 -76.5h15l29 179h181l-185 -1118h-175l28 173h-21q-25 -33 -68 -79.5t-113 -82t-176 -35.5zM537 137q102 0 180.5 54t130.5 149t72 219
q21 124 0.5 216.5t-82 144t-163.5 51.5q-107 0 -187.5 -55.5t-131 -148.5t-69.5 -208q-19 -117 1 -213t82 -152.5t167 -56.5zM749 1273q-51 0 -82 35t-23 84q8 50 51 84.5t94 34.5q52 0 83 -34.5t23 -84.5q-8 -49 -51 -84t-95 -35zM1133 1781l-24 -128h-554l24 128h554z" />
    <glyph glyph-name="uni01E2" unicode="&#x1e2;" horiz-adv-x="2036" 
d="M-41 0l963 1490h1122l-28 -167h-716l-81 -493h669l-28 -168h-669l-82 -495h727l-28 -167h-917l219 1319h-108l-834 -1319h-209zM371 416l27 166h686l-27 -166h-686zM1820 1863l-24 -142h-554l24 142h554z" />
    <glyph glyph-name="uni01E3" unicode="&#x1e3;" horiz-adv-x="1859" 
d="M391 -16q-173 0 -262.5 92.5t-63.5 247.5q13 77 59 145.5t139 111.5t246 43q54 0 102.5 0.5t105 0.5h133.5l-12 -138q-78 0 -161 -1t-156 -1q-110 0 -187 -40t-91 -125q-15 -89 31.5 -134.5t147.5 -45.5q105 0 176.5 38.5t112.5 99.5t53 128l67 359q21 113 -26.5 166.5
t-178.5 53.5q-70 0 -127.5 -22.5t-95.5 -63.5t-53 -98l-182 2q21 101 87.5 177t167.5 118.5t225 42.5q125 0 210.5 -44.5t123.5 -124.5t20 -186l-88 -532l-17 -1q-40 -78 -109 -138.5t-167.5 -95.5t-229.5 -35zM1215 -24q-138 0 -234 53.5t-146 154.5t-50 241q0 149 46 279
t128 228.5t190.5 154t234.5 55.5q108 0 188 -37.5t124 -106t44 -161.5q0 -94 -48.5 -160.5t-150.5 -108.5t-261 -61.5t-381 -19.5l24 136q183 0 306 10.5t195.5 35.5t104 67t31.5 105q0 64 -53.5 102.5t-140.5 38.5q-93 0 -175 -47.5t-138.5 -129t-73.5 -182.5
q-11 -67 -17 -105t-8 -59t-2 -38q0 -138 70.5 -212t203.5 -74q108 0 191.5 47t125.5 126l167 -45q-62 -133 -195 -210t-300 -77zM1329 1491l-24 -142h-554l24 142h554z" />
    <glyph glyph-name="Gbar" unicode="&#x1e4;" horiz-adv-x="1527" 
d="M704 -20q-175 0 -301.5 72t-195 205.5t-68.5 318.5q0 177 54 344t156 300t247.5 211.5t327.5 78.5q120 0 219 -35.5t170.5 -100t111 -154t41.5 -197.5h-196q-11 72 -38.5 129t-71.5 98t-105 62.5t-138 21.5q-138 0 -247.5 -64t-187 -172t-118.5 -241t-41 -271
q0 -211 108 -320.5t280 -109.5q129 0 236.5 55t179.5 155t94 234l53 -17h-443l28 166h572l-28 -169q-23 -138 -85 -248.5t-155 -189t-210 -120.5t-249 -42zM789 326l22 132h646l-22 -132h-646z" />
    <glyph glyph-name="gbar" unicode="&#x1e5;" horiz-adv-x="1256" 
d="M456 -442q-129 0 -216 33.5t-139 87t-76 112.5l155 84q17 -30 45 -67.5t83 -65t152 -27.5q138 0 239 67.5t124 204.5l37 218l-16 -4q-25 -33 -66 -76t-108 -75t-172 -32q-119 0 -209.5 49.5t-141.5 144.5t-51 231q0 128 39 250.5t113 221.5t179 158t237 59q83 0 137 -22
t86.5 -55t50 -66t27.5 -55l21 5l30 179h175l-192 -1153q-24 -144 -102 -233.5t-192.5 -131.5t-248.5 -42zM531 178q103 0 178.5 45t125 119.5t73.5 165t24 182.5q0 128 -61 204.5t-186 76.5q-97 0 -173 -45t-128.5 -120.5t-79.5 -167.5t-27 -185q0 -125 63 -200t191 -75z
M679 497l22 134h646l-22 -134h-646z" />
    <glyph glyph-name="Gcaron" unicode="&#x1e6;" horiz-adv-x="1527" 
d="M704 -20q-175 0 -301.5 72t-195 205.5t-68.5 318.5q0 177 54 344t156 300t247.5 211.5t327.5 78.5q120 0 219 -35.5t170.5 -100t111 -154t41.5 -197.5h-196q-11 72 -38.5 129t-71.5 98t-105 62.5t-138 21.5q-138 0 -247.5 -64t-187 -172t-118.5 -241t-41 -271
q0 -211 108 -320.5t280 -109.5q129 0 236.5 55t179.5 155t94 234l53 -17h-443l28 166h572l-28 -169q-23 -138 -85 -248.5t-155 -189t-210 -120.5t-249 -42zM860 1930l115 -175l171 175h179l-2 -9l-281 -267h-171l-190 267l2 9h177z" />
    <glyph glyph-name="gcaron" unicode="&#x1e7;" horiz-adv-x="1256" 
d="M456 -442q-129 0 -216 33.5t-139 87t-76 112.5l155 84q17 -30 45 -67.5t83 -65t152 -27.5q138 0 239 67.5t124 204.5l37 218l-16 -4q-25 -33 -66 -76t-108 -75t-172 -32q-119 0 -209.5 49.5t-141.5 144.5t-51 231q0 128 39 250.5t113 221.5t179 158t237 59q83 0 137 -22
t86.5 -55t50 -66t27.5 -55l21 5l30 179h175l-192 -1153q-24 -144 -102 -233.5t-192.5 -131.5t-248.5 -42zM531 178q103 0 178.5 45t125 119.5t73.5 165t24 182.5q0 128 -61 204.5t-186 76.5q-97 0 -173 -45t-128.5 -120.5t-79.5 -167.5t-27 -185q0 -125 63 -200t191 -75z
M627 1558l115 -175l171 175h179l-2 -9l-281 -267h-171l-190 267l2 9h177z" />
    <glyph glyph-name="uni01E8" unicode="&#x1e8;" horiz-adv-x="1376" 
d="M288 426l24 203q63 70 124.5 134t124.5 125t128 121l525 481h258l-749 -682l-11 1zM87 0l247 1490h191l-85 -510l-57 -321l-12 -93l-93 -566h-191zM1017 0l-412 758l125 148l496 -906h-209zM787 1930l115 -175l171 175h179l-2 -9l-281 -267h-171l-190 267l2 9h177z" />
    <glyph glyph-name="uni01E9" unicode="&#x1e9;" horiz-adv-x="1125" 
d="M301 402l37 223h33l559 493h223l-605 -531h-20zM65 0l247 1490h180l-247 -1490h-180zM772 0l-338 547l150 127l419 -674h-231zM331 1930l115 -175l171 175h179l-2 -9l-281 -267h-171l-190 267l2 9h177z" />
    <glyph glyph-name="uni01EA" unicode="&#x1ea;" horiz-adv-x="1566" 
d="M699 -20q-169 0 -295 72t-195.5 206.5t-69.5 321.5q0 177 55 343.5t159 298.5t250 210t327 78q169 0 294 -72t194.5 -206t69.5 -321q0 -178 -55 -344.5t-158.5 -299t-249 -210t-326.5 -77.5zM706 156q140 0 251 64t188.5 172t118 241.5t40.5 272.5q0 140 -48.5 235.5
t-134.5 144t-198 48.5q-140 0 -251 -64t-189 -172t-119 -241t-41 -272q0 -140 49 -235.5t135.5 -144.5t198.5 -49zM679 -436q-96 0 -158 50.5t-44 148.5q15 81 70 139t135.5 106t173.5 98.5t185 115.5t170 156.5t129.5 221.5t60.5 311h87q-11 -200 -59.5 -345.5t-120.5 -247
t-156 -170.5t-167 -116t-153.5 -83.5t-116 -72t-53.5 -83.5q-6 -38 12 -58t58 -20q30 0 55 9t43 19l38 -129q-33 -17 -80 -33.5t-109 -16.5z" />
    <glyph glyph-name="uni01EB" unicode="&#x1eb;" horiz-adv-x="1229" 
d="M528 -24q-135 0 -232 56.5t-149.5 159.5t-52.5 241q0 133 41.5 258t120 224.5t190 158t251.5 58.5q135 0 233 -56t150.5 -159t52.5 -243q0 -135 -42 -260t-121.5 -224t-191 -156.5t-250.5 -57.5zM532 137q103 0 181.5 48t131.5 126.5t80 172.5t27 186q0 85 -27 153
t-84 108t-149 40q-102 0 -180 -48t-131 -127t-80 -173.5t-27 -187.5q0 -126 61 -212t197 -86zM513 -436q-100 0 -159.5 51t-43.5 144q12 71 61 123t120 96.5t150 93.5t153 112.5t128.5 152.5t75.5 215h125q-24 -144 -76.5 -242t-120.5 -164t-139.5 -110.5t-134.5 -80
t-105.5 -72.5t-50.5 -90q-6 -38 12 -58t58 -20q28 0 53 8.5t45 19.5l38 -129q-33 -17 -80 -33.5t-109 -16.5z" />
    <glyph glyph-name="uni01EC" unicode="&#x1ec;" horiz-adv-x="1566" 
d="M699 -20q-169 0 -295 72t-195.5 206.5t-69.5 321.5q0 177 55 343.5t159 298.5t250 210t327 78q169 0 294 -72t194.5 -206t69.5 -321q0 -178 -55 -344.5t-158.5 -299t-249 -210t-326.5 -77.5zM706 156q140 0 251 64t188.5 172t118 241.5t40.5 272.5q0 140 -48.5 235.5
t-134.5 144t-198 48.5q-140 0 -251 -64t-189 -172t-119 -241t-41 -272q0 -140 49 -235.5t135.5 -144.5t198.5 -49zM679 -436q-96 0 -158 50.5t-44 148.5q15 81 70 139t135.5 106t173.5 98.5t185 115.5t170 156.5t129.5 221.5t60.5 311h87q-11 -200 -59.5 -345.5t-120.5 -247
t-156 -170.5t-167 -116t-153.5 -83.5t-116 -72t-53.5 -83.5q-6 -38 12 -58t58 -20q30 0 55 9t43 19l38 -129q-33 -17 -80 -33.5t-109 -16.5zM1278 1863l-24 -142h-554l24 142h554z" />
    <glyph glyph-name="uni01ED" unicode="&#x1ed;" horiz-adv-x="1229" 
d="M528 -24q-135 0 -232 56.5t-149.5 159.5t-52.5 241q0 133 41.5 258t120 224.5t190 158t251.5 58.5q135 0 233 -56t150.5 -159t52.5 -243q0 -135 -42 -260t-121.5 -224t-191 -156.5t-250.5 -57.5zM532 137q103 0 181.5 48t131.5 126.5t80 172.5t27 186q0 85 -27 153
t-84 108t-149 40q-102 0 -180 -48t-131 -127t-80 -173.5t-27 -187.5q0 -126 61 -212t197 -86zM513 -436q-100 0 -159.5 51t-43.5 144q12 71 61 123t120 96.5t150 93.5t153 112.5t128.5 152.5t75.5 215h125q-24 -144 -76.5 -242t-120.5 -164t-139.5 -110.5t-134.5 -80
t-105.5 -72.5t-50.5 -90q-6 -38 12 -58t58 -20q28 0 53 8.5t45 19.5l38 -129q-33 -17 -80 -33.5t-109 -16.5zM1046 1491l-24 -142h-554l24 142h554z" />
    <glyph glyph-name="uni01EE" unicode="&#x1ee;" horiz-adv-x="1403" 
d="M19 67h192q-10 -100 33 -176t125 -118.5t187 -42.5q124 0 224.5 59.5t167 160.5t87.5 227q24 144 -20.5 249.5t-145 163.5t-244.5 58h-114l27 155l574 504v12h-803l29 171h1064l-23 -139l-614 -543l-2 -14q166 -7 279.5 -88t162.5 -217t19 -310q-23 -135 -85 -248
t-155 -196.5t-210 -129t-251 -45.5q-160 0 -280 64t-180.5 178.5t-43.5 264.5zM816 2116l115 -175l171 175h179l-2 -9l-281 -267h-171l-190 267l2 9h177z" />
    <glyph glyph-name="uni01EF" unicode="&#x1ef;" horiz-adv-x="1269" 
d="M492 -392q-135 0 -243.5 47t-168 136t-47.5 213h194q-4 -74 29 -125.5t96 -77.5t147 -26q90 0 169.5 30t135 90.5t70.5 151.5q14 80 -8 148.5t-93 111t-207 42.5h-148l25 151l449 439l2 12h-631l29 167h891l-24 -139l-559 -541l4 31q164 17 273.5 -37.5t158 -156
t27.5 -228.5q-21 -126 -98.5 -225.5t-199 -156.5t-273.5 -57zM654 1558l115 -175l171 175h179l-2 -9l-281 -267h-171l-190 267l2 9h177z" />
    <glyph glyph-name="uni01F0" unicode="&#x1f0;" horiz-adv-x="496" 
d="M250 1118h181l-199 -1198q-17 -106 -66 -181.5t-128.5 -116t-188.5 -40.5h-36l27 166h33q77 0 121.5 44t57.5 128zM270 1558l115 -175l171 175h179l-2 -9l-281 -267h-171l-190 267l2 9h177z" />
    <glyph glyph-name="uni01F1" unicode="&#x1f1;" horiz-adv-x="2767" 
d="M585 0h-393l27 168h348q183 0 314.5 70t212 200.5t109.5 309.5q30 180 -7.5 308.5t-142 197t-276.5 68.5h-374l28 168h363q218 0 364 -89.5t207 -256t22 -398.5q-39 -235 -142.5 -401.5t-269 -255.5t-390.5 -89zM524 1490l-247 -1490h-190l247 1490h190zM1515 0l23 134
l995 1189h-807l28 167h1037l-23 -136l-996 -1187h807l-28 -167h-1036z" />
    <glyph glyph-name="uni01F2" unicode="&#x1f2;" horiz-adv-x="2608" 
d="M585 0h-393l27 168h348q183 0 314.5 70t212 200.5t109.5 309.5q30 180 -7.5 308.5t-142 197t-276.5 68.5h-374l28 168h363q218 0 364 -89.5t207 -256t22 -398.5q-39 -235 -142.5 -401.5t-269 -255.5t-390.5 -89zM524 1490l-247 -1490h-190l247 1490h190zM1510 0l23 134
l752 806l2 11h-599l27 167h839l-24 -143l-732 -797l-2 -11h620l-27 -167h-879z" />
    <glyph glyph-name="uni01F3" unicode="&#x1f3;" horiz-adv-x="2189" 
d="M492 -24q-183 0 -290.5 120.5t-107.5 328.5q0 132 38.5 258t112 227.5t179 161.5t239.5 60q111 0 171.5 -36.5t89 -83.5t42.5 -78h12l92 556h181l-247 -1490h-175l30 173h-19q-24 -35 -65.5 -81.5t-110 -81t-172.5 -34.5zM524 137q101 0 177 49t127 130t77 178t26 192
q0 131 -61 208t-186 77q-100 0 -176 -47.5t-127.5 -126t-78 -173t-26.5 -189.5q0 -130 60.5 -214t187.5 -84zM1091 0l23 134l752 806l2 11h-599l27 167h839l-24 -143l-732 -797l-2 -11h620l-27 -167h-879z" />
    <glyph glyph-name="uni01F4" unicode="&#x1f4;" horiz-adv-x="1527" 
d="M704 -20q-175 0 -301.5 72t-195 205.5t-68.5 318.5q0 177 54 344t156 300t247.5 211.5t327.5 78.5q120 0 219 -35.5t170.5 -100t111 -154t41.5 -197.5h-196q-11 72 -38.5 129t-71.5 98t-105 62.5t-138 21.5q-138 0 -247.5 -64t-187 -172t-118.5 -241t-41 -271
q0 -211 108 -320.5t280 -109.5q129 0 236.5 55t179.5 155t94 234l53 -17h-443l28 166h572l-28 -169q-23 -138 -85 -248.5t-155 -189t-210 -120.5t-249 -42zM872 1654l186 276h201l-240 -276h-147z" />
    <glyph glyph-name="uni01F5" unicode="&#x1f5;" horiz-adv-x="1256" 
d="M456 -442q-129 0 -216 33.5t-139 87t-76 112.5l155 84q17 -30 45 -67.5t83 -65t152 -27.5q138 0 239 67.5t124 204.5l37 218l-16 -4q-25 -33 -66 -76t-108 -75t-172 -32q-119 0 -209.5 49.5t-141.5 144.5t-51 231q0 128 39 250.5t113 221.5t179 158t237 59q83 0 137 -22
t86.5 -55t50 -66t27.5 -55l21 5l30 179h175l-192 -1153q-24 -144 -102 -233.5t-192.5 -131.5t-248.5 -42zM531 178q103 0 178.5 45t125 119.5t73.5 165t24 182.5q0 128 -61 204.5t-186 76.5q-97 0 -173 -45t-128.5 -120.5t-79.5 -167.5t-27 -185q0 -125 63 -200t191 -75z
M639 1282l186 276h201l-240 -276h-147z" />
    <glyph glyph-name="uni01F6" unicode="&#x1f6;" horiz-adv-x="2290" 
d="M1562 -20q-150 0 -254.5 57.5t-150 169t-18.5 273.5l30 182h-782l-110 -662h-190l247 1490h190l-109 -660h782l109 660h192l-169 -1022q-28 -166 36.5 -240.5t203.5 -74.5q99 0 173 35.5t121.5 108.5t65.5 183l105 636h190l-107 -648q-27 -164 -105.5 -272.5t-194 -162
t-255.5 -53.5z" />
    <glyph glyph-name="uni01F7" unicode="&#x1f7;" horiz-adv-x="1301" 
d="M482 1490l-312 -1908h-216l310 1908h218zM96 -181l27 173q171 27 322.5 101t271 185t197.5 251t103 300l11 70q18 112 7.5 194.5t-48 136t-101.5 79.5t-154 26q-105 0 -181.5 -35t-129.5 -106t-89 -180l66 392q76 53 163 78.5t196 25.5q182 0 300.5 -71.5t167 -208.5
t18.5 -335l-10 -66q-29 -193 -129.5 -364.5t-254.5 -307t-346.5 -223.5t-406.5 -115z" />
    <glyph glyph-name="uni01F8" unicode="&#x1f8;" horiz-adv-x="1543" 
d="M87 0l247 1490h218l448 -953q14 -30 38.5 -86.5t53 -132t54.5 -163.5h-21q5 86 14 163.5t19 143.5t18 114l151 914h190l-247 -1490h-219l-400 848q-25 54 -51.5 115.5t-61 148.5t-86.5 217h28q-15 -121 -26.5 -214t-20 -159t-15.5 -106l-140 -850h-191zM879 1636
l-144 294h201l90 -294h-147z" />
    <glyph glyph-name="uni01F9" unicode="&#x1f9;" horiz-adv-x="1211" 
d="M356 664l-111 -664h-180l186 1118h173l-44 -271l-26 6q75 152 177 215.5t227 63.5q116 0 196 -48t113.5 -143t9.5 -237l-117 -704h-180l117 701q22 131 -32 200t-167 69q-82 0 -154 -36.5t-122 -105t-66 -164.5zM651 1264l-144 294h201l90 -294h-147z" />
    <glyph glyph-name="Aringacute" unicode="&#x1fa;" horiz-adv-x="1413" 
d="M-41 0l788 1490h220l301 -1490h-192l-169 884q-13 71 -33 199t-43 318h36q-81 -181 -141.5 -308t-102.5 -209l-454 -884h-210zM300 416l27 166h765l-27 -166h-765zM884 2089l176 180h182l-218 -180h-140zM879 1541q-76 0 -132.5 36t-83 96t-14.5 131q11 66 53 120
t104.5 86t133.5 32q77 0 133 -35.5t83 -95t15 -130.5q-11 -68 -54 -122.5t-105.5 -86t-132.5 -31.5zM889 1667q50 0 93 35t53 87q10 53 -20 90.5t-84 37.5q-52 0 -94.5 -36t-51.5 -88t21 -89t83 -37z" />
    <glyph glyph-name="aringacute" unicode="&#x1fb;" horiz-adv-x="1257" 
d="M481 -24q-139 0 -234 71.5t-133.5 202t-9.5 307.5q30 178 112 306.5t201 198.5t258 70q108 0 166 -35.5t84.5 -81t40.5 -76.5h15l29 179h181l-185 -1118h-175l28 173h-21q-25 -33 -68 -79.5t-113 -82t-176 -35.5zM537 137q102 0 180.5 54t130.5 149t72 219
q21 124 0.5 216.5t-82 144t-163.5 51.5q-107 0 -187.5 -55.5t-131 -148.5t-69.5 -208q-19 -117 1 -213t82 -152.5t167 -56.5zM744 1717l176 180h182l-218 -180h-140zM739 1169q-76 0 -132.5 36t-83 96t-14.5 131q11 66 53 120t104.5 86t133.5 32q77 0 133 -35.5t83 -95
t15 -130.5q-11 -68 -54 -122.5t-105.5 -86t-132.5 -31.5zM749 1295q50 0 93 35t53 87q10 53 -20 90.5t-84 37.5q-52 0 -94.5 -36t-51.5 -88t21 -89t83 -37z" />
    <glyph glyph-name="AEacute" unicode="&#x1fc;" horiz-adv-x="2036" 
d="M-41 0l963 1490h1122l-28 -167h-716l-81 -493h669l-28 -168h-669l-82 -495h727l-28 -167h-917l219 1319h-108l-834 -1319h-209zM371 416l27 166h686l-27 -166h-686zM1421 1654l186 276h201l-240 -276h-147z" />
    <glyph glyph-name="aeacute" unicode="&#x1fd;" horiz-adv-x="1859" 
d="M391 -16q-173 0 -262.5 92.5t-63.5 247.5q13 77 59 145.5t139 111.5t246 43q54 0 102.5 0.5t105 0.5h133.5l-12 -138q-78 0 -161 -1t-156 -1q-110 0 -187 -40t-91 -125q-15 -89 31.5 -134.5t147.5 -45.5q105 0 176.5 38.5t112.5 99.5t53 128l67 359q21 113 -26.5 166.5
t-178.5 53.5q-70 0 -127.5 -22.5t-95.5 -63.5t-53 -98l-182 2q21 101 87.5 177t167.5 118.5t225 42.5q125 0 210.5 -44.5t123.5 -124.5t20 -186l-88 -532l-17 -1q-40 -78 -109 -138.5t-167.5 -95.5t-229.5 -35zM1215 -24q-138 0 -234 53.5t-146 154.5t-50 241q0 149 46 279
t128 228.5t190.5 154t234.5 55.5q108 0 188 -37.5t124 -106t44 -161.5q0 -94 -48.5 -160.5t-150.5 -108.5t-261 -61.5t-381 -19.5l24 136q183 0 306 10.5t195.5 35.5t104 67t31.5 105q0 64 -53.5 102.5t-140.5 38.5q-93 0 -175 -47.5t-138.5 -129t-73.5 -182.5
q-11 -67 -17 -105t-8 -59t-2 -38q0 -138 70.5 -212t203.5 -74q108 0 191.5 47t125.5 126l167 -45q-62 -133 -195 -210t-300 -77zM930 1282l186 276h201l-240 -276h-147z" />
    <glyph glyph-name="Oslashacute" unicode="&#x1fe;" horiz-adv-x="1566" 
d="M699 -20q-169 0 -295 72t-195.5 206.5t-69.5 321.5q0 177 55 343.5t159 298.5t250 210t327 78q169 0 294 -72t194.5 -206t69.5 -321q0 -178 -55 -344.5t-158.5 -299t-249 -210t-326.5 -77.5zM706 156q140 0 251 64t188.5 172t118 241.5t40.5 272.5q0 140 -48.5 235.5
t-134.5 144t-198 48.5q-140 0 -251 -64t-189 -172t-119 -241t-41 -272q0 -140 49 -235.5t135.5 -144.5t198.5 -49zM230 -46l-115 90l1286 1492l114 -91zM879 1654l186 276h201l-240 -276h-147z" />
    <glyph glyph-name="oslashacute" unicode="&#x1ff;" horiz-adv-x="1229" 
d="M528 -24q-135 0 -232 56.5t-149.5 159.5t-52.5 241q0 133 41.5 258t120 224.5t190 158t251.5 58.5q135 0 233 -56t150.5 -159t52.5 -243q0 -135 -42 -260t-121.5 -224t-191 -156.5t-250.5 -57.5zM532 137q103 0 181.5 48t131.5 126.5t80 172.5t27 186q0 85 -27 153
t-84 108t-149 40q-102 0 -180 -48t-131 -127t-80 -173.5t-27 -187.5q0 -126 61 -212t197 -86zM90 -45l-92 90l1139 1118l92 -90zM647 1282l186 276h201l-240 -276h-147z" />
    <glyph glyph-name="uni0200" unicode="&#x200;" horiz-adv-x="1413" 
d="M-41 0l788 1490h220l301 -1490h-192l-169 884q-13 71 -33 199t-43 318h36q-81 -181 -141.5 -308t-102.5 -209l-454 -884h-210zM300 416l27 166h765l-27 -166h-765zM975 1636l-120 294h200l68 -294h-148zM648 1636l-172 294h201l119 -294h-148z" />
    <glyph glyph-name="uni0201" unicode="&#x201;" horiz-adv-x="1257" 
d="M481 -24q-139 0 -234 71.5t-133.5 202t-9.5 307.5q30 178 112 306.5t201 198.5t258 70q108 0 166 -35.5t84.5 -81t40.5 -76.5h15l29 179h181l-185 -1118h-175l28 173h-21q-25 -33 -68 -79.5t-113 -82t-176 -35.5zM537 137q102 0 180.5 54t130.5 149t72 219
q21 124 0.5 216.5t-82 144t-163.5 51.5q-107 0 -187.5 -55.5t-131 -148.5t-69.5 -208q-19 -117 1 -213t82 -152.5t167 -56.5zM835 1264l-120 294h200l68 -294h-148zM508 1264l-172 294h201l119 -294h-148z" />
    <glyph glyph-name="uni0202" unicode="&#x202;" horiz-adv-x="1413" 
d="M-41 0l788 1490h220l301 -1490h-192l-169 884q-13 71 -33 199t-43 318h36q-81 -181 -141.5 -308t-102.5 -209l-454 -884h-210zM300 416l27 166h765l-27 -166h-765zM937 1955q88 0 150.5 -40t90.5 -108.5t14 -152.5h-132q13 74 -31.5 120.5t-113.5 46.5t-128.5 -46.5
t-72.5 -120.5h-132q14 84 65 152.5t126.5 108.5t163.5 40z" />
    <glyph glyph-name="uni0203" unicode="&#x203;" horiz-adv-x="1257" 
d="M481 -24q-139 0 -234 71.5t-133.5 202t-9.5 307.5q30 178 112 306.5t201 198.5t258 70q108 0 166 -35.5t84.5 -81t40.5 -76.5h15l29 179h181l-185 -1118h-175l28 173h-21q-25 -33 -68 -79.5t-113 -82t-176 -35.5zM537 137q102 0 180.5 54t130.5 149t72 219
q21 124 0.5 216.5t-82 144t-163.5 51.5q-107 0 -187.5 -55.5t-131 -148.5t-69.5 -208q-19 -117 1 -213t82 -152.5t167 -56.5zM797 1583q88 0 150.5 -40t90.5 -108.5t14 -152.5h-132q13 74 -31.5 120.5t-113.5 46.5t-128.5 -46.5t-72.5 -120.5h-132q14 84 65 152.5
t126.5 108.5t163.5 40z" />
    <glyph glyph-name="uni0204" unicode="&#x204;" horiz-adv-x="1232" 
d="M87 0l247 1490h908l-28 -167h-718l-80 -487h669l-28 -167h-670l-83 -502h727l-27 -167h-917zM908 1636l-120 294h200l68 -294h-148zM581 1636l-172 294h201l119 -294h-148z" />
    <glyph glyph-name="uni0205" unicode="&#x205;" horiz-adv-x="1179" 
d="M535 -24q-138 0 -236.5 54t-151.5 155t-53 242q0 147 47 276.5t131 228t194.5 154.5t237.5 56q108 0 188 -37.5t124 -106t44 -161.5q0 -94 -48.5 -160.5t-150.5 -108.5t-261.5 -61.5t-380.5 -19.5l24 136q183 0 306 10.5t195.5 35.5t104 67t31.5 105q0 64 -53.5 102.5
t-140.5 38.5q-113 0 -192.5 -54.5t-129.5 -140t-73.5 -181t-23.5 -178.5q0 -82 27 -148.5t88.5 -105.5t163.5 -39q107 0 190.5 46.5t126.5 126.5l167 -47q-62 -132 -195.5 -208.5t-299.5 -76.5zM820 1264l-120 294h200l68 -294h-148zM493 1264l-172 294h201l119 -294h-148z
" />
    <glyph glyph-name="uni0206" unicode="&#x206;" horiz-adv-x="1232" 
d="M87 0l247 1490h908l-28 -167h-718l-80 -487h669l-28 -167h-670l-83 -502h727l-27 -167h-917zM870 1955q88 0 150.5 -40t90.5 -108.5t14 -152.5h-132q13 74 -31.5 120.5t-113.5 46.5t-128.5 -46.5t-72.5 -120.5h-132q14 84 65 152.5t126.5 108.5t163.5 40z" />
    <glyph glyph-name="uni0207" unicode="&#x207;" horiz-adv-x="1179" 
d="M535 -24q-138 0 -236.5 54t-151.5 155t-53 242q0 147 47 276.5t131 228t194.5 154.5t237.5 56q108 0 188 -37.5t124 -106t44 -161.5q0 -94 -48.5 -160.5t-150.5 -108.5t-261.5 -61.5t-380.5 -19.5l24 136q183 0 306 10.5t195.5 35.5t104 67t31.5 105q0 64 -53.5 102.5
t-140.5 38.5q-113 0 -192.5 -54.5t-129.5 -140t-73.5 -181t-23.5 -178.5q0 -82 27 -148.5t88.5 -105.5t163.5 -39q107 0 190.5 46.5t126.5 126.5l167 -47q-62 -132 -195.5 -208.5t-299.5 -76.5zM782 1583q88 0 150.5 -40t90.5 -108.5t14 -152.5h-132q13 74 -31.5 120.5
t-113.5 46.5t-128.5 -46.5t-72.5 -120.5h-132q14 84 65 152.5t126.5 108.5t163.5 40z" />
    <glyph glyph-name="uni0208" unicode="&#x208;" horiz-adv-x="550" 
d="M524 1490l-247 -1490h-190l247 1490h190zM544 1636l-120 294h200l68 -294h-148zM217 1636l-172 294h201l119 -294h-148z" />
    <glyph glyph-name="uni0209" unicode="&#x209;" horiz-adv-x="497" 
d="M66 0l185 1118h180l-185 -1118h-180zM457 1264l-120 294h200l68 -294h-148zM130 1264l-172 294h201l119 -294h-148z" />
    <glyph glyph-name="uni020A" unicode="&#x20a;" horiz-adv-x="550" 
d="M524 1490l-247 -1490h-190l247 1490h190zM506 1955q88 0 150.5 -40t90.5 -108.5t14 -152.5h-132q13 74 -31.5 120.5t-113.5 46.5t-128.5 -46.5t-72.5 -120.5h-132q14 84 65 152.5t126.5 108.5t163.5 40z" />
    <glyph glyph-name="uni020B" unicode="&#x20b;" horiz-adv-x="497" 
d="M66 0l185 1118h180l-185 -1118h-180zM419 1583q88 0 150.5 -40t90.5 -108.5t14 -152.5h-132q13 74 -31.5 120.5t-113.5 46.5t-128.5 -46.5t-72.5 -120.5h-132q14 84 65 152.5t126.5 108.5t163.5 40z" />
    <glyph glyph-name="uni020C" unicode="&#x20c;" horiz-adv-x="1566" 
d="M699 -20q-169 0 -295 72t-195.5 206.5t-69.5 321.5q0 177 55 343.5t159 298.5t250 210t327 78q169 0 294 -72t194.5 -206t69.5 -321q0 -178 -55 -344.5t-158.5 -299t-249 -210t-326.5 -77.5zM706 156q140 0 251 64t188.5 172t118 241.5t40.5 272.5q0 140 -48.5 235.5
t-134.5 144t-198 48.5q-140 0 -251 -64t-189 -172t-119 -241t-41 -272q0 -140 49 -235.5t135.5 -144.5t198.5 -49zM1053 1636l-120 294h200l68 -294h-148zM726 1636l-172 294h201l119 -294h-148z" />
    <glyph glyph-name="uni020D" unicode="&#x20d;" horiz-adv-x="1229" 
d="M528 -24q-135 0 -232 56.5t-149.5 159.5t-52.5 241q0 133 41.5 258t120 224.5t190 158t251.5 58.5q135 0 233 -56t150.5 -159t52.5 -243q0 -135 -42 -260t-121.5 -224t-191 -156.5t-250.5 -57.5zM532 137q103 0 181.5 48t131.5 126.5t80 172.5t27 186q0 85 -27 153
t-84 108t-149 40q-102 0 -180 -48t-131 -127t-80 -173.5t-27 -187.5q0 -126 61 -212t197 -86zM821 1264l-120 294h200l68 -294h-148zM494 1264l-172 294h201l119 -294h-148z" />
    <glyph glyph-name="uni020E" unicode="&#x20e;" horiz-adv-x="1566" 
d="M699 -20q-169 0 -295 72t-195.5 206.5t-69.5 321.5q0 177 55 343.5t159 298.5t250 210t327 78q169 0 294 -72t194.5 -206t69.5 -321q0 -178 -55 -344.5t-158.5 -299t-249 -210t-326.5 -77.5zM706 156q140 0 251 64t188.5 172t118 241.5t40.5 272.5q0 140 -48.5 235.5
t-134.5 144t-198 48.5q-140 0 -251 -64t-189 -172t-119 -241t-41 -272q0 -140 49 -235.5t135.5 -144.5t198.5 -49zM1015 1955q88 0 150.5 -40t90.5 -108.5t14 -152.5h-132q13 74 -31.5 120.5t-113.5 46.5t-128.5 -46.5t-72.5 -120.5h-132q14 84 65 152.5t126.5 108.5
t163.5 40z" />
    <glyph glyph-name="uni020F" unicode="&#x20f;" horiz-adv-x="1229" 
d="M528 -24q-135 0 -232 56.5t-149.5 159.5t-52.5 241q0 133 41.5 258t120 224.5t190 158t251.5 58.5q135 0 233 -56t150.5 -159t52.5 -243q0 -135 -42 -260t-121.5 -224t-191 -156.5t-250.5 -57.5zM532 137q103 0 181.5 48t131.5 126.5t80 172.5t27 186q0 85 -27 153
t-84 108t-149 40q-102 0 -180 -48t-131 -127t-80 -173.5t-27 -187.5q0 -126 61 -212t197 -86zM783 1583q88 0 150.5 -40t90.5 -108.5t14 -152.5h-132q13 74 -31.5 120.5t-113.5 46.5t-128.5 -46.5t-72.5 -120.5h-132q14 84 65 152.5t126.5 108.5t163.5 40z" />
    <glyph glyph-name="uni0210" unicode="&#x210;" horiz-adv-x="1318" 
d="M87 0l247 1490h510q176 0 278.5 -60t139 -164t14.5 -236t-93 -234t-193 -160t-296 -58h-405l28 169h395q119 0 197 34.5t121 98.5t57 150q23 139 -43 216t-238 77h-310l-219 -1323h-190zM943 0l-249 671h214l255 -671h-220zM920 1636l-120 294h200l68 -294h-148z
M593 1636l-172 294h201l119 -294h-148z" />
    <glyph glyph-name="uni0211" unicode="&#x211;" horiz-adv-x="772" 
d="M66 0l185 1118h174l-28 -172h12q44 85 132.5 136.5t188.5 51.5q20 0 47 -1t43 -2l-30 -181q-12 2 -42.5 6t-63.5 4q-80 0 -149 -33.5t-114.5 -92t-58.5 -134.5l-116 -700h-180zM635 1264l-120 294h200l68 -294h-148zM308 1264l-172 294h201l119 -294h-148z" />
    <glyph glyph-name="uni0212" unicode="&#x212;" horiz-adv-x="1318" 
d="M87 0l247 1490h510q176 0 278.5 -60t139 -164t14.5 -236t-93 -234t-193 -160t-296 -58h-405l28 169h395q119 0 197 34.5t121 98.5t57 150q23 139 -43 216t-238 77h-310l-219 -1323h-190zM943 0l-249 671h214l255 -671h-220zM882 1955q88 0 150.5 -40t90.5 -108.5
t14 -152.5h-132q13 74 -31.5 120.5t-113.5 46.5t-128.5 -46.5t-72.5 -120.5h-132q14 84 65 152.5t126.5 108.5t163.5 40z" />
    <glyph glyph-name="uni0213" unicode="&#x213;" horiz-adv-x="772" 
d="M66 0l185 1118h174l-28 -172h12q44 85 132.5 136.5t188.5 51.5q20 0 47 -1t43 -2l-30 -181q-12 2 -42.5 6t-63.5 4q-80 0 -149 -33.5t-114.5 -92t-58.5 -134.5l-116 -700h-180zM597 1583q88 0 150.5 -40t90.5 -108.5t14 -152.5h-132q13 74 -31.5 120.5t-113.5 46.5
t-128.5 -46.5t-72.5 -120.5h-132q14 84 65 152.5t126.5 108.5t163.5 40z" />
    <glyph glyph-name="uni0214" unicode="&#x214;" horiz-adv-x="1523" 
d="M677 -24q-179 0 -301 70.5t-175.5 192.5t-28.5 275l162 976h190l-161 -974q-18 -109 15 -191t111 -127.5t195 -45.5q123 0 221 49t161.5 134t81.5 194l159 961h190l-163 -989q-25 -154 -115.5 -272.5t-229.5 -185.5t-312 -67zM1031 1636l-120 294h200l68 -294h-148z
M704 1636l-172 294h201l119 -294h-148z" />
    <glyph glyph-name="uni0215" unicode="&#x215;" horiz-adv-x="1212" 
d="M443 -14q-112 0 -189.5 46t-110 140t-9.5 236l117 710h180l-114 -695q-21 -128 33.5 -201.5t172.5 -73.5q79 0 148.5 34.5t118.5 101.5t65 164l110 670h181l-185 -1118h-174l45 271h24q-77 -157 -183 -221t-230 -64zM813 1264l-120 294h200l68 -294h-148zM486 1264
l-172 294h201l119 -294h-148z" />
    <glyph glyph-name="uni0216" unicode="&#x216;" horiz-adv-x="1523" 
d="M677 -24q-179 0 -301 70.5t-175.5 192.5t-28.5 275l162 976h190l-161 -974q-18 -109 15 -191t111 -127.5t195 -45.5q123 0 221 49t161.5 134t81.5 194l159 961h190l-163 -989q-25 -154 -115.5 -272.5t-229.5 -185.5t-312 -67zM993 1955q88 0 150.5 -40t90.5 -108.5
t14 -152.5h-132q13 74 -31.5 120.5t-113.5 46.5t-128.5 -46.5t-72.5 -120.5h-132q14 84 65 152.5t126.5 108.5t163.5 40z" />
    <glyph glyph-name="uni0217" unicode="&#x217;" horiz-adv-x="1212" 
d="M443 -14q-112 0 -189.5 46t-110 140t-9.5 236l117 710h180l-114 -695q-21 -128 33.5 -201.5t172.5 -73.5q79 0 148.5 34.5t118.5 101.5t65 164l110 670h181l-185 -1118h-174l45 271h24q-77 -157 -183 -221t-230 -64zM775 1583q88 0 150.5 -40t90.5 -108.5t14 -152.5h-132
q13 74 -31.5 120.5t-113.5 46.5t-128.5 -46.5t-72.5 -120.5h-132q14 84 65 152.5t126.5 108.5t163.5 40z" />
    <glyph glyph-name="uni0218" unicode="&#x218;" horiz-adv-x="1312" 
d="M575 -26q-160 0 -274 51.5t-170 145.5t-44 219h195q-6 -84 34 -138.5t111.5 -81t159.5 -26.5q101 0 187 33t143 92.5t70 139.5q12 72 -20.5 116.5t-94.5 73.5t-140 52l-172 51q-160 47 -250.5 139t-65.5 248q20 126 99.5 221t200.5 147.5t266 52.5t253.5 -51.5t164 -141
t40.5 -203.5h-185q5 108 -76 168t-215 60q-97 0 -174 -31t-126 -85.5t-61 -123.5q-13 -78 26.5 -126t102 -74.5t115.5 -42.5l142 -41q56 -16 123.5 -43.5t126.5 -73.5t90 -118t14 -177q-20 -122 -95.5 -220t-201.5 -155t-299 -57zM307 -493l144 375h185l-189 -375h-140z" />
    <glyph glyph-name="uni0219" unicode="&#x219;" horiz-adv-x="1080" 
d="M451 -24q-112 0 -195.5 32t-133 93t-59.5 149q-1 7 -1.5 13.5t-0.5 13.5l174 29q8 -92 65 -132t154 -40q81 0 145 25t104 66t48 90q8 53 -24 88.5t-111 54.5l-179 44q-146 36 -209.5 115t-43.5 201q16 93 80 164t161.5 110.5t213.5 39.5q161 0 245.5 -65.5t111.5 -167.5
q3 -10 5.5 -20.5t3.5 -21.5l-165 -30q-13 60 -56.5 106t-147.5 46q-69 0 -128 -23t-97.5 -62t-46.5 -89q-10 -58 27 -92t131 -57l162 -40q146 -36 209 -115t43 -198q-12 -71 -53 -131t-105.5 -104t-147.5 -68t-179 -24zM193 -493l144 375h185l-189 -375h-140z" />
    <glyph glyph-name="uni021A.1" unicode="&#x21a;" horiz-adv-x="1324" 
d="M226 1323l28 167h1126l-28 -167h-467l-219 -1323h-190l219 1323h-469zM315 -493l144 375h185l-189 -375h-140z" />
    <glyph glyph-name="uni021B" unicode="&#x21b;" horiz-adv-x="672" 
d="M691 1118l-25 -154h-578l25 154h578zM326 1384h180l-181 -1094q-13 -77 13 -110.5t95 -33.5q17 0 44 4t50 8l11 -152q-27 -9 -63 -14.5t-73 -5.5q-147 0 -214.5 77t-45.5 213zM29 -493l144 375h185l-189 -375h-140z" />
    <glyph glyph-name="uni021C" unicode="&#x21c;" horiz-adv-x="1297" 
d="M188 337l27 156q183 53 325 110t242.5 124.5t159.5 149.5t76 184q22 131 -43.5 203t-204.5 72q-92 0 -162.5 -29.5t-114 -81.5t-54.5 -120h-215q20 124 99.5 214.5t202.5 140.5t273 50q145 0 252 -50t158 -146.5t25 -238.5q-24 -133 -111.5 -248.5t-226.5 -210t-319 -165
t-389 -114.5zM812 642l120 119q83 -29 135 -85.5t69.5 -145t-4.5 -212.5q-31 -173 -122 -298t-232 -212t-323 -145t-395 -99l29 172q179 35 322.5 82.5t249 117t170.5 168.5t88 236q22 131 -4 202t-103 100z" />
    <glyph glyph-name="uni021D" unicode="&#x21d;" horiz-adv-x="1110" 
d="M157 206l27 153q179 42 308 104.5t204 143.5t90 176q14 86 -29.5 135t-141.5 49q-65 0 -116.5 -22.5t-84.5 -64.5t-43 -101h-206q18 107 80 186.5t162.5 123t232.5 43.5q183 0 282.5 -91t73.5 -247q-22 -138 -133.5 -255.5t-292.5 -203.5t-413 -129zM621 450l124 104
q105 -43 150 -138.5t18 -245.5q-46 -254 -261.5 -404.5t-599.5 -201.5l27 161q207 46 338.5 108.5t201 150t89.5 207.5q16 95 -6 164t-81 95z" />
    <glyph glyph-name="uni021E" unicode="&#x21e;" horiz-adv-x="1522" 
d="M87 0l247 1490h190l-107 -644h782l107 644h190l-247 -1490h-190l113 678h-783l-112 -678h-190zM843 1930l115 -175l171 175h179l-2 -9l-281 -267h-171l-190 267l2 9h177z" />
    <glyph glyph-name="uni021F" unicode="&#x21f;" horiz-adv-x="1211" 
d="M356 670l-111 -670h-180l247 1490h180l-107 -643h-31q52 105 114.5 167.5t135.5 90t156 27.5q113 0 193 -46.5t114.5 -140t10.5 -235.5l-118 -710h-181l116 695q22 131 -35 203t-173 72q-79 0 -148.5 -35t-118 -101.5t-64.5 -163.5zM331 1930l115 -175l171 175h179l-2 -9
l-281 -267h-171l-190 267l2 9h177z" />
    <glyph glyph-name="uni0220" unicode="&#x220;" horiz-adv-x="1296" 
d="M1019 -416h-210l237 1437q27 164 -45.5 240.5t-239.5 76.5q-109 0 -207 -31.5t-178 -83.5l28 169q50 32 114 59t137.5 43t151.5 16q140 0 251 -54.5t167 -163.5t29 -271zM480 1490l-248 -1490h-206l248 1490h206z" />
    <glyph glyph-name="uni0221" unicode="&#x221;" horiz-adv-x="1575" 
d="M1070 -418q-115 0 -176.5 47.5t-80 121t-6.5 149.5l56 342h181l-60 -362q-12 -73 23 -110t88 -37q50 0 87.5 32t45.5 81q7 41 -11.5 73t-65.5 39q-33 6 -65 -1t-62.5 -23.5t-60.5 -42.5l-321 -275l-94 119l272 234q80 69 173.5 106t176.5 37q127 0 194.5 -74t48.5 -191
t-111 -191t-232 -74zM492 -24q-183 0 -290.5 120.5t-107.5 328.5q0 132 38.5 258t112 227.5t179 161.5t239.5 60q111 0 171.5 -36.5t89 -83.5t42.5 -78h12l92 556h181l-247 -1490h-175l30 173h-19q-24 -35 -65.5 -81.5t-110 -81t-172.5 -34.5zM524 137q101 0 177 49t127 130
t77 178t26 192q0 131 -61 208t-186 77q-100 0 -176 -47.5t-127.5 -126t-78 -173t-26.5 -189.5q0 -130 60.5 -214t187.5 -84z" />
    <glyph glyph-name="uni0222" unicode="&#x222;" horiz-adv-x="1294" 
d="M690 885h24q153 0 269 -48.5t174.5 -146t36.5 -243.5q-23 -156 -113 -259.5t-224.5 -155.5t-293.5 -52h-24q-155 0 -272 50t-174 151.5t-31 256.5q25 149 115.5 248t224 149t288.5 50zM687 722h-24q-156 0 -259.5 -71t-127.5 -217q-23 -141 56 -208.5t236 -67.5h24
q155 0 259 67.5t127 214.5q23 143 -58 212.5t-233 69.5zM682 901h41q94 0 171.5 16t130 65t67.5 147q14 90 -22 142t-126 75l27 164q110 -5 193 -47.5t123 -124.5t20 -208q-24 -150 -113.5 -235.5t-219.5 -121t-278 -35.5h-41q-111 0 -206.5 19.5t-163 64.5t-98 120.5
t-11.5 187.5q21 126 88.5 208t165 124.5t207.5 47.5l-27 -164q-95 -22 -149.5 -73.5t-70.5 -146.5q-16 -97 20.5 -145t108.5 -64t163 -16z" />
    <glyph glyph-name="uni0223" unicode="&#x223;" horiz-adv-x="1294" 
d="M687 880h24q156 0 272.5 -49t173 -147.5t31.5 -246.5q-26 -154 -115.5 -255.5t-221.5 -151.5t-288 -50h-24q-153 0 -270 49.5t-174 150.5t-31 257q26 150 115.5 248.5t222 147t285.5 47.5zM686 725h-22q-157 0 -263 -73.5t-129 -218.5q-22 -145 59.5 -216t234.5 -71h24
q152 0 259 72t131 219q23 142 -58 214.5t-236 73.5zM723 891q92 0 171 21.5t133 76.5t70 154q17 104 -19 163t-126 96l27 154q109 -3 191 -52t120 -140.5t15 -222.5q-25 -148 -114.5 -237t-219 -128t-275.5 -39h-41q-147 0 -263.5 39.5t-176 129t-35.5 237.5
q22 131 90 221.5t166 139t209 52.5l-27 -154q-94 -35 -152 -93t-76 -165q-17 -101 21 -156t111 -76t160 -21h41z" />
    <glyph glyph-name="uni0224" unicode="&#x224;" horiz-adv-x="1290" 
d="M610 -418l26 159q16 -3 31.5 -4t26.5 -1q80 0 117 23.5t46 77.5l27 163h190l-29 -171q-22 -128 -109 -192t-224 -64q-33 0 -60.5 2.5t-41.5 6.5zM38 0l23 134l995 1189h-807l28 167h1037l-23 -136l-996 -1187h807l-28 -167h-1036z" />
    <glyph glyph-name="uni0225" unicode="&#x225;" horiz-adv-x="1131" 
d="M744 -235l10 59q12 71 -7 123.5t-106 52.5h-608l23 134l760 806l2 11h-607l27 167h839l-24 -143l-740 -797l-2 -11h361q140 0 206.5 -84t45.5 -217l-16 -101h-164z" />
    <glyph glyph-name="uni0226" unicode="&#x226;" horiz-adv-x="1413" 
d="M-41 0l788 1490h220l301 -1490h-192l-169 884q-13 71 -33 199t-43 318h36q-81 -181 -141.5 -308t-102.5 -209l-454 -884h-210zM300 416l27 166h765l-27 -166h-765zM890 1673q-51 0 -82 35t-23 84q8 50 51 84.5t94 34.5q52 0 83 -34.5t23 -84.5q-8 -49 -51 -84t-95 -35z
" />
    <glyph glyph-name="uni0227" unicode="&#x227;" horiz-adv-x="1257" 
d="M481 -24q-139 0 -234 71.5t-133.5 202t-9.5 307.5q30 178 112 306.5t201 198.5t258 70q108 0 166 -35.5t84.5 -81t40.5 -76.5h15l29 179h181l-185 -1118h-175l28 173h-21q-25 -33 -68 -79.5t-113 -82t-176 -35.5zM537 137q102 0 180.5 54t130.5 149t72 219
q21 124 0.5 216.5t-82 144t-163.5 51.5q-107 0 -187.5 -55.5t-131 -148.5t-69.5 -208q-19 -117 1 -213t82 -152.5t167 -56.5zM750 1301q-51 0 -82 35t-23 84q8 50 51 84.5t94 34.5q52 0 83 -34.5t23 -84.5q-8 -49 -51 -84t-95 -35z" />
    <glyph glyph-name="uni0228" unicode="&#x228;" horiz-adv-x="1232" 
d="M87 0l247 1490h908l-28 -167h-718l-80 -487h669l-28 -167h-670l-83 -502h727l-27 -167h-917zM366 -418l17 105h118q55 0 79 14.5t30 50.5t-12 51t-75 15h-82l68 230h95l-8 -48l-14 -86q95 -4 135 -41.5t27 -117.5q-14 -89 -75 -131t-184 -42h-119z" />
    <glyph glyph-name="uni0229" unicode="&#x229;" horiz-adv-x="1179" 
d="M535 -24q-138 0 -236.5 54t-151.5 155t-53 242q0 147 47 276.5t131 228t194.5 154.5t237.5 56q108 0 188 -37.5t124 -106t44 -161.5q0 -94 -48.5 -160.5t-150.5 -108.5t-261.5 -61.5t-380.5 -19.5l24 136q183 0 306 10.5t195.5 35.5t104 67t31.5 105q0 64 -53.5 102.5
t-140.5 38.5q-113 0 -192.5 -54.5t-129.5 -140t-73.5 -181t-23.5 -178.5q0 -82 27 -148.5t88.5 -105.5t163.5 -39q107 0 190.5 46.5t126.5 126.5l167 -47q-62 -132 -195.5 -208.5t-299.5 -76.5zM336 -418l17 105h118q55 0 79 14.5t30 50.5t-12 51t-75 15h-82l68 230h95
l-8 -48l-14 -86q95 -4 135 -41.5t27 -117.5q-14 -89 -75 -131t-184 -42h-119z" />
    <glyph glyph-name="uni022A" unicode="&#x22a;" horiz-adv-x="1566" 
d="M699 -20q-169 0 -295 72t-195.5 206.5t-69.5 321.5q0 177 55 343.5t159 298.5t250 210t327 78q169 0 294 -72t194.5 -206t69.5 -321q0 -178 -55 -344.5t-158.5 -299t-249 -210t-326.5 -77.5zM706 156q140 0 251 64t188.5 172t118 241.5t40.5 272.5q0 140 -48.5 235.5
t-134.5 144t-198 48.5q-140 0 -251 -64t-189 -172t-119 -241t-41 -272q0 -140 49 -235.5t135.5 -144.5t198.5 -49zM1180 1645q-49 0 -78 35t-21 84t49 83.5t90 34.5t77.5 -34.5t20.5 -83.5t-48.5 -84t-89.5 -35zM759 1645q-49 0 -78 35t-21 84t49 83.5t90 34.5t77.5 -34.5
t20.5 -83.5t-48.5 -84t-89.5 -35zM1351 2153l-24 -128h-554l24 128h554z" />
    <glyph glyph-name="uni022B" unicode="&#x22b;" horiz-adv-x="1229" 
d="M528 -24q-135 0 -232 56.5t-149.5 159.5t-52.5 241q0 133 41.5 258t120 224.5t190 158t251.5 58.5q135 0 233 -56t150.5 -159t52.5 -243q0 -135 -42 -260t-121.5 -224t-191 -156.5t-250.5 -57.5zM532 137q103 0 181.5 48t131.5 126.5t80 172.5t27 186q0 85 -27 153
t-84 108t-149 40q-102 0 -180 -48t-131 -127t-80 -173.5t-27 -187.5q0 -126 61 -212t197 -86zM948 1273q-49 0 -78 35t-21 84t49 83.5t90 34.5t77.5 -34.5t20.5 -83.5t-48.5 -84t-89.5 -35zM527 1273q-49 0 -78 35t-21 84t49 83.5t90 34.5t77.5 -34.5t20.5 -83.5t-48.5 -84
t-89.5 -35zM1119 1781l-24 -128h-554l24 128h554z" />
    <glyph glyph-name="uni022C" unicode="&#x22c;" horiz-adv-x="1566" 
d="M699 -20q-169 0 -295 72t-195.5 206.5t-69.5 321.5q0 177 55 343.5t159 298.5t250 210t327 78q169 0 294 -72t194.5 -206t69.5 -321q0 -178 -55 -344.5t-158.5 -299t-249 -210t-326.5 -77.5zM706 156q140 0 251 64t188.5 172t118 241.5t40.5 272.5q0 140 -48.5 235.5
t-134.5 144t-198 48.5q-140 0 -251 -64t-189 -172t-119 -241t-41 -272q0 -140 49 -235.5t135.5 -144.5t198.5 -49zM1103 1658q-37 0 -70.5 12.5t-62.5 29t-53 29t-43 12.5q-28 0 -44.5 -25.5t-22.5 -53.5h-126q19 92 68.5 150t128.5 58q39 0 70 -13t57.5 -29.5t50.5 -29.5
t49 -13q26 0 41.5 19.5t27.5 61.5h123q-19 -97 -70.5 -152.5t-123.5 -55.5zM1351 2153l-24 -128h-554l24 128h554z" />
    <glyph glyph-name="uni022D" unicode="&#x22d;" horiz-adv-x="1229" 
d="M528 -24q-135 0 -232 56.5t-149.5 159.5t-52.5 241q0 133 41.5 258t120 224.5t190 158t251.5 58.5q135 0 233 -56t150.5 -159t52.5 -243q0 -135 -42 -260t-121.5 -224t-191 -156.5t-250.5 -57.5zM532 137q103 0 181.5 48t131.5 126.5t80 172.5t27 186q0 85 -27 153
t-84 108t-149 40q-102 0 -180 -48t-131 -127t-80 -173.5t-27 -187.5q0 -126 61 -212t197 -86zM871 1286q-37 0 -70.5 12.5t-62.5 29t-53 29t-43 12.5q-28 0 -44.5 -25.5t-22.5 -53.5h-126q19 92 68.5 150t128.5 58q39 0 70 -13t57.5 -29.5t50.5 -29.5t49 -13q26 0 41.5 19.5
t27.5 61.5h123q-19 -97 -70.5 -152.5t-123.5 -55.5zM1119 1781l-24 -128h-554l24 128h554z" />
    <glyph glyph-name="uni022E" unicode="&#x22e;" horiz-adv-x="1566" 
d="M699 -20q-169 0 -295 72t-195.5 206.5t-69.5 321.5q0 177 55 343.5t159 298.5t250 210t327 78q169 0 294 -72t194.5 -206t69.5 -321q0 -178 -55 -344.5t-158.5 -299t-249 -210t-326.5 -77.5zM706 156q140 0 251 64t188.5 172t118 241.5t40.5 272.5q0 140 -48.5 235.5
t-134.5 144t-198 48.5q-140 0 -251 -64t-189 -172t-119 -241t-41 -272q0 -140 49 -235.5t135.5 -144.5t198.5 -49zM968 1673q-51 0 -82 35t-23 84q8 50 51 84.5t94 34.5q52 0 83 -34.5t23 -84.5q-8 -49 -51 -84t-95 -35z" />
    <glyph glyph-name="uni022F" unicode="&#x22f;" horiz-adv-x="1229" 
d="M528 -24q-135 0 -232 56.5t-149.5 159.5t-52.5 241q0 133 41.5 258t120 224.5t190 158t251.5 58.5q135 0 233 -56t150.5 -159t52.5 -243q0 -135 -42 -260t-121.5 -224t-191 -156.5t-250.5 -57.5zM532 137q103 0 181.5 48t131.5 126.5t80 172.5t27 186q0 85 -27 153
t-84 108t-149 40q-102 0 -180 -48t-131 -127t-80 -173.5t-27 -187.5q0 -126 61 -212t197 -86zM736 1301q-51 0 -82 35t-23 84q8 50 51 84.5t94 34.5q52 0 83 -34.5t23 -84.5q-8 -49 -51 -84t-95 -35z" />
    <glyph glyph-name="uni0230" unicode="&#x230;" horiz-adv-x="1566" 
d="M699 -20q-169 0 -295 72t-195.5 206.5t-69.5 321.5q0 177 55 343.5t159 298.5t250 210t327 78q169 0 294 -72t194.5 -206t69.5 -321q0 -178 -55 -344.5t-158.5 -299t-249 -210t-326.5 -77.5zM706 156q140 0 251 64t188.5 172t118 241.5t40.5 272.5q0 140 -48.5 235.5
t-134.5 144t-198 48.5q-140 0 -251 -64t-189 -172t-119 -241t-41 -272q0 -140 49 -235.5t135.5 -144.5t198.5 -49zM967 1645q-51 0 -82 35t-23 84q8 50 51 84.5t94 34.5q52 0 83 -34.5t23 -84.5q-8 -49 -51 -84t-95 -35zM1351 2153l-24 -128h-554l24 128h554z" />
    <glyph glyph-name="uni0231" unicode="&#x231;" horiz-adv-x="1229" 
d="M528 -24q-135 0 -232 56.5t-149.5 159.5t-52.5 241q0 133 41.5 258t120 224.5t190 158t251.5 58.5q135 0 233 -56t150.5 -159t52.5 -243q0 -135 -42 -260t-121.5 -224t-191 -156.5t-250.5 -57.5zM532 137q103 0 181.5 48t131.5 126.5t80 172.5t27 186q0 85 -27 153
t-84 108t-149 40q-102 0 -180 -48t-131 -127t-80 -173.5t-27 -187.5q0 -126 61 -212t197 -86zM735 1273q-51 0 -82 35t-23 84q8 50 51 84.5t94 34.5q52 0 83 -34.5t23 -84.5q-8 -49 -51 -84t-95 -35zM1119 1781l-24 -128h-554l24 128h554z" />
    <glyph glyph-name="uni0232" unicode="&#x232;" horiz-adv-x="1390" 
d="M507 0l101 610l-402 880h206l215 -481q36 -81 62.5 -154.5t49.5 -185.5h-76q60 114 111 188.5t111 151.5l374 481h233l-694 -880l-101 -610h-190zM1189 1863l-24 -142h-554l24 142h554z" />
    <glyph glyph-name="uni0233" unicode="&#x233;" horiz-adv-x="1151" 
d="M-19 -405l72 156l17 -4q55 -13 101.5 -6.5t88 44t81.5 116.5l47 93l-241 1124h188l129 -663q20 -103 29.5 -205.5t22.5 -198.5h-66q45 96 88 198.5t98 205.5l349 663h205l-704 -1285q-48 -88 -105.5 -145.5t-125 -85.5t-147.5 -28q-44 0 -78.5 7t-48.5 14zM1008 1491
l-24 -142h-554l24 142h554z" />
    <glyph glyph-name="uni0234" unicode="&#x234;" horiz-adv-x="816" 
d="M311 -418q-115 0 -176.5 47.5t-80 121t-6.5 149.5l56 342h181l-60 -362q-12 -73 23 -110t88 -37q50 0 87.5 32t45.5 81q7 41 -11.5 73t-65.5 39q-33 6 -65 -1t-62.5 -23.5t-60.5 -42.5l-321 -275l-94 119l272 234q80 69 173.5 106t176.5 37q127 0 194.5 -74t48.5 -191
t-111 -191t-232 -74zM492 1490l-247 -1490h-180l247 1490h180z" />
    <glyph glyph-name="uni0235" unicode="&#x235;" horiz-adv-x="1531" 
d="M1026 -418q-115 0 -176.5 47.5t-80 121t-6.5 149.5l56 342h181l-60 -362q-12 -73 23 -110t88 -37q50 0 87.5 32t45.5 81q7 41 -11.5 73t-65.5 39q-33 6 -65 -1t-62.5 -23.5t-60.5 -42.5l-321 -275l-94 119l272 234q80 69 173.5 106t176.5 37q127 0 194.5 -74t48.5 -191
t-111 -191t-232 -74zM356 664l-111 -664h-180l186 1118h173l-44 -271l-26 6q75 152 177 215.5t227 63.5q116 0 196 -48t113.5 -143t9.5 -237l-117 -704h-180l117 701q22 131 -32 200t-167 69q-82 0 -154 -36.5t-122 -105t-66 -164.5z" />
    <glyph glyph-name="uni0236" unicode="&#x236;" horiz-adv-x="838" 
d="M407 -20q-115 0 -176.5 47.5t-80 121t-6.5 149.5l56 342h181l-60 -362q-12 -73 23 -110t88 -37q50 0 87.5 32t45.5 81q7 41 -11.5 73t-65.5 39q-33 6 -65 -1t-62.5 -23.5t-60.5 -42.5l-321 -275l-94 119l272 234q80 69 173.5 106t176.5 37q127 0 194.5 -74t48.5 -191
t-111 -191t-232 -74zM161 398l163 986h180l-163 -986h-180zM88 965l25 153h585l-25 -153h-585z" />
    <glyph glyph-name="uni0237" unicode="&#x237;" horiz-adv-x="496" 
d="M250 1118h181l-199 -1198q-17 -106 -66 -181.5t-128.5 -116t-188.5 -40.5h-36l27 166h33q77 0 121.5 44t57.5 128z" />
    <glyph glyph-name="uni0238" unicode="&#x238;" horiz-adv-x="1853" 
d="M1752 564l-3 -20q-27 -164 -101.5 -291.5t-185 -200t-248.5 -72.5q-96 0 -164 37t-109.5 107t-57 171t-6.5 230l12 61q43 172 115.5 294t174.5 187t233 65q137 0 221 -71t114.5 -199t4.5 -298zM1540 544l3 20q19 112 6.5 201.5t-64 142t-150.5 52.5q-128 0 -211 -86.5
t-124 -208.5l-36 -219q6 -81 29.5 -147.5t74 -106.5t137.5 -40q99 0 167.5 52t110 141t57.5 199zM765 212l212 1278h209l-248 -1490h-189zM100 544l3 20q26 170 99 298t183.5 199t247.5 71q131 0 211 -65t111.5 -187.5t18.5 -293.5l-12 -61q-42 -172 -114.5 -294
t-173 -186.5t-229.5 -64.5q-135 0 -221.5 72.5t-118.5 200t-5 291.5zM312 564l-3 -20q-16 -110 -5.5 -199t60.5 -141t150 -52q128 0 208 85t130 209l37 219q-1 80 -24 147t-74.5 107.5t-138.5 40.5q-99 0 -168 -52.5t-111 -142t-61 -201.5z" />
    <glyph glyph-name="uni0239" unicode="&#x239;" horiz-adv-x="1853" 
d="M662 -416l218 1325l54 209h172l-17 -208l-219 -1326h-208zM100 544l3 20q26 170 99 298t183.5 199t247.5 71q128 0 208 -63.5t113.5 -185t19.5 -297.5l-12 -61q-42 -172 -114.5 -294t-173 -186.5t-229.5 -64.5q-135 0 -221.5 72.5t-118.5 200t-5 291.5zM312 564l-3 -20
q-16 -110 -5.5 -199t60.5 -141t150 -52q127 0 206.5 83.5t131.5 210.5l37 219q0 83 -24.5 150t-76.5 106t-136 39q-101 0 -170 -53.5t-110.5 -143.5t-59.5 -199zM1752 564l-3 -20q-27 -164 -101.5 -291.5t-185 -200t-248.5 -72.5q-96 0 -164 37t-109.5 107t-57 171t-6.5 230
l12 61q43 170 115 292.5t174 188t234 65.5q137 0 221 -71t114.5 -199t4.5 -298zM1540 544l3 20q19 112 6.5 201.5t-64 142t-150.5 52.5q-129 0 -211.5 -86.5t-123.5 -208.5l-36 -219q6 -84 30 -150.5t75 -105t136 -38.5q99 0 167.5 52t110 141t57.5 199z" />
    <glyph glyph-name="uni023A" unicode="&#x23a;" horiz-adv-x="1413" 
d="M1335 1678l-973 -1868h-166l973 1868h166zM-41 0l788 1490h220l301 -1490h-192l-169 884q-13 71 -33 199t-43 318h36q-81 -181 -141.5 -308t-102.5 -209l-454 -884h-210zM300 416l27 166h765l-27 -166h-765z" />
    <glyph glyph-name="uni023B" unicode="&#x23b;" horiz-adv-x="1495" 
d="M214 -190l971 1868h166l-971 -1868h-166zM698 -20q-169 0 -295 72t-195 206.5t-69 321.5q0 176 55 342.5t158 299t249 210.5t328 78q115 0 211.5 -33t168 -96t111 -153.5t40.5 -206.5h-190q-3 76 -30.5 134t-74.5 98t-109 60.5t-134 20.5q-140 0 -251 -64t-188.5 -172
t-118.5 -241.5t-41 -271.5q0 -140 49 -236t135 -144.5t198 -48.5q76 0 148.5 20.5t136 60.5t112.5 98t77 134h191q-39 -114 -106 -204t-156.5 -154t-193.5 -97.5t-216 -33.5z" />
    <glyph glyph-name="uni023C" unicode="&#x23c;" horiz-adv-x="1171" 
d="M18 -418l1030 1908h139l-1030 -1908h-139zM528 -24q-135 0 -232 56.5t-149.5 159.5t-52.5 241q0 133 41.5 258t119.5 224.5t189.5 158t252.5 58.5q83 0 153.5 -21.5t124 -62.5t87.5 -99t45 -131l-176 -39q-5 43 -23 78t-48 60.5t-71.5 39.5t-95.5 14q-102 0 -180 -48
t-131.5 -127t-80.5 -173.5t-27 -187.5q0 -83 26.5 -151t83.5 -107.5t148 -39.5q58 0 109.5 16t94 44.5t74.5 67t51 83.5l166 -58q-34 -74 -86 -132t-117 -98.5t-140 -62t-156 -21.5z" />
    <glyph glyph-name="uni023D" unicode="&#x23d;" horiz-adv-x="1185" 
d="M114 0l247 1490h190l-219 -1322h690l-28 -168h-880zM38 668l25 154h773l-25 -154h-773z" />
    </font>
</defs>
</svg>
