<?xml version="1.0" standalone="no"?>
<!DOCTYPE svg PUBLIC "-//W3C//DTD SVG 1.1//EN" "http://www.w3.org/Graphics/SVG/1.1/DTD/svg11.dtd" >
<svg xmlns="http://www.w3.org/2000/svg" xmlns:xlink="http://www.w3.org/1999/xlink" version="1.1">
<metadata>
Created by FontForge 20201107 at Wed Oct 23 15:59:28 2024
 By 
Copyright 2024 The Faculty Glyphic Project Authors (https://github.com/DylanYoungKoto/FacultyGlyphic)
</metadata>
<defs>
<font id="FacultyGlyphic-Regular" horiz-adv-x="0" >
  <font-face 
    font-family="Faculty Glyphic"
    font-weight="400"
    font-stretch="normal"
    units-per-em="1000"
    panose-1="0 0 0 0 0 0 0 0 0 0"
    ascent="800"
    descent="-200"
    x-height="550"
    cap-height="775"
    bbox="-210 -276 1232 1010"
    underline-thickness="50"
    underline-position="-125"
    unicode-range="U+0020-A78C"
  />
<missing-glyph horiz-adv-x="493" 
d="M246 720l78 -78l-78 -78l-78 78zM374 592l78 -78l-78 -78l-78 78zM118 592l78 -78l-78 -78l-78 78zM246 464l78 -78l-78 -78l-78 78zM375 337l78 -78l-78 -78l-78 78zM118 336l78 -78l-78 -78l-78 78zM246 209l78 -78l-78 -78l-78 78z" />
    <glyph glyph-name=".notdef" horiz-adv-x="493" 
d="M246 720l78 -78l-78 -78l-78 78zM374 592l78 -78l-78 -78l-78 78zM118 592l78 -78l-78 -78l-78 78zM246 464l78 -78l-78 -78l-78 78zM375 337l78 -78l-78 -78l-78 78zM118 336l78 -78l-78 -78l-78 78zM246 209l78 -78l-78 -78l-78 78z" />
    <glyph glyph-name=".null" 
 />
    <glyph glyph-name="nonmarkingreturn" horiz-adv-x="333" 
 />
    <glyph glyph-name="space" unicode=" " horiz-adv-x="240" 
 />
    <glyph glyph-name="exclam" unicode="!" horiz-adv-x="236" 
d="M186 775q-8 -41 -14 -99.5t-8 -108.5l-10 -353h-72l-10 353q-1 50 -7.5 108.5t-14.5 99.5h136zM118 142l78 -78l-78 -78l-78 78z" />
    <glyph glyph-name="quotedbl" unicode="&#x22;" horiz-adv-x="321" 
d="M120 775l13 -241h-54l-59 241h100zM268 775l13 -241h-54l-59 241h100z" />
    <glyph glyph-name="numbersign" unicode="#" horiz-adv-x="842" 
d="M422 775q-16 -31 -31.5 -76.5t-30.5 -106.5l-9 -42h209l10 47q10 48 14 79t5.5 54t1.5 45h135q-16 -31 -31.5 -76.5t-30.5 -106.5l-9 -42q36 0 61 0.5t49.5 3.5t56.5 9v-101q-33 7 -57.5 9.5t-50.5 3t-64 0.5h-12l-36 -163q37 0 63 0.5t50.5 3.5t56.5 9v-101
q-33 7 -57.5 9.5t-50.5 3t-64 0.5h-14l-13 -59q-9 -47 -13.5 -78.5t-6 -54t-1.5 -45.5h-135q17 31 32 76.5t30 106.5l12 54h-209l-13 -59q-9 -47 -13.5 -78.5t-6 -54t-1.5 -45.5h-135q17 31 32 76.5t30 106.5l12 54q-35 0 -60.5 -0.5t-49.5 -3t-57 -9.5v101q33 -6 57.5 -9
t51 -3.5t63.5 -0.5h11l36 163q-36 0 -62 -0.5t-50 -3t-57 -9.5v101q33 -6 57.5 -9t51 -3.5t63.5 -0.5h14l10 47q10 48 14 79t5.5 54t1.5 45h135zM298 312h209l36 163h-209z" />
    <glyph glyph-name="dollar" unicode="$" horiz-adv-x="582" 
d="M242 -115q6 25 9.5 50.5t5.5 51.5q-70 6 -116.5 29t-72 47t-33.5 33l67 109h3q12 -29 32 -58t50.5 -50.5t72.5 -28.5v309q-50 24 -97 51.5t-77 67t-32 98.5q-1 50 24 90.5t71 67t108 33.5q-2 26 -5.5 52.5t-9.5 51.5h111q-6 -25 -9.5 -50.5t-5.5 -51.5q64 -6 103.5 -26.5
t59.5 -40.5t23 -25l-55 -108h-3q-10 37 -42 72.5t-89 45.5v-267l11 -5q51 -24 97 -55.5t75 -75t29 -104.5q0 -86 -55.5 -143t-153.5 -68q2 -25 5.5 -50.5t9.5 -51.5h-111zM260 473v231q-46 -10 -74 -39.5t-28 -73.5q0 -42 29.5 -68.5t72.5 -49.5zM335 69q49 11 78 45.5
t29 83.5q0 50 -30 83.5t-77 58.5v-271z" />
    <glyph glyph-name="percent" unicode="%" horiz-adv-x="748" 
d="M187 438q-48 0 -83 23t-54.5 63t-19.5 89q0 50 19.5 89.5t54.5 63t83 23.5q49 0 84 -23.5t54.5 -63t19.5 -89.5q0 -49 -19.5 -89t-54.5 -63t-84 -23zM655 775q-21 -27 -55 -77t-82 -130l-241 -426q-25 -48 -41 -82t-22 -60h-128q20 25 52.5 72t72.5 115l231 406
q35 70 56.5 110.5t28.5 71.5h128zM187 507q39 0 58.5 28.5t19.5 77.5t-19.5 78.5t-58.5 29.5q-40 0 -58.5 -29.5t-18.5 -78.5t18.5 -77.5t58.5 -28.5zM560 -14q-48 0 -83 23t-54.5 63t-19.5 89q0 50 19.5 89.5t54.5 63t83 23.5q49 0 84 -23.5t54.5 -63t19.5 -89.5
q0 -49 -19.5 -89t-54.5 -63t-84 -23zM560 55q39 0 58.5 28.5t19.5 77.5t-19.5 78.5t-58.5 29.5q-40 0 -58.5 -29.5t-18.5 -78.5t18.5 -77.5t58.5 -28.5z" />
    <glyph glyph-name="ampersand" unicode="&#x26;" horiz-adv-x="737" 
d="M285 -14q-71 0 -127.5 25.5t-89.5 72.5t-33 109q0 55 22.5 94.5t59.5 68.5t81 52q-17 16 -40 42.5t-40.5 62.5t-17.5 78q0 52 28.5 96t75 71t101.5 27q53 0 97.5 -25t71.5 -67t27 -92q0 -58 -44.5 -107t-136.5 -92l162 -174l24 63q14 42 21.5 66.5t10.5 40t4 30.5h152
q-24 -25 -43 -54.5t-38.5 -65.5t-47.5 -82l-30 -56l26 -27q41 -42 79.5 -77.5t74.5 -65.5h-150q-6 15 -24.5 39t-48.5 59q-33 -45 -82.5 -78.5t-124.5 -33.5zM275 448q56 30 92 67.5t36 85.5q0 20 -8.5 44.5t-29.5 42t-61 17.5q-41 0 -64.5 -19t-32.5 -45.5t-9 -49.5
q0 -34 14 -62.5t32.5 -49t30.5 -31.5zM284 70q60 0 96.5 22.5t63.5 56.5l-199 215q-48 -34 -72.5 -78.5t-24.5 -93.5q0 -61 40.5 -91.5t95.5 -30.5z" />
    <glyph glyph-name="quotesingle" unicode="'" horiz-adv-x="236" 
d="M118 780l78 -78l-104 -178l-31 8l40 109l-61 61z" />
    <glyph glyph-name="parenleft" unicode="(" horiz-adv-x="312" 
d="M186 -125q-29 44 -64.5 114t-61 163.5t-25.5 206.5q0 114 25.5 207.5t61 164t64.5 114.5l66 -4q-23 -37 -51.5 -107t-49.5 -165.5t-21 -209.5q0 -113 21 -208t49.5 -165t51.5 -107z" />
    <glyph glyph-name="parenright" unicode=")" horiz-adv-x="312" 
d="M126 -125l-66 4q23 37 51.5 107t49.5 165t21 208q0 114 -21 209.5t-49.5 165.5t-51.5 107l66 4q30 -44 65 -114.5t60.5 -164t25.5 -207.5q0 -113 -25.5 -206.5t-60.5 -163.5t-65 -114z" />
    <glyph glyph-name="asterisk" unicode="*" horiz-adv-x="374" 
d="M10 548l130 48l-130 48l46 82l107 -89l-23 137h94l-23 -136l106 88l47 -81l-130 -48l130 -48l-46 -82l-107 89l23 -137h-94l23 136l-106 -88z" />
    <glyph glyph-name="plus" unicode="+" horiz-adv-x="590" 
d="M242 0q7 33 9.5 57.5t3 51t0.5 63.5v63h-63q-37 0 -63.5 -0.5t-51 -3t-57.5 -9.5v106q33 -6 57.5 -9t51 -3.5t63.5 -0.5h63v63q0 38 -0.5 64t-3 50.5t-9.5 57.5h106q-6 -33 -9 -57.5t-3.5 -50.5t-0.5 -64v-63h63q38 0 64 0.5t50.5 3.5t57.5 9v-106q-33 7 -57.5 9.5
t-50.5 3t-64 0.5h-63v-63q0 -37 0.5 -63.5t3.5 -51t9 -57.5h-106z" />
    <glyph glyph-name="comma" unicode="," horiz-adv-x="236" 
d="M118 142l78 -78l-104 -178l-31 8l40 109l-61 61z" />
    <glyph glyph-name="hyphen" unicode="-" horiz-adv-x="390" 
d="M370 288q-33 7 -57.5 9.5t-50.5 3t-64 0.5h-6q-37 0 -63.5 -0.5t-51 -3t-57.5 -9.5v106q33 -6 57.5 -9t51 -3.5t63.5 -0.5h6q38 0 64 0.5t50.5 3.5t57.5 9v-106z" />
    <glyph glyph-name="period" unicode="." horiz-adv-x="236" 
d="M118 142l78 -78l-78 -78l-78 78z" />
    <glyph glyph-name="slash" unicode="/" horiz-adv-x="510" 
d="M509 845q-36 -46 -96 -186l-229 -550q-26 -69 -37 -108.5t-19 -70.5h-128q36 46 96 186l229 550q26 69 37.5 108.5t18.5 70.5h128z" />
    <glyph glyph-name="zero" unicode="0" horiz-adv-x="707" 
d="M353 -14q-75 0 -133.5 31t-100 86.5t-63 128.5t-21.5 156t21.5 155.5t63 128t100 86.5t133.5 31t134 -31t100.5 -86t63 -128t21.5 -156t-22 -156t-63 -128.5t-100 -86.5t-134 -31zM352 66q69 0 117.5 43t74 116.5t25.5 162.5q0 90 -25.5 162.5t-74 115.5t-117.5 43
q-68 0 -116 -43t-73 -115.5t-25 -162.5t25 -163t73 -116t116 -43zM353 466l78 -78l-78 -78l-78 78z" />
    <glyph glyph-name="one" unicode="1" horiz-adv-x="271" 
d="M108 222v291q0 54 -6.5 80.5t-23.5 34.5t-48 8v6l173 138v-558q0 -56 2.5 -112t15.5 -110h-131q13 54 15.5 110t2.5 112z" />
    <glyph glyph-name="two" unicode="2" horiz-adv-x="628" 
d="M43 684q12 15 41.5 40t80 45t122.5 20q79 0 135 -30t85.5 -81t29.5 -114q0 -53 -26.5 -105.5t-74.5 -109.5t-113 -123t-141 -146h169q55 0 93 3.5t67.5 12t56.5 22.5l-24 -118h-509v46l179 204q13 15 38 41t54 59.5t56 70.5t44 73t17 67q0 70 -37.5 109t-106.5 39
q-52 0 -102.5 -34.5t-88.5 -102.5h-3z" />
    <glyph glyph-name="three" unicode="3" horiz-adv-x="616" 
d="M359 450q65 -8 112.5 -40t73.5 -81.5t26 -111.5q0 -65 -36 -117.5t-97.5 -83t-138.5 -30.5q-51 0 -100 13.5t-90.5 38.5t-68.5 58l67 109h3q26 -65 76.5 -102t112.5 -37q75 0 122 41.5t47 108.5q0 53 -23 92t-61.5 61t-85.5 22q-20 0 -45 -4t-48 -14l-7 6l212 316h-144
q-54 0 -90 -3.5t-63 -12t-54 -22.5l14 118h476v-46z" />
    <glyph glyph-name="four" unicode="4" horiz-adv-x="666" 
d="M636 196q-34 8 -69.5 12t-71.5 5q0 -54 3 -107.5t15 -105.5h-151q19 28 26.5 55.5t9.5 65.5t2 94h-360v46l455 519v-486q36 2 71.5 6t69.5 12v-116zM182 292h218v253z" />
    <glyph glyph-name="five" unicode="5" horiz-adv-x="636" 
d="M591 229q0 -72 -36 -127t-97.5 -85.5t-138.5 -30.5q-50 0 -99.5 13.5t-91 38.5t-68.5 58l67 109h3q26 -65 72.5 -102t116.5 -37q45 0 83.5 19.5t62 56t23.5 86.5q0 47 -19.5 85.5t-57.5 62t-94 23.5q-38 0 -69.5 -9.5t-52.5 -21t-28 -18.5h-92l47 425h400l19 -118
q-29 17 -57.5 24.5t-65 10t-91.5 2.5h-124l-27 -259q24 16 62 30t90 14q78 0 137 -32.5t92.5 -88.5t33.5 -129z" />
    <glyph glyph-name="six" unicode="6" horiz-adv-x="600" 
d="M299 -14q-86 0 -145 35t-89 98t-30 145q0 95 30 176t78.5 147.5t101.5 116.5q35 35 46.5 49t16.5 22h158v-4q-36 -19 -61.5 -39t-48.5 -40q-40 -36 -79.5 -79t-71 -91t-48.5 -98q28 26 66 41t76 15q85 0 144 -32.5t90.5 -87t31.5 -121.5q0 -78 -35.5 -135t-95.5 -87.5
t-135 -30.5zM298 66q47 0 86.5 17.5t63.5 56t24 99.5q0 47 -22 83.5t-61 57t-91 20.5q-51 0 -89.5 -21t-60 -57t-21.5 -83q0 -56 23.5 -95t62.5 -58.5t85 -19.5z" />
    <glyph glyph-name="seven" unicode="7" horiz-adv-x="620" 
d="M580 775v-47l-221 -526q-18 -50 -38.5 -99.5t-28.5 -102.5h-146q26 38 48 80t43 85l232 530h-212q-54 0 -90 -3.5t-63 -12t-54 -22.5l14 118h516z" />
    <glyph glyph-name="eight" unicode="8" horiz-adv-x="611" 
d="M305 -14q-78 0 -139 29t-96 81.5t-35 122.5q0 65 31 113.5t86 75.5q-39 29 -60.5 72.5t-21.5 92.5q0 58 30 107t83 79t122 30q70 0 123 -30t83 -79t30 -107q0 -49 -21.5 -92.5t-60.5 -72.5q55 -27 86 -75.5t31 -113.5q0 -70 -35 -122.5t-96 -81.5t-140 -29zM304 440
q66 0 102.5 39.5t36.5 93.5q0 37 -16.5 67.5t-47.5 49.5t-75 19q-43 0 -73.5 -19t-46.5 -49.5t-16 -67.5q0 -54 35.5 -93.5t100.5 -39.5zM304 66q77 0 123 39.5t46 113.5q0 72 -44.5 106.5t-124.5 34.5q-79 0 -122.5 -34.5t-43.5 -106.5q0 -75 45 -114t121 -39z" />
    <glyph glyph-name="nine" unicode="9" horiz-adv-x="600" 
d="M301 789q86 0 145 -35t89 -97.5t30 -145.5q0 -94 -30 -175.5t-78 -148t-102 -116.5q-34 -34 -46 -48.5t-17 -22.5h-158v4q36 19 62 39t48 40q40 36 79 79t71 90.5t48 96.5q-25 -25 -60 -39.5t-81 -14.5q-79 0 -139 32.5t-93.5 87.5t-33.5 121q0 78 35.5 135t96 87.5
t134.5 30.5zM302 709q-46 0 -86 -17.5t-64 -55.5t-24 -100q0 -47 22 -83.5t61.5 -57t90.5 -20.5q52 0 90 21t59.5 57.5t21.5 82.5q0 57 -23.5 95.5t-62 58t-85.5 19.5z" />
    <glyph glyph-name="colon" unicode=":" horiz-adv-x="236" 
d="M118 568l78 -78l-78 -78l-78 78zM118 171l78 -78l-78 -78l-78 78z" />
    <glyph glyph-name="semicolon" unicode=";" horiz-adv-x="236" 
d="M118 568l78 -78l-78 -78l-78 78zM118 142l78 -78l-104 -178l-31 8l40 109l-61 61z" />
    <glyph glyph-name="less" unicode="&#x3c;" horiz-adv-x="568" 
d="M528 468l-406 -189l405 -190v-94l-497 240v90l498 236v-93z" />
    <glyph glyph-name="equal" unicode="=" horiz-adv-x="610" 
d="M30 454q33 -6 57.5 -9t51 -3.5t63.5 -0.5h206q38 0 64 0.5t50.5 3.5t57.5 9v-106q-33 7 -57.5 9.5t-50.5 3t-64 0.5h-206q-37 0 -63.5 -0.5t-51 -3t-57.5 -9.5v106zM30 202q33 -6 57.5 -9t51 -3.5t63.5 -0.5h206q38 0 64 0.5t50.5 3.5t57.5 9v-106q-33 7 -57.5 9.5
t-50.5 3t-64 0.5h-206q-37 0 -63.5 -0.5t-51 -3t-57.5 -9.5v106z" />
    <glyph glyph-name="greater" unicode="&#x3e;" horiz-adv-x="568" 
d="M40 468v93l498 -236v-90l-497 -240v94l405 190z" />
    <glyph glyph-name="question" unicode="?" horiz-adv-x="533" 
d="M255 788q116 0 179.5 -57.5t63.5 -148.5q0 -87 -54.5 -151.5t-146.5 -93.5v-123h-95v182q95 14 143.5 59t48.5 124q0 57 -33.5 93t-103.5 36q-68 0 -107.5 -29.5t-56.5 -91.5h-3l-55 108q36 45 93 69t127 24zM254 142l78 -78l-78 -78l-78 78z" />
    <glyph glyph-name="at" unicode="@" horiz-adv-x="855" 
d="M402 129q-52 0 -94 28.5t-66.5 78t-24.5 110.5q0 62 25.5 111t68.5 78t97 29q82 0 120 -66h5v61l100 -21v-5q-16 -27 -22.5 -58t-6.5 -87v-95q0 -39 16.5 -64.5t41.5 -25.5q30 0 46 40.5t16 115.5v1q0 93 -38.5 165.5t-105.5 114t-153 41.5t-152.5 -42.5t-104 -117
t-37.5 -171.5q0 -96 38.5 -171.5t104.5 -119.5t150 -44q44 0 88.5 8t72.5 27l35 -34q-28 -31 -81 -51t-115 -20q-82 0 -153 31.5t-124.5 87t-83.5 129t-30 157.5q0 87 29 160.5t81.5 127.5t124.5 83.5t158 29.5q85 0 156.5 -28.5t124.5 -80.5t82 -123t29 -155
q0 -105 -43 -168t-116 -63q-46 0 -80.5 27.5t-42.5 69.5h-4q-10 -47 -45.5 -74t-86.5 -27zM533 373q-6 55 -40 88t-85 33q-52 0 -79.5 -38t-27.5 -110q0 -70 31 -108.5t86 -38.5q51 0 83 31.5t32 82.5v60z" />
    <glyph glyph-name="A" unicode="A" horiz-adv-x="806" 
d="M352 775h102l248 -600q20 -44 41.5 -84.5t52.5 -90.5h-141q-6 32 -17 70.5t-37 104.5l-23 55h-350l-23 -55q-25 -66 -36.5 -104.5t-17.5 -70.5h-141q31 47 51.5 85.5t38.5 79.5zM261 310h284l-142 344z" />
    <glyph glyph-name="B" unicode="B" horiz-adv-x="650" 
d="M307 775q44 0 88.5 -12t82.5 -37t61 -63.5t23 -92.5q0 -55 -22 -94t-57 -64q53 -25 87.5 -73.5t34.5 -118.5q0 -54 -21 -95t-56.5 -69t-79.5 -42t-89 -14h-289q13 54 15.5 110t2.5 112v331q0 56 -2.5 112t-15.5 110h237zM188 442h99q50 0 87.5 10.5t58.5 38t21 79.5
t-24.5 80t-64.5 39t-88 11h-89v-258zM188 75h141q75 0 122 33.5t46 111.5t-46.5 110t-120.5 32h-142v-287z" />
    <glyph glyph-name="C" unicode="C" horiz-adv-x="747" 
d="M703 208h4l-16 -146q-49 -38 -109 -57t-155 -19q-85 0 -157 30.5t-124.5 85.5t-81.5 128t-29 158t29 158t82 127.5t124.5 85t156.5 30.5q92 0 152.5 -19t109.5 -57l16 -145h-4q-40 61 -106 101t-168 40q-63 0 -115.5 -25t-90 -69.5t-58 -102.5t-20.5 -124t20.5 -124
t58 -102.5t90 -70t115.5 -25.5q107 0 171.5 40.5t104.5 101.5z" />
    <glyph glyph-name="D" unicode="D" horiz-adv-x="764" 
d="M333 775q102 0 176.5 -35.5t123.5 -93t72.5 -125.5t23.5 -133t-23.5 -133t-72.5 -126t-123.5 -93.5t-176.5 -35.5h-263q13 54 15.5 110t2.5 112v331q0 56 -2.5 112t-15.5 110h263zM188 80h115q95 0 156.5 29t97 75.5t50 100t14.5 103.5t-14.5 103.5t-50 100t-97 75
t-156.5 28.5h-115v-615z" />
    <glyph glyph-name="E" unicode="E" horiz-adv-x="631" 
d="M521 775l24 -118q-27 14 -56.5 22.5t-67.5 12t-93 3.5h-140v-259h85q56 0 112 2.5t110 15.5v-116q-54 13 -110 15.5t-112 2.5h-85v-276h148q82 0 143.5 8.5t101.5 29.5l-24 -118h-487q13 54 15.5 110t2.5 112v331q0 56 -2.5 112t-15.5 110h451z" />
    <glyph glyph-name="F" unicode="F" horiz-adv-x="585" 
d="M521 775l24 -118q-27 14 -56.5 22.5t-67.5 12t-93 3.5h-140v-269h85q56 0 112 2.5t110 15.5v-116q-54 13 -110 15.5t-112 2.5h-85v-124q0 -56 2.5 -112t15.5 -110h-136q13 54 15.5 110t2.5 112v331q0 56 -2.5 112t-15.5 110h451z" />
    <glyph glyph-name="G" unicode="G" horiz-adv-x="797" 
d="M727 70q-69 -45 -140 -64.5t-149 -19.5q-89 0 -163 30.5t-127.5 85.5t-83 128t-29.5 158t28.5 158t81 127.5t124 85t158.5 30.5q99 0 161 -19t111 -57l16 -145h-3q-40 61 -107.5 101t-177.5 40q-86 0 -150 -44t-99 -116.5t-35 -160.5q0 -66 22 -124t63 -102.5t97 -70
t124 -25.5q53 0 100 13t78 33v219q-45 -1 -89 -4t-88 -14v99h277v-342z" />
    <glyph glyph-name="H" unicode="H" horiz-adv-x="777" 
d="M206 775q-13 -54 -15.5 -110t-2.5 -112v-122h401v122q0 56 -2.5 112t-15.5 110h136q-13 -54 -15.5 -110t-2.5 -112v-331q0 -56 2.5 -112t15.5 -110h-136q13 54 15.5 110t2.5 112v129h-401v-129q0 -56 2.5 -112t15.5 -110h-136q13 54 15.5 110t2.5 112v331q0 56 -2.5 112
t-15.5 110h136z" />
    <glyph glyph-name="I" unicode="I" horiz-adv-x="296" 
d="M216 775q-13 -54 -15.5 -110t-2.5 -112v-331q0 -56 2.5 -112t15.5 -110h-136q13 54 15.5 110t2.5 112v331q0 56 -2.5 112t-15.5 110h136z" />
    <glyph glyph-name="J" unicode="J" horiz-adv-x="282" 
d="M212 775q-13 -54 -15.5 -110t-2.5 -112v-533q0 -124 -46 -180t-155 -56q-12 0 -32.5 2t-32.5 4l-18 114l3 1q15 -14 36 -27t51 -13q58 0 76 41.5t18 135.5v511q0 56 -2.5 112t-15.5 110h136z" />
    <glyph glyph-name="K" unicode="K" horiz-adv-x="729" 
d="M206 775q-13 -54 -15.5 -110t-2.5 -112v-132l221 243q36 42 58 72.5t25 38.5h161q-43 -37 -78 -69.5t-68 -66.5l-200 -219l259 -283q33 -34 69 -67t79 -70h-161q-3 8 -22 35.5t-51 63.5l-292 319v-196q0 -56 2.5 -112t15.5 -110h-136q13 54 15.5 110t2.5 112v331
q0 56 -2.5 112t-15.5 110h136z" />
    <glyph glyph-name="L" unicode="L" horiz-adv-x="575" 
d="M70 0q13 54 15.5 110t2.5 112v331q0 56 -2.5 112t-15.5 110h136q-13 -54 -15.5 -110t-2.5 -112v-473h140q55 0 93 3.5t67.5 12t56.5 22.5l-24 -118h-451z" />
    <glyph glyph-name="M" unicode="M" horiz-adv-x="917" 
d="M205 775l257 -602l260 602h125q-13 -54 -15.5 -110t-2.5 -112v-331q0 -56 2.5 -112t15.5 -110h-136q13 54 15.5 110t2.5 112v360l-249 -582h-48l-249 582v-360q0 -56 2.5 -112t15.5 -110h-131q13 54 15.5 110t2.5 112v331q0 56 -2.5 112t-15.5 110h135z" />
    <glyph glyph-name="N" unicode="N" horiz-adv-x="810" 
d="M211 775l416 -645v424q0 56 -2.5 112t-15.5 110h131q-13 -54 -15.5 -110t-2.5 -112v-331q0 -56 2.5 -112.5t15.5 -110.5h-144l-413 640v-418q0 -56 2.5 -112t15.5 -110h-131q13 54 15.5 110t2.5 112v331q0 56 -2.5 112t-15.5 110h141z" />
    <glyph glyph-name="O" unicode="O" horiz-adv-x="857" 
d="M428 -14q-86 0 -158 30.5t-124.5 85.5t-81.5 128t-29 158t29 158t81.5 127.5t124.5 85t158 30.5t158 -30t125 -84.5t82 -127.5t29 -159q0 -85 -29 -158t-82 -128t-125 -85.5t-158 -30.5zM427 66q65 0 118 26t91 70.5t58 103t20 122.5q0 65 -20 123t-58 102.5t-91 70
t-118 25.5t-117.5 -25.5t-89.5 -70.5t-57 -102.5t-20 -122.5q0 -64 20 -122.5t57 -103t89.5 -70.5t117.5 -26z" />
    <glyph glyph-name="P" unicode="P" horiz-adv-x="597" 
d="M282 775q78 0 141.5 -30t101 -84t37.5 -126q0 -71 -37.5 -125.5t-101 -85t-141.5 -30.5h-94v-72q0 -56 2.5 -112t15.5 -110h-136q13 54 15.5 110t2.5 112v331q0 56 -2.5 112t-15.5 110h212zM188 374h64q102 0 152 42t50 119t-50 118.5t-152 41.5h-64v-321z" />
    <glyph glyph-name="Q" unicode="Q" horiz-adv-x="857" 
d="M500 -39q56 0 112 2.5t110 15.5v-116q-54 13 -110 15.5t-112 2.5h-142q-56 0 -112 -2.5t-110 -15.5v116q54 -13 110 -15.5t112 -2.5h19v28q-101 12 -178 67t-120.5 141t-43.5 191q0 85 29 158t81.5 127.5t124.5 85t158 30.5t158 -30t125 -84.5t82 -127.5t29 -159
q0 -105 -44 -191t-121.5 -141t-179.5 -67v-28h23zM427 66q65 0 118 26t91 70.5t58 103t20 122.5q0 65 -20 123t-58 102.5t-91 70t-118 25.5t-117.5 -25.5t-89.5 -70.5t-57 -102.5t-20 -122.5q0 -64 20 -122.5t57 -103t89.5 -70.5t117.5 -26z" />
    <glyph glyph-name="R" unicode="R" horiz-adv-x="660" 
d="M282 775q76 0 139.5 -27.5t102 -78t38.5 -119.5q0 -55 -25 -99t-68.5 -74.5t-98.5 -44.5l144 -209q24 -31 50.5 -62t55.5 -61h-155q-13 29 -33.5 63.5t-55.5 87.5l-122 170h-66v-99q0 -56 2.5 -112t15.5 -110h-136q13 54 15.5 110t2.5 112v331q0 56 -2.5 112t-15.5 110
h212zM188 401h64q98 0 150 38t52 111q0 74 -52 109.5t-150 35.5h-64v-294z" />
    <glyph glyph-name="S" unicode="S" horiz-adv-x="582" 
d="M524 696l-55 -108h-3q-7 28 -27.5 56t-54 46.5t-82.5 18.5q-63 0 -103.5 -32t-40.5 -85q0 -41 27 -67.5t70 -47t91 -43.5q51 -24 97 -55.5t75 -75t29 -104.5q0 -63 -30.5 -111t-87 -75t-135.5 -27q-62 0 -108 14t-77.5 33.5t-49.5 37.5t-24 26l67 109h3q13 -33 37.5 -65
t62 -53.5t89.5 -21.5q65 0 106.5 37.5t41.5 95.5q0 59 -40 94.5t-98 63.5q-42 21 -85.5 41.5t-80.5 47t-60 62.5t-24 87q-1 56 30 99.5t88 69t132 25.5q57 0 97.5 -12.5t66.5 -30t39.5 -32t16.5 -18.5z" />
    <glyph glyph-name="T" unicode="T" horiz-adv-x="694" 
d="M650 775l24 -118q-27 14 -56.5 22.5t-67.5 12t-93 3.5h-60v-473q0 -56 2.5 -112t15.5 -110h-136q13 54 15.5 110t2.5 112v473h-60q-54 0 -92.5 -3.5t-68 -12t-56.5 -22.5l24 118h606z" />
    <glyph glyph-name="U" unicode="U" horiz-adv-x="724" 
d="M191 775q-13 -54 -15.5 -110t-2.5 -112v-210q0 -78 14 -140.5t55 -99t120 -36.5q80 0 120.5 36.5t54.5 99t14 140.5v210q0 56 -2.5 112t-15.5 110h136q-13 -54 -15.5 -110t-2.5 -112v-210q0 -111 -29.5 -191t-93.5 -123t-166 -43t-165.5 43t-93.5 123t-30 191v210
q0 56 -2.5 112t-15.5 110h136z" />
    <glyph glyph-name="V" unicode="V" horiz-adv-x="814" 
d="M357 0l-231 559q-16 40 -32 74t-34.5 68t-44.5 74h141q4 -23 11.5 -51t21 -66.5t36.5 -94.5l182 -440l182 440q24 58 38 96t22.5 65.5t13.5 50.5h136q-31 -49 -58 -102t-51 -110l-233 -563h-100z" />
    <glyph glyph-name="W" unicode="W" horiz-adv-x="1195" 
d="M799 0l-202 600l-201 -600h-100l-200 596q-16 47 -34 90t-47 89h144q6 -32 14.5 -77.5t29.5 -108.5l145 -433l208 619h83l208 -619l145 434q21 62 29.5 107.5t14.5 77.5h144q-28 -46 -46 -89t-35 -90l-200 -596h-100z" />
    <glyph glyph-name="X" unicode="X" horiz-adv-x="799" 
d="M604 0q-13 29 -32.5 64t-56.5 87l-116 162l-113 -160q-36 -54 -57 -89t-34 -64h-155q35 36 66 72t60 75l176 248l-162 234q-28 38 -58 74.5t-65 71.5h155q10 -22 24 -49.5t39 -62.5l128 -179l74 106q46 69 71 111t39 74h155q-36 -36 -66.5 -71.5t-58.5 -76.5l-155 -225
l200 -292q20 -30 45 -56.5t52 -53.5h-155z" />
    <glyph glyph-name="Y" unicode="Y" horiz-adv-x="725" 
d="M311 222v155l-161 238q-29 43 -61 83t-69 77h150q14 -33 39.5 -74t71.5 -110l83 -119l79 118q31 47 51 79.5t33 57.5t23 48h155q-37 -38 -68.5 -78t-61.5 -82l-164 -242v-151q0 -56 2.5 -112t15.5 -110h-136q13 54 15.5 110t2.5 112z" />
    <glyph glyph-name="Z" unicode="Z" horiz-adv-x="711" 
d="M620 775v-46l-418 -649h232q55 0 93 3.5t67.5 12t56.5 22.5l-24 -118h-560v46l416 649h-206q-54 0 -92.5 -3.5t-68 -12t-56.5 -22.5l24 118h536z" />
    <glyph glyph-name="bracketleft" unicode="[" horiz-adv-x="449" 
d="M60 840h339v-105q-28 15 -63 20t-94 5h-87v-800h87q59 0 94 5t63 20v-105h-339v960z" />
    <glyph glyph-name="backslash" unicode="\" horiz-adv-x="509" 
d="M381 -70q-7 31 -18.5 70.5t-37.5 108.5l-229 550q-60 140 -96 186h128q8 -31 19 -70.5t37 -108.5l229 -550q60 -140 96 -186h-128z" />
    <glyph glyph-name="bracketright" unicode="]" horiz-adv-x="449" 
d="M389 840v-960h-339v105q28 -15 63.5 -20t93.5 -5h87v800h-87q-58 0 -93.5 -5t-63.5 -20v105h339z" />
    <glyph glyph-name="asciicircum" unicode="^" horiz-adv-x="420" 
d="M124 496h-94l135 279h90l135 -279h-94l-85 187z" />
    <glyph glyph-name="underscore" unicode="_" horiz-adv-x="580" 
d="M560 -106q-33 7 -57.5 9.5t-50.5 3t-64 0.5h-196q-37 0 -63.5 -0.5t-51 -3t-57.5 -9.5v106q33 -6 57.5 -9t51 -3.5t63.5 -0.5h196q38 0 64 0.5t50.5 3.5t57.5 9v-106z" />
    <glyph glyph-name="grave" unicode="`" horiz-adv-x="289" 
d="M185 615l-121 160h125l66 -160h-70z" />
    <glyph glyph-name="a" unicode="a" horiz-adv-x="524" 
d="M30 158q0 70 40.5 115.5t114.5 63.5t175 5q-6 74 -33 107.5t-80 33.5q-47 0 -91 -22.5t-76 -59.5h-7l-3 104q81 58 191 58q102 0 148 -61.5t47 -198.5v-83q0 -49 3.5 -83t12 -59.5t22.5 -50.5v-6l-134 -28v84h-4q-19 -44 -57 -67.5t-88 -23.5q-51 0 -92 22.5t-65 61.5
t-24 88zM128 158q0 -44 27 -68t76 -24q35 0 63.5 15.5t46.5 42t20 58.5v97q-106 12 -169.5 -19.5t-63.5 -101.5z" />
    <glyph glyph-name="b" unicode="b" horiz-adv-x="622" 
d="M78 222v331q0 54 -4 88.5t-12 58.5t-22 46v6l132 28v-304h7q52 88 160 88q72 0 129 -38.5t90.5 -104t33.5 -147.5q0 -83 -32 -148t-87.5 -102.5t-126.5 -37.5q-42 0 -72.5 12t-50.5 29.5t-31.5 34.5t-16.5 27h-4l-6 -89h-105q13 54 15.5 110t2.5 112zM171 215
q5 -67 46 -108t108 -41q78 0 123.5 56.5t45.5 151.5t-42.5 152.5t-113.5 57.5q-53 0 -88.5 -26t-54.5 -67t-23 -86z" />
    <glyph glyph-name="c" unicode="c" horiz-adv-x="530" 
d="M515 108q-11 -22 -35.5 -50.5t-67 -50t-107.5 -21.5q-56 0 -105.5 22t-88 61t-60 91.5t-21.5 113.5t21.5 114t60 92.5t88 61.5t105.5 22q62 0 106.5 -17t73.5 -41l-3 -114h-7q-22 37 -62.5 64.5t-107.5 27.5q-54 0 -93.5 -27t-61.5 -74t-22 -109q0 -63 28.5 -110
t74.5 -72.5t97 -25.5q56 0 92.5 20t58.5 53z" />
    <glyph glyph-name="d" unicode="d" horiz-adv-x="627" 
d="M545 221q0 -54 3.5 -88.5t12 -58t21.5 -46.5v-6l-133 -28l1 95h-3q-24 -49 -69.5 -76t-101.5 -27q-68 0 -124 38.5t-89 104t-33 145.5q0 82 33.5 147.5t91 104t128.5 38.5q53 0 94 -22.5t66 -65.5h7v77q0 54 -4 88.5t-12 58.5t-22 46v6l133 28v-559zM450 308
q-4 45 -23.5 85t-54.5 65.5t-88 25.5q-73 0 -114.5 -55.5t-41.5 -154.5q0 -95 46 -151.5t123 -56.5q64 0 105.5 39t47.5 102v101z" />
    <glyph glyph-name="e" unicode="e" horiz-adv-x="559" 
d="M305 -14q-56 0 -105.5 22t-88 61t-60 91.5t-21.5 113.5t21.5 114t59.5 92.5t87.5 61.5t105.5 22q75 0 126 -38.5t77.5 -104t26.5 -147.5h-406q0 -57 26.5 -104.5t72 -75.5t101.5 -28t92.5 20t58.5 53l36 -31q-11 -22 -35.5 -50.5t-67 -50t-107.5 -21.5zM136 349h294
q-11 62 -44 98.5t-92 36.5q-64 0 -104 -36.5t-54 -98.5z" />
    <glyph glyph-name="f" unicode="f" horiz-adv-x="397" 
d="M356 470q-20 4 -40 6t-48 3.5t-73 1.5v-260q0 -82 4 -131t14 -90h-126q10 41 14 90t4 131v258q-29 -1 -49.5 -3t-40.5 -6l10 80h80q0 40 2 81t16 76t48.5 56.5t98.5 21.5q44 0 72.5 -10.5t49.5 -21.5l-38 -89h-3q-1 2 -9.5 11.5t-27 18.5t-50.5 9q-31 0 -45.5 -11
t-19 -31.5t-3.5 -48.5t-1 -62h151z" />
    <glyph glyph-name="g" unicode="g" horiz-adv-x="582" 
d="M283 108q-71 0 -126 35q-7 -13 -10 -31.5t12 -29.5q17 -13 57 -14.5t106 -6.5q38 -2 81.5 -8t82 -21t62.5 -43.5t24 -76.5q0 -52 -26 -88t-68 -58t-92.5 -32t-99.5 -10q-81 0 -141 21.5t-92.5 60t-32.5 88.5q0 44 25 74t51 47q-16 10 -25.5 25.5t-9.5 38.5q0 36 20.5 60
t36.5 35q-29 29 -45.5 70t-16.5 91q0 70 30.5 121t82.5 79.5t114 28.5q41 0 78 -15q61 0 97 1t60 3.5t47 6.5l-10 -80h-96q23 -28 37.5 -64.5t14.5 -80.5q0 -52 -20 -94t-53 -71.5t-73.5 -45.5t-81.5 -16zM282 188q42 0 71 20.5t44.5 54.5t15.5 72q0 39 -15.5 72.5
t-44.5 54.5t-71 21q-41 0 -70 -21t-43.5 -55t-14.5 -72t14.5 -72t43.5 -54.5t70 -20.5zM118 -101q0 -48 46 -71.5t119 -23.5q50 0 93.5 12.5t70.5 36.5t27 60q0 34 -23.5 48.5t-59.5 18t-74 5.5q-39 2 -78 3.5t-72 5.5q-22 -17 -35.5 -43.5t-13.5 -51.5z" />
    <glyph glyph-name="h" unicode="h" horiz-adv-x="584" 
d="M431 299q0 32 -3 64.5t-13 59.5t-32 44t-60 17q-59 0 -90.5 -28t-44 -71t-15.5 -90v-73q0 -56 2.5 -112t15.5 -110h-131q13 54 15.5 110t2.5 112v331q0 54 -4 88.5t-12 58.5t-22 46v6l133 28v-304h7q15 25 32.5 44.5t46.5 31.5t78 12q60 0 97.5 -22.5t57 -60.5t27 -85
t7.5 -97v-77q0 -56 2.5 -112t15.5 -110h-131q13 54 15.5 110t2.5 112v77z" />
    <glyph glyph-name="i" unicode="i" horiz-adv-x="250" 
d="M122 788l83 -82l-83 -83l-82 83zM85 222v108q0 54 -4 88.5t-12 58.5t-22 46v6l133 28v-335q0 -56 2.5 -112t15.5 -110h-131q13 54 15.5 110t2.5 112z" />
    <glyph glyph-name="j" unicode="j" horiz-adv-x="271" 
d="M143 788l83 -82l-83 -83l-82 83zM205 -28q0 -72 -20 -127.5t-64 -87t-117 -31.5q-3 0 -15.5 0.5t-27 1.5t-22.5 2l-19 120l3 1q10 -9 29.5 -17t42.5 -12t42 -1q41 6 57.5 46.5t16.5 120.5v342q0 54 -4 88.5t-12 58.5t-22 46v6l132 28v-585z" />
    <glyph glyph-name="k" unicode="k" horiz-adv-x="603" 
d="M439 132q32 -35 64.5 -66t74.5 -66h-139q-2 6 -17 26t-38 45l-211 225v-74q0 -56 2.5 -112t15.5 -110h-131q13 54 15.5 110t2.5 112v331q0 54 -4 88.5t-12 58.5t-22 46v6l133 28v-481l158 169q27 31 44.5 53t20.5 29h139q-32 -27 -58.5 -51t-51.5 -49l-143 -152z" />
    <glyph glyph-name="l" unicode="l" horiz-adv-x="241" 
d="M78 222v331q0 54 -4 88.5t-12 58.5t-22 46v6l133 28v-558q0 -56 2.5 -112t15.5 -110h-131q13 54 15.5 110t2.5 112z" />
    <glyph glyph-name="m" unicode="m" horiz-adv-x="896" 
d="M411 299q0 30 -1.5 62.5t-10 60t-28.5 45t-58 17.5q-55 0 -84.5 -28t-41 -71t-14.5 -90v-73q0 -56 2.5 -112t15.5 -110h-131q13 54 15.5 110t2.5 112v108q0 54 -4 88.5t-12 58.5t-22 46v6l133 28v-81h7q15 25 31.5 44.5t43.5 31.5t72 12q67 0 104 -29.5t54 -75.5h6
q15 25 36.5 49t53.5 40t77 16q61 0 97 -23t54 -61.5t23.5 -85.5t5.5 -95v-77q0 -56 2.5 -112t15.5 -110h-131q13 54 15.5 110t2.5 112v77q0 30 -1 62.5t-9 60t-28.5 45t-59.5 17.5q-57 0 -85.5 -25t-39.5 -64.5t-14 -83.5v-89q0 -56 2.5 -112t15.5 -110h-131q13 54 15.5 110
t2.5 112v77z" />
    <glyph glyph-name="n" unicode="n" horiz-adv-x="584" 
d="M431 299q0 32 -3 64.5t-13 59.5t-32 44t-60 17q-59 0 -90.5 -28t-44 -71t-15.5 -90v-73q0 -56 2.5 -112t15.5 -110h-131q13 54 15.5 110t2.5 112v108q0 54 -4 88.5t-12 58.5t-22 46v6l133 28v-81h7q15 25 32.5 44.5t46.5 31.5t78 12q60 0 97.5 -22.5t57 -60.5t27 -85
t7.5 -97v-77q0 -56 2.5 -112t15.5 -110h-131q13 54 15.5 110t2.5 112v77z" />
    <glyph glyph-name="o" unicode="o" horiz-adv-x="611" 
d="M305 -14q-79 0 -141.5 38t-98 103.5t-35.5 146.5q0 82 35.5 147.5t98 104t141.5 38.5q80 0 142 -38.5t98 -104t36 -147.5q0 -81 -36 -146.5t-98 -103.5t-142 -38zM304 66q52 0 92 26.5t63.5 73.5t23.5 108q0 62 -23.5 109.5t-63.5 74t-92 26.5q-51 0 -91 -27t-62.5 -74
t-22.5 -109q0 -61 22.5 -108t62.5 -73.5t91 -26.5z" />
    <glyph glyph-name="p" unicode="p" horiz-adv-x="612" 
d="M336 -14q-42 0 -72.5 12t-50.5 29.5t-31.5 34.5t-16.5 27h-2v-127q0 -56 2.5 -112t15.5 -110h-131q13 54 15.5 110t2.5 112v369q0 54 -4 88.5t-12 58.5t-22 46v6l133 28l-1 -82h7q52 88 160 88q73 0 130 -37.5t90 -103t33 -149.5q0 -83 -32 -148t-87.5 -102.5
t-126.5 -37.5zM163 228q0 -73 41 -117.5t111 -44.5q78 0 123.5 56t45.5 152t-42.5 153t-113.5 57q-53 0 -89 -28t-54.5 -71t-21.5 -90v-67z" />
    <glyph glyph-name="q" unicode="q" horiz-adv-x="612" 
d="M562 550q-13 -54 -15.5 -110t-2.5 -112v-366q0 -56 2.5 -112t15.5 -110h-131q13 54 15.5 110t2.5 112v127h-2q-24 -49 -69.5 -76t-101.5 -27q-68 0 -124 38.5t-89 104t-33 145.5q0 82 33.5 147.5t91 104t128.5 38.5q108 0 160 -88h6q2 19 4.5 37t9.5 37h99zM128 274
q0 -97 45 -152.5t124 -55.5q68 0 110 45t42 117v67q-5 89 -49 139t-116 50q-74 0 -115 -55t-41 -155z" />
    <glyph glyph-name="r" unicode="r" horiz-adv-x="417" 
d="M386 428q-16 28 -38 37t-51 9q-45 0 -71 -30t-38 -79.5t-15 -109.5v-33q0 -56 2.5 -112t15.5 -110h-131q13 54 15.5 110t2.5 112v108q0 54 -4 88.5t-12 58.5t-22 46v6l133 28v-111h7q13 52 51.5 85t95.5 33q30 0 47.5 -8.5l17.5 -8.5v-119h-6z" />
    <glyph glyph-name="s" unicode="s" horiz-adv-x="420" 
d="M358 507l-12 -101h-4q-16 37 -49.5 57.5t-71.5 20.5q-43 0 -69.5 -16.5t-26.5 -51.5q0 -38 31.5 -58t72.5 -37q36 -15 72 -34.5t60 -52t24 -87.5q0 -52 -25.5 -88t-68 -54.5t-93.5 -18.5q-43 0 -77 14.5t-56.5 34.5t-29.5 36l14 111h4q2 -12 12.5 -31.5t29.5 -38.5
t45 -32.5t58 -13.5q45 0 72.5 22t27.5 62q0 38 -31.5 59t-73.5 39q-36 16 -71.5 34.5t-59 49t-23.5 79.5q0 52 24.5 85.5t66 50.5t92.5 17q56 0 89.5 -20.5t46.5 -36.5z" />
    <glyph glyph-name="t" unicode="t" horiz-adv-x="386" 
d="M244 -14q-141 0 -141 180v315l-14 -1.5t-33 -4t-36 -5.5v11l168 185h10v-116h141l10 -80q-20 4 -39.5 6t-45.5 3.5t-66 1.5v-311q0 -56 15.5 -78t54.5 -22q25 0 41 10t29 29l28 -38q-15 -37 -45 -61t-77 -24z" />
    <glyph glyph-name="u" unicode="u" horiz-adv-x="563" 
d="M143 252q0 -31 2.5 -64t11.5 -60t30.5 -44t58.5 -17q58 0 88.5 28t42.5 71.5t14 89.5v73q0 56 -2.5 112t-15.5 110h113v-330q0 -54 3.5 -86.5t13 -55.5t25.5 -48v-6l-127 -31l-10 81h-7q-14 -24 -31 -44t-45 -32t-76 -12q-59 0 -95.5 22.5t-55.5 60.5t-26 85.5t-7 96.5
v77q0 56 -2.5 112t-15.5 110h113v-299z" />
    <glyph glyph-name="v" unicode="v" horiz-adv-x="610" 
d="M595 550q-25 -37 -47 -81t-54 -119l-144 -350h-90l-144 350q-31 75 -53.5 119t-47.5 81h134q6 -36 20 -78.5t42 -113.5l95 -246l99 246q29 71 42.5 113.5t20.5 78.5h127z" />
    <glyph glyph-name="w" unicode="w" horiz-adv-x="905" 
d="M890 550q-16 -24 -31 -51t-30 -62.5t-33 -86.5l-124 -350h-90l-131 370l-131 -370h-90l-124 350q-18 51 -32.5 86.5t-28 62.5t-30.5 51h129q4 -24 10 -50t16 -59.5t26 -82.5l83 -245l82 245q25 73 37 114.5t19 77.5h79q4 -24 10 -50t16 -59.5t26 -82.5l83 -245l82 245
q25 73 37 114.5t19 77.5h121z" />
    <glyph glyph-name="x" unicode="x" horiz-adv-x="571" 
d="M469 83q17 -22 34.5 -42.5t37.5 -40.5h-132q-9 20 -23.5 45t-39.5 62l-64 89l-65 -92q-24 -36 -38.5 -60t-22.5 -44h-126q23 22 41 41.5t34 41.5l128 183l-133 197q-35 45 -75 87h130q7 -15 16.5 -33t24.5 -41l95 -133l72 102q23 37 37 61.5t23 43.5h126
q-26 -26 -48 -52.5t-44 -55.5l-117 -169z" />
    <glyph glyph-name="y" unicode="y" horiz-adv-x="610" 
d="M350 0q-37 -88 -58 -151.5t-29 -107.5h-136q30 45 62 109t69 154l-142 346q-31 75 -53.5 119t-47.5 81h134q6 -36 20 -78.5t42 -113.5l95 -246l99 246q29 71 42.5 113.5t20.5 78.5h127q-25 -37 -47 -81t-54 -119z" />
    <glyph glyph-name="z" unicode="z" horiz-adv-x="510" 
d="M456 550v-43l-286 -427h146q58 0 92 6.5t62 21.5l-17 -108h-400v48l281 422h-140q-58 0 -92 -6.5t-62 -21.5l17 108h399z" />
    <glyph glyph-name="braceleft" unicode="{" horiz-adv-x="321" 
d="M10 376q46 -1 64 24t18 55v280q0 62 32.5 90.5t99.5 28.5q31 0 53 -6.5t24 -7.5l-2 -19q-61 1 -86.5 -24.5t-25.5 -78.5v-280q0 -26 -13.5 -46.5t-36.5 -31.5q23 -11 36.5 -31.5t13.5 -46.5v-280q0 -52 25.5 -78t86.5 -25l2 -19q-2 -1 -24 -7.5t-53 -6.5q-67 0 -99.5 29
t-32.5 90v280q0 30 -18 55t-64 24v32z" />
    <glyph glyph-name="bar" unicode="|" horiz-adv-x="235" 
d="M165 840v-960h-95v960h95z" />
    <glyph glyph-name="braceright" unicode="}" horiz-adv-x="321" 
d="M311 354q-46 1 -64 -24t-18 -55v-290q0 -61 -32.5 -90t-99.5 -29q-31 0 -53 6.5t-24 7.5l2 9q61 -1 86.5 25t25.5 78v290q0 26 14 46.5t36 31.5q-22 11 -36 31.5t-14 46.5v290q0 53 -25.5 78.5t-86.5 24.5l-2 9q2 1 24 7.5t53 6.5q67 0 99.5 -28.5t32.5 -90.5v-290
q0 -30 18 -55t64 -24v-12z" />
    <glyph glyph-name="asciitilde" unicode="~" horiz-adv-x="499" 
d="M394 411h85q0 -68 -27 -114t-91 -46q-40 0 -69 15t-51.5 35t-45 35t-51.5 15q-20 0 -29.5 -19t-9.5 -61h-85q0 68 27 114t91 46q41 0 69.5 -15t51 -35t45.5 -35t51 -15q20 0 29.5 19t9.5 61z" />
    <glyph glyph-name="uni00A0" unicode="&#xa0;" horiz-adv-x="240" 
 />
    <glyph glyph-name="exclamdown" unicode="&#xa1;" horiz-adv-x="236" 
d="M118 408l-78 78l78 78l78 -78zM186 -225h-136q8 41 14.5 99.5t7.5 108.5l10 353h72l10 -353q2 -50 8 -108.5t14 -99.5z" />
    <glyph glyph-name="cent" unicode="&#xa2;" horiz-adv-x="530" 
d="M515 108q-10 -20 -31 -45.5t-56 -46.5t-88 -28q2 -26 5.5 -51.5t9.5 -51.5h-111q12 51 15 105q-64 12 -116 51.5t-82.5 99.5t-30.5 133t30.5 133.5t82.5 101t116 51.5q-3 56 -15 108h111q-12 -53 -15 -106q47 -5 80 -21t58 -35l-3 -114h-7q-20 28 -50 55t-81 35v-416
l13 1q40 5 66 18t41 28.5t22 25.5zM128 274q0 -69 37.5 -123t96.5 -74v402q-61 -15 -97.5 -70t-36.5 -135z" />
    <glyph glyph-name="sterling" unicode="&#xa3;" horiz-adv-x="586" 
d="M10 0q36 46 67 94.5t50 102.5t19 116l-1 17q-32 -1 -58.5 -3t-63.5 -10v106q29 -6 51.5 -8.5t45.5 -3.5q-12 25 -26 51t-24 58t-11 74q-1 56 30 99.5t88 69t132 25.5q57 0 97.5 -12.5t66.5 -30t39.5 -32t16.5 -18.5l-55 -108h-3q-7 28 -27.5 56t-54 46.5t-82.5 18.5
q-63 0 -103.5 -32t-40.5 -85q0 -34 11 -64t26 -58.5t27 -58.5h44q38 0 64 0.5t50.5 3.5t57.5 9v-106q-33 7 -57.5 9.5t-50.5 3t-64 0.5h-22l1 -17q0 -67 -23 -126.5t-60 -106.5h167q55 0 93 3.5t67.5 12t56.5 22.5l-24 -118h-517z" />
    <glyph glyph-name="currency" unicode="&#xa4;" horiz-adv-x="511" 
d="M257 143q-28 0 -53.5 8t-48.5 21q-14 -16 -27 -32.5t-28 -39.5l-75 75q23 15 39.5 28t32.5 27q-13 23 -21 48.5t-8 53.5q0 29 8 54.5t21 47.5q-16 14 -32.5 27t-39.5 28l75 75q15 -23 28 -40t27 -33q46 30 102 30q29 0 54.5 -7.5t47.5 -21.5q14 16 27 32.5t28 39.5
l75 -75q-23 -16 -39.5 -28.5t-32.5 -26.5q14 -22 21.5 -48t7.5 -54q0 -56 -30 -102q16 -14 33 -27t40 -28l-75 -75q-16 23 -28.5 40t-26.5 32q-22 -13 -47.5 -21t-54.5 -8zM257 228q43 0 73.5 30.5t30.5 73.5t-30.5 73.5t-73.5 30.5t-73.5 -30.5t-30.5 -73.5t30.5 -73.5
t73.5 -30.5z" />
    <glyph glyph-name="yen" unicode="&#xa5;" horiz-adv-x="725" 
d="M97 261q33 -6 57.5 -9t51 -3.5t63.5 -0.5h42v109h-42q-37 0 -63.5 -0.5t-51 -3t-57.5 -9.5v96q33 -6 57.5 -9t51 -3.5t63.5 -0.5h8l-129 191q-30 42 -60.5 81t-67.5 76h155q14 -33 39.5 -74t71.5 -110l80 -115l77 114q33 49 52.5 81.5t32 56.5t22.5 47h155
q-37 -38 -68.5 -78t-61.5 -82l-127 -188h7q38 0 64 0.5t50.5 3.5t57.5 9v-96q-33 7 -57.5 9.5t-50.5 3t-64 0.5h-44v-109h44q38 0 64 0.5t50.5 3.5t57.5 9v-96q-33 7 -57.5 9.5t-50.5 3t-64 0.5h-44q1 -45 4.5 -89.5t13.5 -88.5h-136q11 44 14 88.5t4 89.5h-42
q-37 0 -63.5 -0.5t-51 -3t-57.5 -9.5v96z" />
    <glyph glyph-name="brokenbar" unicode="&#xa6;" horiz-adv-x="215" 
d="M60 454v386h95v-386h-95zM60 -120v386h95v-386h-95z" />
    <glyph glyph-name="section" unicode="&#xa7;" horiz-adv-x="420" 
d="M198 -14q-43 0 -77 14.5t-56.5 35t-29.5 36.5l14 111h4q2 -12 12.5 -31.5t29.5 -39t45 -33t58 -13.5q45 0 72.5 22.5t27.5 62.5q0 38 -31.5 59t-73.5 39q-36 16 -71.5 38t-59 53t-23.5 72q0 32 16 62t46 46q-27 19 -44.5 46.5t-17.5 69.5q0 52 24.5 85.5t66 50.5t92.5 17
q56 0 89.5 -20.5t46.5 -36.5l-12 -101h-4q-16 37 -49.5 57.5t-71.5 20.5q-43 0 -69.5 -16.5t-26.5 -51.5q0 -38 31.5 -58t72.5 -37q36 -15 72 -38.5t60 -56.5t24 -79q0 -34 -16 -59.5t-45 -39.5q26 -20 43.5 -49.5t17.5 -75.5q0 -52 -25.5 -88t-68 -55t-93.5 -19zM266 306
q32 26 32 69q0 28 -14.5 45t-38.5 29t-52 24l-36 16q-16 -15 -24 -35t-8 -37q0 -37 31.5 -57.5t72.5 -37.5z" />
    <glyph glyph-name="dieresis" unicode="&#xa8;" horiz-adv-x="507" 
d="M128 780l78 -78l-78 -78l-78 78zM379 780l78 -78l-78 -78l-78 78z" />
    <glyph glyph-name="copyright" unicode="&#xa9;" horiz-adv-x="857" 
d="M428 -14q-86 0 -158 30.5t-124.5 85.5t-81.5 128t-29 158t29 158t81.5 127.5t124.5 85t158 30.5t158 -30t125 -84.5t82 -127.5t29 -159q0 -85 -29 -158t-82 -128t-125 -85.5t-158 -30.5zM427 61q67 0 121 26t92 71t58.5 104.5t20.5 125.5q0 90 -35.5 164t-101 118
t-155.5 44q-67 0 -120.5 -25.5t-91 -71t-57.5 -104.5t-20 -125t20 -125.5t57.5 -104.5t91 -71t120.5 -26zM582 269q-8 -15 -25.5 -35.5t-47.5 -36t-76 -15.5q-52 0 -96.5 27t-71 73t-26.5 104t26.5 104.5t71 74t96.5 27.5q44 0 76 -12t52 -31l-3 -79h-5q-16 26 -44 44
t-76 18q-54 0 -87.5 -40.5t-33.5 -105.5q0 -45 19.5 -77t51 -49t67.5 -17q39 0 64 12.5t41 36.5z" />
    <glyph glyph-name="ordfeminine" unicode="&#xaa;" horiz-adv-x="349" 
d="M35 546q0 63 53.5 92.5t143.5 18.5q-3 44 -19 61t-48 17q-28 0 -54.5 -14t-45.5 -36h-4l-2 69q49 35 114 35q66 0 94.5 -37t28.5 -119v-50q0 -44 5 -68.5t18 -46.5v-4l-86 -17v51h-3q-23 -55 -87 -55q-46 0 -77 29.5t-31 73.5zM101 546q0 -21 15.5 -35t38.5 -14
q29 0 53.5 18.5t24.5 48.5v49q-63 7 -97.5 -9t-34.5 -58z" />
    <glyph glyph-name="guillemotleft" unicode="&#xab;" horiz-adv-x="557" 
d="M288 507l24 -19l-153 -213l153 -213l-24 -19l-268 232zM513 507l24 -19l-153 -213l153 -213l-24 -19l-268 232z" />
    <glyph glyph-name="logicalnot" unicode="&#xac;" horiz-adv-x="519" 
d="M476 262v-90q0 -37 0.5 -63.5t3.5 -51t9 -57.5h-106q7 33 9.5 57.5t3 51t0.5 63.5v10h-217q-58 0 -92 -6.5t-62 -21.5l17 108h434z" />
    <glyph glyph-name="registered" unicode="&#xae;" horiz-adv-x="857" 
d="M428 -14q-86 0 -158 30.5t-124.5 85.5t-81.5 128t-29 158t29 158t81.5 127.5t124.5 85t158 30.5t158 -30t125 -84.5t82 -127.5t29 -159q0 -85 -29 -158t-82 -128t-125 -85.5t-158 -30.5zM427 61q67 0 121 26t92 71t58.5 104.5t20.5 125.5q0 90 -35.5 164t-101 118
t-155.5 44q-67 0 -120.5 -25.5t-91 -71t-57.5 -104.5t-20 -125t20 -125.5t57.5 -104.5t91 -71t120.5 -26zM411 600q43 0 78 -16.5t55.5 -43.5t20.5 -61q0 -40 -28.5 -73t-73.5 -45l71 -106q8 -11 18.5 -23t37.5 -39h-91q-13 33 -52 88l-52 74h-29v-32q0 -46 2.5 -75.5
t8.5 -54.5h-80q6 25 8.5 54.5t2.5 75.5v147q0 46 -2.5 75.5t-8.5 54.5h114zM366 411h28q50 0 77 18t27 50q0 64 -104 64h-28v-132z" />
    <glyph glyph-name="macron" unicode="&#xaf;" horiz-adv-x="374" 
d="M50 739h274v-65h-274v65z" />
    <glyph glyph-name="degree" unicode="&#xb0;" horiz-adv-x="334" 
d="M167 515q-38 0 -69 18.5t-49.5 49.5t-18.5 69t18.5 69t49.5 49.5t69 18.5t69 -18.5t49.5 -49.5t18.5 -69t-18.5 -69t-49.5 -49.5t-69 -18.5zM167 583q29 0 49 20.5t20 48.5q0 29 -20 49t-49 20q-28 0 -48.5 -20t-20.5 -49q0 -28 20.5 -48.5t48.5 -20.5z" />
    <glyph glyph-name="plusminus" unicode="&#xb1;" horiz-adv-x="610" 
d="M252 160q6 31 9 54t3.5 46.5t0.5 54.5h-63q-37 0 -63.5 -0.5t-51 -3t-57.5 -9.5v106q33 -6 57.5 -9t51 -3.5t63.5 -0.5h63q0 32 -0.5 55t-3.5 46.5t-9 53.5h106q-6 -30 -8.5 -53.5t-3.5 -46.5t-1 -55h63q38 0 64 0.5t50.5 3.5t57.5 9v-106q-33 7 -57.5 9.5t-50.5 3
t-64 0.5h-63q0 -31 1 -54.5t3.5 -46.5t8.5 -54h-106zM30 93q33 -6 57.5 -9t51 -3.5t63.5 -0.5h206q38 0 64 0.5t50.5 3.5t57.5 9v-106q-33 7 -57.5 9.5t-50.5 3t-64 0.5h-206q-37 0 -63.5 -0.5t-51 -3t-57.5 -9.5v106z" />
    <glyph glyph-name="acute" unicode="&#xb4;" horiz-adv-x="291" 
d="M135 615h-70l66 160h125z" />
    <glyph glyph-name="paragraph" unicode="&#xb6;" horiz-adv-x="632" 
d="M562 775q-13 -54 -15.5 -110t-2.5 -112v-451q0 -56 2.5 -112t15.5 -110h-113v815h-83v-815h-113q13 54 15.5 110t2.5 112v293h-16q-61 0 -111 24t-79.5 67t-29.5 99q0 57 29.5 99.5t79.5 66.5t111 24h307z" />
    <glyph glyph-name="periodcentered" unicode="&#xb7;" horiz-adv-x="236" 
d="M118 446l78 -78l-78 -78l-78 78z" />
    <glyph glyph-name="cedilla" unicode="&#xb8;" horiz-adv-x="408" 
d="M157 -112l56 112h55l-37 -68q55 1 91 -26.5t36 -65.5q0 -44 -42.5 -72t-110.5 -28q-102 0 -155 67l38 65h3q34 -83 114 -83q32 0 51 14t19 39q0 23 -28.5 41t-79.5 7z" />
    <glyph glyph-name="ordmasculine" unicode="&#xba;" horiz-adv-x="389" 
d="M194 443q-47 0 -84.5 23t-58.5 62t-21 88t21 88t58.5 62t84.5 23q48 0 85 -23t58.5 -62t21.5 -88t-21.5 -88t-58.5 -62t-85 -23zM194 499q44 0 71.5 32t27.5 85t-27.5 85t-71.5 32t-71 -32t-27 -85t27 -85t71 -32z" />
    <glyph glyph-name="guillemotright" unicode="&#xbb;" horiz-adv-x="557" 
d="M269 507l268 -232l-268 -232l-24 19l153 213l-153 213zM44 507l268 -232l-268 -232l-24 19l153 213l-153 213z" />
    <glyph glyph-name="onequarter" unicode="&#xbc;" horiz-adv-x="751" 
d="M66 321q8 32 9.5 65.5t1.5 67.5v175q0 49 -9.5 61.5t-37.5 12.5v8l114 78v-335q0 -34 1.5 -67.5t9.5 -65.5h-89zM50 0q20 25 52.5 72t72.5 113l227 397q41 76 62.5 118.5t29.5 74.5h128q-20 -25 -52.5 -72t-77.5 -123l-245 -427q-29 -55 -45.5 -90.5t-23.5 -62.5h-128z
M547 0q17 25 19.5 51.5t2.5 77.5h-205v28l272 311v-281q22 1 43 3.5t42 6.5v-79q-21 5 -42 7t-43 3q0 -33 2 -65t9 -63h-100zM459 185h110v122z" />
    <glyph glyph-name="onehalf" unicode="&#xbd;" horiz-adv-x="848" 
d="M77 454v175q0 49 -9.5 61.5t-37.5 12.5v8l114 78v-335q0 -34 1.5 -67.5t9.5 -65.5h-89q8 32 9.5 65.5t1.5 67.5zM622 775q-20 -25 -52.5 -72t-77.5 -123l-245 -427q-29 -55 -45.5 -90.5t-23.5 -62.5h-128q20 25 52.5 72t72.5 113l227 397q41 76 62.5 118.5t29.5 74.5h128
zM473 411q7 9 24.5 23.5t48 26.5t73.5 12q71 0 110.5 -39t39.5 -95q0 -42 -26.5 -83.5t-72 -89t-104.5 -108.5h92q49 0 77.5 5t52.5 18l-14 -81h-316v28l107 122q10 11 30.5 33t42.5 48.5t37.5 54.5t15.5 51q0 42 -22 60t-55 18q-31 0 -61 -15t-53 -56h-2z" />
    <glyph glyph-name="threequarters" unicode="&#xbe;" horiz-adv-x="881" 
d="M180 0q20 25 52.5 72t72.5 113l227 397q41 76 62.5 118.5t29.5 74.5h128q-20 -25 -52.5 -72t-77.5 -123l-245 -427q-29 -55 -45.5 -90.5t-23.5 -62.5h-128zM196 300q-41 0 -86.5 18t-69.5 48l44 76h2q16 -39 46.5 -61.5t63.5 -22.5q41 0 66.5 22.5t25.5 58.5
q0 44 -26.5 69.5t-66.5 25.5q-12 0 -29 -2.5t-31 -8.5l-12 4l127 190h-74q-49 0 -74.5 -5t-50.5 -18l9 81h286v-28l-114 -168q59 -7 93 -47t34 -93q0 -36 -22.5 -68t-59.5 -51.5t-81 -19.5zM677 0q17 25 19.5 51.5t2.5 77.5h-205v28l272 311v-281q22 1 43 3.5t42 6.5v-79
q-21 5 -42 7t-43 3q0 -33 2 -65t9 -63h-100zM589 185h110v122z" />
    <glyph glyph-name="questiondown" unicode="&#xbf;" horiz-adv-x="533" 
d="M279 408l-78 78l78 78l78 -78zM278 -238q-116 0 -179.5 57.5t-63.5 148.5q0 87 54.5 151.5t146.5 93.5v123h95v-182q-95 -14 -143.5 -58.5t-48.5 -124.5q0 -57 33.5 -93t103.5 -36q68 0 108 29.5t56 91.5h3l55 -108q-36 -45 -93 -69t-127 -24z" />
    <glyph glyph-name="Agrave" unicode="&#xc0;" horiz-adv-x="806" 
d="M352 775h102l248 -600q20 -44 41.5 -84.5t52.5 -90.5h-141q-6 32 -17 70.5t-37 104.5l-23 55h-350l-23 -55q-25 -66 -36.5 -104.5t-17.5 -70.5h-141q31 47 51.5 85.5t38.5 79.5zM261 310h284l-142 344zM393 840l-121 160h125l66 -160h-70z" />
    <glyph glyph-name="Aacute" unicode="&#xc1;" horiz-adv-x="806" 
d="M352 775h102l248 -600q20 -44 41.5 -84.5t52.5 -90.5h-141q-6 32 -17 70.5t-37 104.5l-23 55h-350l-23 -55q-25 -66 -36.5 -104.5t-17.5 -70.5h-141q31 47 51.5 85.5t38.5 79.5zM261 310h284l-142 344zM423 840h-70l66 160h125z" />
    <glyph glyph-name="Acircumflex" unicode="&#xc2;" horiz-adv-x="806" 
d="M352 775h102l248 -600q20 -44 41.5 -84.5t52.5 -90.5h-141q-6 32 -17 70.5t-37 104.5l-23 55h-350l-23 -55q-25 -66 -36.5 -104.5t-17.5 -70.5h-141q31 47 51.5 85.5t38.5 79.5zM261 310h284l-142 344zM321 840h-90l126 160h93l126 -160h-90l-82 119z" />
    <glyph glyph-name="Atilde" unicode="&#xc3;" horiz-adv-x="806" 
d="M352 775h102l248 -600q20 -44 41.5 -84.5t52.5 -90.5h-141q-6 32 -17 70.5t-37 104.5l-23 55h-350l-23 -55q-25 -66 -36.5 -104.5t-17.5 -70.5h-141q31 47 51.5 85.5t38.5 79.5zM261 310h284l-142 344zM518 987h60q0 -68 -24.5 -107.5t-73.5 -39.5q-31 0 -53.5 14.5
t-39 33t-31 33t-29.5 14.5q-38 0 -38 -87h-60q0 68 24.5 110t73.5 42q31 0 53.5 -14.5t39 -33t31 -33t29.5 -14.5q38 0 38 82z" />
    <glyph glyph-name="Adieresis" unicode="&#xc4;" horiz-adv-x="806" 
d="M352 775h102l248 -600q20 -44 41.5 -84.5t52.5 -90.5h-141q-6 32 -17 70.5t-37 104.5l-23 55h-350l-23 -55q-25 -66 -36.5 -104.5t-17.5 -70.5h-141q31 47 51.5 85.5t38.5 79.5zM261 310h284l-142 344zM277 1005l78 -78l-78 -78l-78 78zM528 1005l78 -78l-78 -78l-78 78z
" />
    <glyph glyph-name="Aring" unicode="&#xc5;" horiz-adv-x="806" 
d="M352 775h102l248 -600q20 -44 41.5 -84.5t52.5 -90.5h-141q-6 32 -17 70.5t-37 104.5l-23 55h-350l-23 -55q-25 -66 -36.5 -104.5t-17.5 -70.5h-141q31 47 51.5 85.5t38.5 79.5zM261 310h284l-142 344zM403 822q-39 0 -66 28t-27 67t27 66t66 27t66 -27t27 -66t-27 -67
t-66 -28zM403 876q17 0 28.5 12t11.5 28q0 17 -11.5 28.5t-28.5 11.5q-16 0 -28 -11.5t-12 -28.5q0 -16 12 -28t28 -12z" />
    <glyph glyph-name="AE" unicode="&#xc6;" horiz-adv-x="976" 
d="M866 775l24 -118q-27 14 -56.5 22.5t-67.5 12t-93 3.5h-109v-259h85q33 0 85 2.5t106 15.5v-116q-54 13 -106 15.5t-85 2.5h-85v-276h117q82 0 143.5 8.5t101.5 29.5l-24 -118h-456q13 54 15.5 110t2.5 112v8h-227l-29 -64q-26 -61 -38.5 -98t-18.5 -68h-141
q36 56 61 101.5t50 96.5l261 577h484zM273 310h191v385h-17z" />
    <glyph glyph-name="Ccedilla" unicode="&#xc7;" horiz-adv-x="747" 
d="M703 208h4l-16 -146q-49 -38 -109 -57t-155 -19q-85 0 -157 30.5t-124.5 85.5t-81.5 128t-29 158t29 158t82 127.5t124.5 85t156.5 30.5q92 0 152.5 -19t109.5 -57l16 -145h-4q-40 61 -106 101t-168 40q-63 0 -115.5 -25t-90 -69.5t-58 -102.5t-20.5 -124t20.5 -124
t58 -102.5t90 -70t115.5 -25.5q107 0 171.5 40.5t104.5 101.5zM409 -112l56 112h55l-37 -68q55 1 91 -26.5t36 -65.5q0 -44 -42.5 -72t-110.5 -28q-102 0 -155 67l38 65h3q34 -83 114 -83q32 0 51 14t19 39q0 23 -28.5 41t-79.5 7z" />
    <glyph glyph-name="Egrave" unicode="&#xc8;" horiz-adv-x="631" 
d="M521 775l24 -118q-27 14 -56.5 22.5t-67.5 12t-93 3.5h-140v-259h85q56 0 112 2.5t110 15.5v-116q-54 13 -110 15.5t-112 2.5h-85v-276h148q82 0 143.5 8.5t101.5 29.5l-24 -118h-487q13 54 15.5 110t2.5 112v331q0 56 -2.5 112t-15.5 110h451zM306 840l-121 160h125
l66 -160h-70z" />
    <glyph glyph-name="Eacute" unicode="&#xc9;" horiz-adv-x="631" 
d="M521 775l24 -118q-27 14 -56.5 22.5t-67.5 12t-93 3.5h-140v-259h85q56 0 112 2.5t110 15.5v-116q-54 13 -110 15.5t-112 2.5h-85v-276h148q82 0 143.5 8.5t101.5 29.5l-24 -118h-487q13 54 15.5 110t2.5 112v331q0 56 -2.5 112t-15.5 110h451zM336 840h-70l66 160h125z
" />
    <glyph glyph-name="Ecircumflex" unicode="&#xca;" horiz-adv-x="631" 
d="M521 775l24 -118q-27 14 -56.5 22.5t-67.5 12t-93 3.5h-140v-259h85q56 0 112 2.5t110 15.5v-116q-54 13 -110 15.5t-112 2.5h-85v-276h148q82 0 143.5 8.5t101.5 29.5l-24 -118h-487q13 54 15.5 110t2.5 112v331q0 56 -2.5 112t-15.5 110h451zM234 840h-90l126 160h93
l126 -160h-90l-82 119z" />
    <glyph glyph-name="Edieresis" unicode="&#xcb;" horiz-adv-x="631" 
d="M521 775l24 -118q-27 14 -56.5 22.5t-67.5 12t-93 3.5h-140v-259h85q56 0 112 2.5t110 15.5v-116q-54 13 -110 15.5t-112 2.5h-85v-276h148q82 0 143.5 8.5t101.5 29.5l-24 -118h-487q13 54 15.5 110t2.5 112v331q0 56 -2.5 112t-15.5 110h451zM190 1005l78 -78l-78 -78
l-78 78zM441 1005l78 -78l-78 -78l-78 78z" />
    <glyph glyph-name="Igrave" unicode="&#xcc;" horiz-adv-x="296" 
d="M216 775q-13 -54 -15.5 -110t-2.5 -112v-331q0 -56 2.5 -112t15.5 -110h-136q13 54 15.5 110t2.5 112v331q0 56 -2.5 112t-15.5 110h136zM138 840l-121 160h125l66 -160h-70z" />
    <glyph glyph-name="Iacute" unicode="&#xcd;" horiz-adv-x="296" 
d="M216 775q-13 -54 -15.5 -110t-2.5 -112v-331q0 -56 2.5 -112t15.5 -110h-136q13 54 15.5 110t2.5 112v331q0 56 -2.5 112t-15.5 110h136zM168 840h-70l66 160h125z" />
    <glyph glyph-name="Icircumflex" unicode="&#xce;" horiz-adv-x="296" 
d="M216 775q-13 -54 -15.5 -110t-2.5 -112v-331q0 -56 2.5 -112t15.5 -110h-136q13 54 15.5 110t2.5 112v331q0 56 -2.5 112t-15.5 110h136zM66 840h-90l126 160h93l126 -160h-90l-82 119z" />
    <glyph glyph-name="Idieresis" unicode="&#xcf;" horiz-adv-x="296" 
d="M216 775q-13 -54 -15.5 -110t-2.5 -112v-331q0 -56 2.5 -112t15.5 -110h-136q13 54 15.5 110t2.5 112v331q0 56 -2.5 112t-15.5 110h136zM22 1005l78 -78l-78 -78l-78 78zM273 1005l78 -78l-78 -78l-78 78z" />
    <glyph glyph-name="Eth" unicode="&#xd0;" horiz-adv-x="832" 
d="M401 775q102 0 176.5 -35.5t123.5 -93t72.5 -125.5t23.5 -133t-23.5 -133t-72.5 -126t-123.5 -93.5t-176.5 -35.5h-263q13 54 15.5 110t2.5 112v139q-38 0 -66.5 -2.5t-69.5 -10.5v96q41 -8 69.5 -10.5t66.5 -2.5v122q0 56 -2.5 112t-15.5 110h263zM256 75h115
q95 0 156.5 29.5t97 77t50 102t14.5 104.5t-14.5 104.5t-50 101.5t-97 76.5t-156.5 29.5h-115v-269q38 0 66 2.5t68 10.5v-96q-40 8 -68 10.5t-66 2.5v-286z" />
    <glyph glyph-name="Ntilde" unicode="&#xd1;" horiz-adv-x="810" 
d="M211 775l416 -645v424q0 56 -2.5 112t-15.5 110h131q-13 -54 -15.5 -110t-2.5 -112v-331q0 -56 2.5 -112.5t15.5 -110.5h-144l-413 640v-418q0 -56 2.5 -112t15.5 -110h-131q13 54 15.5 110t2.5 112v331q0 56 -2.5 112t-15.5 110h141zM518 987h60q0 -68 -24.5 -107.5
t-73.5 -39.5q-31 0 -53.5 14.5t-39 33t-31 33t-29.5 14.5q-38 0 -38 -87h-60q0 68 24.5 110t73.5 42q31 0 53.5 -14.5t39 -33t31 -33t29.5 -14.5q38 0 38 82z" />
    <glyph glyph-name="Ograve" unicode="&#xd2;" horiz-adv-x="857" 
d="M428 -14q-86 0 -158 30.5t-124.5 85.5t-81.5 128t-29 158t29 158t81.5 127.5t124.5 85t158 30.5t158 -30t125 -84.5t82 -127.5t29 -159q0 -85 -29 -158t-82 -128t-125 -85.5t-158 -30.5zM427 66q65 0 118 26t91 70.5t58 103t20 122.5q0 65 -20 123t-58 102.5t-91 70
t-118 25.5t-117.5 -25.5t-89.5 -70.5t-57 -102.5t-20 -122.5q0 -64 20 -122.5t57 -103t89.5 -70.5t117.5 -26zM419 840l-121 160h125l66 -160h-70z" />
    <glyph glyph-name="Oacute" unicode="&#xd3;" horiz-adv-x="857" 
d="M428 -14q-86 0 -158 30.5t-124.5 85.5t-81.5 128t-29 158t29 158t81.5 127.5t124.5 85t158 30.5t158 -30t125 -84.5t82 -127.5t29 -159q0 -85 -29 -158t-82 -128t-125 -85.5t-158 -30.5zM427 66q65 0 118 26t91 70.5t58 103t20 122.5q0 65 -20 123t-58 102.5t-91 70
t-118 25.5t-117.5 -25.5t-89.5 -70.5t-57 -102.5t-20 -122.5q0 -64 20 -122.5t57 -103t89.5 -70.5t117.5 -26zM449 840h-70l66 160h125z" />
    <glyph glyph-name="Ocircumflex" unicode="&#xd4;" horiz-adv-x="857" 
d="M428 -14q-86 0 -158 30.5t-124.5 85.5t-81.5 128t-29 158t29 158t81.5 127.5t124.5 85t158 30.5t158 -30t125 -84.5t82 -127.5t29 -159q0 -85 -29 -158t-82 -128t-125 -85.5t-158 -30.5zM427 66q65 0 118 26t91 70.5t58 103t20 122.5q0 65 -20 123t-58 102.5t-91 70
t-118 25.5t-117.5 -25.5t-89.5 -70.5t-57 -102.5t-20 -122.5q0 -64 20 -122.5t57 -103t89.5 -70.5t117.5 -26zM347 840h-90l126 160h93l126 -160h-90l-82 119z" />
    <glyph glyph-name="Otilde" unicode="&#xd5;" horiz-adv-x="857" 
d="M428 -14q-86 0 -158 30.5t-124.5 85.5t-81.5 128t-29 158t29 158t81.5 127.5t124.5 85t158 30.5t158 -30t125 -84.5t82 -127.5t29 -159q0 -85 -29 -158t-82 -128t-125 -85.5t-158 -30.5zM427 66q65 0 118 26t91 70.5t58 103t20 122.5q0 65 -20 123t-58 102.5t-91 70
t-118 25.5t-117.5 -25.5t-89.5 -70.5t-57 -102.5t-20 -122.5q0 -64 20 -122.5t57 -103t89.5 -70.5t117.5 -26zM544 987h60q0 -68 -24.5 -107.5t-73.5 -39.5q-31 0 -53.5 14.5t-39 33t-31 33t-29.5 14.5q-38 0 -38 -87h-60q0 68 24.5 110t73.5 42q31 0 53.5 -14.5t39 -33
t31 -33t29.5 -14.5q38 0 38 82z" />
    <glyph glyph-name="Odieresis" unicode="&#xd6;" horiz-adv-x="857" 
d="M428 -14q-86 0 -158 30.5t-124.5 85.5t-81.5 128t-29 158t29 158t81.5 127.5t124.5 85t158 30.5t158 -30t125 -84.5t82 -127.5t29 -159q0 -85 -29 -158t-82 -128t-125 -85.5t-158 -30.5zM427 66q65 0 118 26t91 70.5t58 103t20 122.5q0 65 -20 123t-58 102.5t-91 70
t-118 25.5t-117.5 -25.5t-89.5 -70.5t-57 -102.5t-20 -122.5q0 -64 20 -122.5t57 -103t89.5 -70.5t117.5 -26zM303 1005l78 -78l-78 -78l-78 78zM554 1005l78 -78l-78 -78l-78 78z" />
    <glyph glyph-name="multiply" unicode="&#xd7;" horiz-adv-x="524" 
d="M30 118q49 32 81 63l94 94l-94 94q-32 31 -81 63l75 75q32 -49 63 -81l94 -94l94 94q31 32 63 81l75 -75q-49 -32 -81 -63l-94 -94l94 -94q32 -31 81 -63l-75 -75q-32 49 -63 81l-94 94l-94 -94q-31 -32 -63 -81z" />
    <glyph glyph-name="Oslash" unicode="&#xd8;" horiz-adv-x="857" 
d="M802 775q-16 -16 -39 -41.5t-52 -59.5q53 -54 82 -127t29 -159q0 -85 -29 -158t-82 -128t-125 -85.5t-158 -30.5q-61 0 -115.5 16t-100.5 45q-9 -12 -16 -24t-12 -23h-132q20 16 44 42t51 58q-52 55 -82 129t-30 159t29 158t81.5 127.5t124.5 85t158 30.5q62 0 116.5 -16
t100.5 -45q10 15 16 27t9 20h132zM143 388q0 -59 17.5 -113.5t48.5 -97.5l384 477q-34 26 -75.5 40.5t-90.5 14.5q-65 0 -117.5 -25.5t-89.5 -70.5t-57 -102.5t-20 -122.5zM427 66q65 0 118 26t91 70.5t58 103t20 122.5q0 122 -65 210l-382 -480q33 -25 73.5 -38.5
t86.5 -13.5z" />
    <glyph glyph-name="Ugrave" unicode="&#xd9;" horiz-adv-x="724" 
d="M191 775q-13 -54 -15.5 -110t-2.5 -112v-210q0 -78 14 -140.5t55 -99t120 -36.5q80 0 120.5 36.5t54.5 99t14 140.5v210q0 56 -2.5 112t-15.5 110h136q-13 -54 -15.5 -110t-2.5 -112v-210q0 -111 -29.5 -191t-93.5 -123t-166 -43t-165.5 43t-93.5 123t-30 191v210
q0 56 -2.5 112t-15.5 110h136zM356 840l-121 160h125l66 -160h-70z" />
    <glyph glyph-name="Uacute" unicode="&#xda;" horiz-adv-x="724" 
d="M191 775q-13 -54 -15.5 -110t-2.5 -112v-210q0 -78 14 -140.5t55 -99t120 -36.5q80 0 120.5 36.5t54.5 99t14 140.5v210q0 56 -2.5 112t-15.5 110h136q-13 -54 -15.5 -110t-2.5 -112v-210q0 -111 -29.5 -191t-93.5 -123t-166 -43t-165.5 43t-93.5 123t-30 191v210
q0 56 -2.5 112t-15.5 110h136zM386 840h-70l66 160h125z" />
    <glyph glyph-name="Ucircumflex" unicode="&#xdb;" horiz-adv-x="724" 
d="M191 775q-13 -54 -15.5 -110t-2.5 -112v-210q0 -78 14 -140.5t55 -99t120 -36.5q80 0 120.5 36.5t54.5 99t14 140.5v210q0 56 -2.5 112t-15.5 110h136q-13 -54 -15.5 -110t-2.5 -112v-210q0 -111 -29.5 -191t-93.5 -123t-166 -43t-165.5 43t-93.5 123t-30 191v210
q0 56 -2.5 112t-15.5 110h136zM284 840h-90l126 160h93l126 -160h-90l-82 119z" />
    <glyph glyph-name="Udieresis" unicode="&#xdc;" horiz-adv-x="724" 
d="M191 775q-13 -54 -15.5 -110t-2.5 -112v-210q0 -78 14 -140.5t55 -99t120 -36.5q80 0 120.5 36.5t54.5 99t14 140.5v210q0 56 -2.5 112t-15.5 110h136q-13 -54 -15.5 -110t-2.5 -112v-210q0 -111 -29.5 -191t-93.5 -123t-166 -43t-165.5 43t-93.5 123t-30 191v210
q0 56 -2.5 112t-15.5 110h136zM240 1005l78 -78l-78 -78l-78 78zM491 1005l78 -78l-78 -78l-78 78z" />
    <glyph glyph-name="Yacute" unicode="&#xdd;" horiz-adv-x="725" 
d="M311 222v155l-161 238q-29 43 -61 83t-69 77h150q14 -33 39.5 -74t71.5 -110l83 -119l79 118q31 47 51 79.5t33 57.5t23 48h155q-37 -38 -68.5 -78t-61.5 -82l-164 -242v-151q0 -56 2.5 -112t15.5 -110h-136q13 54 15.5 110t2.5 112zM383 840h-70l66 160h125z" />
    <glyph glyph-name="Thorn" unicode="&#xde;" horiz-adv-x="582" 
d="M206 775q-8 -36 -12 -72.5t-5 -74.5h83q78 0 141.5 -30t101 -84t37.5 -126q0 -71 -37.5 -125.5t-101 -85t-141.5 -30.5h-83q1 -37 5 -74t12 -73h-136q13 54 15.5 110t2.5 112v331q0 56 -2.5 112t-15.5 110h136zM188 227h54q102 0 152 42t50 119t-50 118.5t-152 41.5h-54
v-321z" />
    <glyph glyph-name="germandbls" unicode="&#xdf;" horiz-adv-x="676" 
d="M88 513q0 143 57 208t181 65q108 0 165.5 -52.5t57.5 -139.5q0 -55 -22 -96t-62 -68q77 -23 121.5 -83t44.5 -135q0 -65 -34.5 -116.5t-94 -81t-136.5 -29.5q-36 0 -75.5 9t-59.5 19l30 98h3q11 -16 42 -31t62 -15q74 0 117 39.5t43 106.5q0 48 -19 86.5t-69.5 61
t-143.5 22.5h-18v34q168 26 168 179q0 51 -28.5 81.5t-89.5 30.5q-73 0 -106.5 -43t-33.5 -150v-513h-118q13 54 15.5 110t2.5 112v291z" />
    <glyph glyph-name="agrave" unicode="&#xe0;" horiz-adv-x="524" 
d="M30 158q0 70 40.5 115.5t114.5 63.5t175 5q-6 74 -33 107.5t-80 33.5q-47 0 -91 -22.5t-76 -59.5h-7l-3 104q81 58 191 58q102 0 148 -61.5t47 -198.5v-83q0 -49 3.5 -83t12 -59.5t22.5 -50.5v-6l-134 -28v84h-4q-19 -44 -57 -67.5t-88 -23.5q-51 0 -92 22.5t-65 61.5
t-24 88zM128 158q0 -44 27 -68t76 -24q35 0 63.5 15.5t46.5 42t20 58.5v97q-106 12 -169.5 -19.5t-63.5 -101.5zM250 615l-121 160h125l66 -160h-70z" />
    <glyph glyph-name="aacute" unicode="&#xe1;" horiz-adv-x="524" 
d="M30 158q0 70 40.5 115.5t114.5 63.5t175 5q-6 74 -33 107.5t-80 33.5q-47 0 -91 -22.5t-76 -59.5h-7l-3 104q81 58 191 58q102 0 148 -61.5t47 -198.5v-83q0 -49 3.5 -83t12 -59.5t22.5 -50.5v-6l-134 -28v84h-4q-19 -44 -57 -67.5t-88 -23.5q-51 0 -92 22.5t-65 61.5
t-24 88zM128 158q0 -44 27 -68t76 -24q35 0 63.5 15.5t46.5 42t20 58.5v97q-106 12 -169.5 -19.5t-63.5 -101.5zM280 615h-70l66 160h125z" />
    <glyph glyph-name="acircumflex" unicode="&#xe2;" horiz-adv-x="524" 
d="M30 158q0 70 40.5 115.5t114.5 63.5t175 5q-6 74 -33 107.5t-80 33.5q-47 0 -91 -22.5t-76 -59.5h-7l-3 104q81 58 191 58q102 0 148 -61.5t47 -198.5v-83q0 -49 3.5 -83t12 -59.5t22.5 -50.5v-6l-134 -28v84h-4q-19 -44 -57 -67.5t-88 -23.5q-51 0 -92 22.5t-65 61.5
t-24 88zM128 158q0 -44 27 -68t76 -24q35 0 63.5 15.5t46.5 42t20 58.5v97q-106 12 -169.5 -19.5t-63.5 -101.5zM178 615h-90l126 160h93l126 -160h-90l-82 119z" />
    <glyph glyph-name="atilde" unicode="&#xe3;" horiz-adv-x="524" 
d="M30 158q0 70 40.5 115.5t114.5 63.5t175 5q-6 74 -33 107.5t-80 33.5q-47 0 -91 -22.5t-76 -59.5h-7l-3 104q81 58 191 58q102 0 148 -61.5t47 -198.5v-83q0 -49 3.5 -83t12 -59.5t22.5 -50.5v-6l-134 -28v84h-4q-19 -44 -57 -67.5t-88 -23.5q-51 0 -92 22.5t-65 61.5
t-24 88zM128 158q0 -44 27 -68t76 -24q35 0 63.5 15.5t46.5 42t20 58.5v97q-106 12 -169.5 -19.5t-63.5 -101.5zM375 762h60q0 -68 -24.5 -107.5t-73.5 -39.5q-31 0 -53.5 14.5t-39 33t-31 33t-29.5 14.5q-38 0 -38 -87h-60q0 68 24.5 110t73.5 42q31 0 53.5 -14.5t39 -33
t31 -33t29.5 -14.5q38 0 38 82z" />
    <glyph glyph-name="adieresis" unicode="&#xe4;" horiz-adv-x="524" 
d="M30 158q0 70 40.5 115.5t114.5 63.5t175 5q-6 74 -33 107.5t-80 33.5q-47 0 -91 -22.5t-76 -59.5h-7l-3 104q81 58 191 58q102 0 148 -61.5t47 -198.5v-83q0 -49 3.5 -83t12 -59.5t22.5 -50.5v-6l-134 -28v84h-4q-19 -44 -57 -67.5t-88 -23.5q-51 0 -92 22.5t-65 61.5
t-24 88zM128 158q0 -44 27 -68t76 -24q35 0 63.5 15.5t46.5 42t20 58.5v97q-106 12 -169.5 -19.5t-63.5 -101.5zM134 780l78 -78l-78 -78l-78 78zM385 780l78 -78l-78 -78l-78 78z" />
    <glyph glyph-name="aring" unicode="&#xe5;" horiz-adv-x="524" 
d="M30 158q0 70 40.5 115.5t114.5 63.5t175 5q-6 74 -33 107.5t-80 33.5q-47 0 -91 -22.5t-76 -59.5h-7l-3 104q81 58 191 58q102 0 148 -61.5t47 -198.5v-83q0 -49 3.5 -83t12 -59.5t22.5 -50.5v-6l-134 -28v84h-4q-19 -44 -57 -67.5t-88 -23.5q-51 0 -92 22.5t-65 61.5
t-24 88zM128 158q0 -44 27 -68t76 -24q35 0 63.5 15.5t46.5 42t20 58.5v97q-106 12 -169.5 -19.5t-63.5 -101.5zM260 597q-39 0 -66 28t-27 67t27 66t66 27t66 -27t27 -66t-27 -67t-66 -28zM260 651q17 0 28.5 12t11.5 28q0 17 -11.5 28.5t-28.5 11.5q-16 0 -28 -11.5
t-12 -28.5q0 -16 12 -28t28 -12z" />
    <glyph glyph-name="ae" unicode="&#xe6;" horiz-adv-x="890" 
d="M406 116q-25 -70 -74 -100.5t-121 -30.5q-51 0 -92 22.5t-65 62t-24 88.5q0 70 40.5 115.5t114.5 63.5t175 5q-6 74 -33 107.5t-80 33.5q-47 0 -91 -22.5t-76 -59.5h-7l-3 104q81 58 191 58q64 0 105.5 -23.5t63.5 -73.5q8 9 16 17.5t16 15.5q35 31 79.5 48t93.5 17
q75 0 126 -38.5t77.5 -104t26.5 -147.5h-406q0 -57 26.5 -104.5t72 -75.5t101.5 -28t92.5 20t58.5 53l36 -31q-11 -22 -35.5 -50.5t-67 -50t-107.5 -21.5q-71 1 -131.5 36t-98.5 94zM467 349h294q-11 62 -44 98.5t-92 36.5q-64 0 -104 -36.5t-54 -98.5zM128 158
q0 -44 27 -68.5t76 -24.5q36 0 65.5 17t47 45t17.5 61v91q-106 12 -169.5 -19.5t-63.5 -101.5z" />
    <glyph glyph-name="ccedilla" unicode="&#xe7;" horiz-adv-x="530" 
d="M515 108q-11 -22 -35.5 -50.5t-67 -50t-107.5 -21.5q-56 0 -105.5 22t-88 61t-60 91.5t-21.5 113.5t21.5 114t60 92.5t88 61.5t105.5 22q62 0 106.5 -17t73.5 -41l-3 -114h-7q-22 37 -62.5 64.5t-107.5 27.5q-54 0 -93.5 -27t-61.5 -74t-22 -109q0 -63 28.5 -110
t74.5 -72.5t97 -25.5q56 0 92.5 20t58.5 53zM245 -112l56 112h55l-37 -68q55 1 91 -26.5t36 -65.5q0 -44 -42.5 -72t-110.5 -28q-102 0 -155 67l38 65h3q34 -83 114 -83q32 0 51 14t19 39q0 23 -28.5 41t-79.5 7z" />
    <glyph glyph-name="egrave" unicode="&#xe8;" horiz-adv-x="559" 
d="M305 -14q-56 0 -105.5 22t-88 61t-60 91.5t-21.5 113.5t21.5 114t59.5 92.5t87.5 61.5t105.5 22q75 0 126 -38.5t77.5 -104t26.5 -147.5h-406q0 -57 26.5 -104.5t72 -75.5t101.5 -28t92.5 20t58.5 53l36 -31q-11 -22 -35.5 -50.5t-67 -50t-107.5 -21.5zM136 349h294
q-11 62 -44 98.5t-92 36.5q-64 0 -104 -36.5t-54 -98.5zM287 615l-121 160h125l66 -160h-70z" />
    <glyph glyph-name="eacute" unicode="&#xe9;" horiz-adv-x="559" 
d="M305 -14q-56 0 -105.5 22t-88 61t-60 91.5t-21.5 113.5t21.5 114t59.5 92.5t87.5 61.5t105.5 22q75 0 126 -38.5t77.5 -104t26.5 -147.5h-406q0 -57 26.5 -104.5t72 -75.5t101.5 -28t92.5 20t58.5 53l36 -31q-11 -22 -35.5 -50.5t-67 -50t-107.5 -21.5zM136 349h294
q-11 62 -44 98.5t-92 36.5q-64 0 -104 -36.5t-54 -98.5zM317 615h-70l66 160h125z" />
    <glyph glyph-name="ecircumflex" unicode="&#xea;" horiz-adv-x="559" 
d="M305 -14q-56 0 -105.5 22t-88 61t-60 91.5t-21.5 113.5t21.5 114t59.5 92.5t87.5 61.5t105.5 22q75 0 126 -38.5t77.5 -104t26.5 -147.5h-406q0 -57 26.5 -104.5t72 -75.5t101.5 -28t92.5 20t58.5 53l36 -31q-11 -22 -35.5 -50.5t-67 -50t-107.5 -21.5zM136 349h294
q-11 62 -44 98.5t-92 36.5q-64 0 -104 -36.5t-54 -98.5zM215 615h-90l126 160h93l126 -160h-90l-82 119z" />
    <glyph glyph-name="edieresis" unicode="&#xeb;" horiz-adv-x="559" 
d="M305 -14q-56 0 -105.5 22t-88 61t-60 91.5t-21.5 113.5t21.5 114t59.5 92.5t87.5 61.5t105.5 22q75 0 126 -38.5t77.5 -104t26.5 -147.5h-406q0 -57 26.5 -104.5t72 -75.5t101.5 -28t92.5 20t58.5 53l36 -31q-11 -22 -35.5 -50.5t-67 -50t-107.5 -21.5zM136 349h294
q-11 62 -44 98.5t-92 36.5q-64 0 -104 -36.5t-54 -98.5zM171 780l78 -78l-78 -78l-78 78zM422 780l78 -78l-78 -78l-78 78z" />
    <glyph glyph-name="igrave" unicode="&#xec;" horiz-adv-x="257" 
d="M94 222v108q0 54 -4 88.5t-12 58.5t-22 46v6l133 28v-335q0 -56 2.5 -112t15.5 -110h-131q13 54 15.5 110t2.5 112zM121 615l-121 160h125l66 -160h-70z" />
    <glyph glyph-name="iacute" unicode="&#xed;" horiz-adv-x="257" 
d="M94 222v108q0 54 -4 88.5t-12 58.5t-22 46v6l133 28v-335q0 -56 2.5 -112t15.5 -110h-131q13 54 15.5 110t2.5 112zM151 615h-70l66 160h125z" />
    <glyph glyph-name="icircumflex" unicode="&#xee;" horiz-adv-x="257" 
d="M94 222v108q0 54 -4 88.5t-12 58.5t-22 46v6l133 28v-335q0 -56 2.5 -112t15.5 -110h-131q13 54 15.5 110t2.5 112zM49 615h-90l126 160h93l126 -160h-90l-82 119z" />
    <glyph glyph-name="idieresis" unicode="&#xef;" horiz-adv-x="257" 
d="M94 222v108q0 54 -4 88.5t-12 58.5t-22 46v6l133 28v-335q0 -56 2.5 -112t15.5 -110h-131q13 54 15.5 110t2.5 112zM5 780l78 -78l-78 -78l-78 78zM256 780l78 -78l-78 -78l-78 78z" />
    <glyph glyph-name="eth" unicode="&#xf0;" horiz-adv-x="662" 
d="M274 -14q-70 0 -118.5 24t-77 63t-40 86.5t-7.5 94.5q7 81 46.5 142t101.5 94.5t137 33.5q56 0 93 -17.5t59 -44t33 -55.5q1 53 -10 98t-32 82q-35 0 -60.5 -0.5t-49.5 -3t-56 -9.5v96q32 -6 55.5 -8.5t49.5 -3.5q-32 24 -72.5 37.5t-88.5 13.5v80q99 1 170.5 -35
t114.5 -97q34 1 61 3.5t64 9.5v-96q-25 5 -45 8t-40 4q19 -46 26 -99t2 -109q-9 -118 -49.5 -206.5t-107.5 -137t-159 -48.5zM129 254q-7 -91 34 -139.5t111 -48.5q43 0 85 21.5t71 63.5t34 103q8 93 -35.5 141.5t-113.5 48.5q-46 0 -87 -22t-67.5 -64t-31.5 -104z" />
    <glyph glyph-name="ntilde" unicode="&#xf1;" horiz-adv-x="584" 
d="M431 299q0 32 -3 64.5t-13 59.5t-32 44t-60 17q-59 0 -90.5 -28t-44 -71t-15.5 -90v-73q0 -56 2.5 -112t15.5 -110h-131q13 54 15.5 110t2.5 112v108q0 54 -4 88.5t-12 58.5t-22 46v6l133 28v-81h7q15 25 32.5 44.5t46.5 31.5t78 12q60 0 97.5 -22.5t57 -60.5t27 -85
t7.5 -97v-77q0 -56 2.5 -112t15.5 -110h-131q13 54 15.5 110t2.5 112v77zM403 762h60q0 -68 -24.5 -107.5t-73.5 -39.5q-31 0 -53.5 14.5t-39 33t-31 33t-29.5 14.5q-38 0 -38 -87h-60q0 68 24.5 110t73.5 42q31 0 53.5 -14.5t39 -33t31 -33t29.5 -14.5q38 0 38 82z" />
    <glyph glyph-name="ograve" unicode="&#xf2;" horiz-adv-x="611" 
d="M305 -14q-79 0 -141.5 38t-98 103.5t-35.5 146.5q0 82 35.5 147.5t98 104t141.5 38.5q80 0 142 -38.5t98 -104t36 -147.5q0 -81 -36 -146.5t-98 -103.5t-142 -38zM304 66q52 0 92 26.5t63.5 73.5t23.5 108q0 62 -23.5 109.5t-63.5 74t-92 26.5q-51 0 -91 -27t-62.5 -74
t-22.5 -109q0 -61 22.5 -108t62.5 -73.5t91 -26.5zM296 615l-121 160h125l66 -160h-70z" />
    <glyph glyph-name="oacute" unicode="&#xf3;" horiz-adv-x="611" 
d="M305 -14q-79 0 -141.5 38t-98 103.5t-35.5 146.5q0 82 35.5 147.5t98 104t141.5 38.5q80 0 142 -38.5t98 -104t36 -147.5q0 -81 -36 -146.5t-98 -103.5t-142 -38zM304 66q52 0 92 26.5t63.5 73.5t23.5 108q0 62 -23.5 109.5t-63.5 74t-92 26.5q-51 0 -91 -27t-62.5 -74
t-22.5 -109q0 -61 22.5 -108t62.5 -73.5t91 -26.5zM326 615h-70l66 160h125z" />
    <glyph glyph-name="ocircumflex" unicode="&#xf4;" horiz-adv-x="611" 
d="M305 -14q-79 0 -141.5 38t-98 103.5t-35.5 146.5q0 82 35.5 147.5t98 104t141.5 38.5q80 0 142 -38.5t98 -104t36 -147.5q0 -81 -36 -146.5t-98 -103.5t-142 -38zM304 66q52 0 92 26.5t63.5 73.5t23.5 108q0 62 -23.5 109.5t-63.5 74t-92 26.5q-51 0 -91 -27t-62.5 -74
t-22.5 -109q0 -61 22.5 -108t62.5 -73.5t91 -26.5zM224 615h-90l126 160h93l126 -160h-90l-82 119z" />
    <glyph glyph-name="otilde" unicode="&#xf5;" horiz-adv-x="611" 
d="M305 -14q-79 0 -141.5 38t-98 103.5t-35.5 146.5q0 82 35.5 147.5t98 104t141.5 38.5q80 0 142 -38.5t98 -104t36 -147.5q0 -81 -36 -146.5t-98 -103.5t-142 -38zM304 66q52 0 92 26.5t63.5 73.5t23.5 108q0 62 -23.5 109.5t-63.5 74t-92 26.5q-51 0 -91 -27t-62.5 -74
t-22.5 -109q0 -61 22.5 -108t62.5 -73.5t91 -26.5zM421 762h60q0 -68 -24.5 -107.5t-73.5 -39.5q-31 0 -53.5 14.5t-39 33t-31 33t-29.5 14.5q-38 0 -38 -87h-60q0 68 24.5 110t73.5 42q31 0 53.5 -14.5t39 -33t31 -33t29.5 -14.5q38 0 38 82z" />
    <glyph glyph-name="odieresis" unicode="&#xf6;" horiz-adv-x="611" 
d="M305 -14q-79 0 -141.5 38t-98 103.5t-35.5 146.5q0 82 35.5 147.5t98 104t141.5 38.5q80 0 142 -38.5t98 -104t36 -147.5q0 -81 -36 -146.5t-98 -103.5t-142 -38zM304 66q52 0 92 26.5t63.5 73.5t23.5 108q0 62 -23.5 109.5t-63.5 74t-92 26.5q-51 0 -91 -27t-62.5 -74
t-22.5 -109q0 -61 22.5 -108t62.5 -73.5t91 -26.5zM180 780l78 -78l-78 -78l-78 78zM431 780l78 -78l-78 -78l-78 78z" />
    <glyph glyph-name="divide" unicode="&#xf7;" horiz-adv-x="600" 
d="M295 507l67 -67l-67 -67l-67 67zM20 328q33 -6 57.5 -9t51 -3.5t63.5 -0.5h206q38 0 64 0.5t50.5 3.5t57.5 9v-106q-33 7 -57.5 9.5t-50.5 3t-64 0.5h-206q-37 0 -63.5 -0.5t-51 -3t-57.5 -9.5v106zM295 175l67 -67l-67 -67l-67 67z" />
    <glyph glyph-name="oslash" unicode="&#xf8;" horiz-adv-x="630" 
d="M315 -14q-39 0 -74.5 10t-66.5 28q-7 -12 -12 -24h-132q17 14 36.5 34.5t41.5 45.5q-32 38 -50 87.5t-18 106.5q0 82 35.5 147.5t98 104t141.5 38.5q40 0 75.5 -10t66.5 -29q8 16 11 25h132q-14 -14 -33 -35t-43 -48q32 -38 49.5 -87.5t17.5 -105.5q0 -81 -36 -146.5
t-98 -103.5t-142 -38zM138 274q0 -35 8 -65.5t21 -55.5l28 34l148 181q19 23 36 45t31 41q-43 30 -96 30q-51 0 -91 -27t-62.5 -74t-22.5 -109zM314 66q52 0 92 26.5t63.5 73.5t23.5 108q0 35 -7.5 65t-21.5 55l-41 -51l-158 -201l-40 -51q39 -25 89 -25z" />
    <glyph glyph-name="ugrave" unicode="&#xf9;" horiz-adv-x="563" 
d="M143 252q0 -31 2.5 -64t11.5 -60t30.5 -44t58.5 -17q58 0 88.5 28t42.5 71.5t14 89.5v73q0 56 -2.5 112t-15.5 110h113v-330q0 -54 3.5 -86.5t13 -55.5t25.5 -48v-6l-127 -31l-10 81h-7q-14 -24 -31 -44t-45 -32t-76 -12q-59 0 -95.5 22.5t-55.5 60.5t-26 85.5t-7 96.5
v77q0 56 -2.5 112t-15.5 110h113v-299zM252 615l-121 160h125l66 -160h-70z" />
    <glyph glyph-name="uacute" unicode="&#xfa;" horiz-adv-x="563" 
d="M143 252q0 -31 2.5 -64t11.5 -60t30.5 -44t58.5 -17q58 0 88.5 28t42.5 71.5t14 89.5v73q0 56 -2.5 112t-15.5 110h113v-330q0 -54 3.5 -86.5t13 -55.5t25.5 -48v-6l-127 -31l-10 81h-7q-14 -24 -31 -44t-45 -32t-76 -12q-59 0 -95.5 22.5t-55.5 60.5t-26 85.5t-7 96.5
v77q0 56 -2.5 112t-15.5 110h113v-299zM282 615h-70l66 160h125z" />
    <glyph glyph-name="ucircumflex" unicode="&#xfb;" horiz-adv-x="563" 
d="M143 252q0 -31 2.5 -64t11.5 -60t30.5 -44t58.5 -17q58 0 88.5 28t42.5 71.5t14 89.5v73q0 56 -2.5 112t-15.5 110h113v-330q0 -54 3.5 -86.5t13 -55.5t25.5 -48v-6l-127 -31l-10 81h-7q-14 -24 -31 -44t-45 -32t-76 -12q-59 0 -95.5 22.5t-55.5 60.5t-26 85.5t-7 96.5
v77q0 56 -2.5 112t-15.5 110h113v-299zM180 615h-90l126 160h93l126 -160h-90l-82 119z" />
    <glyph glyph-name="udieresis" unicode="&#xfc;" horiz-adv-x="563" 
d="M143 252q0 -31 2.5 -64t11.5 -60t30.5 -44t58.5 -17q58 0 88.5 28t42.5 71.5t14 89.5v73q0 56 -2.5 112t-15.5 110h113v-330q0 -54 3.5 -86.5t13 -55.5t25.5 -48v-6l-127 -31l-10 81h-7q-14 -24 -31 -44t-45 -32t-76 -12q-59 0 -95.5 22.5t-55.5 60.5t-26 85.5t-7 96.5
v77q0 56 -2.5 112t-15.5 110h113v-299zM136 780l78 -78l-78 -78l-78 78zM387 780l78 -78l-78 -78l-78 78z" />
    <glyph glyph-name="yacute" unicode="&#xfd;" horiz-adv-x="610" 
d="M350 0q-37 -88 -58 -151.5t-29 -107.5h-136q30 45 62 109t69 154l-142 346q-31 75 -53.5 119t-47.5 81h134q6 -36 20 -78.5t42 -113.5l95 -246l99 246q29 71 42.5 113.5t20.5 78.5h127q-25 -37 -47 -81t-54 -119zM325 615h-70l66 160h125z" />
    <glyph glyph-name="thorn" unicode="&#xfe;" horiz-adv-x="612" 
d="M163 476h6q52 88 160 88q73 0 130 -37.5t90 -103t33 -149.5q0 -83 -32 -148t-87.5 -102.5t-126.5 -37.5q-42 0 -72.5 12t-50.5 29.5t-31.5 34.5t-16.5 27h-2v-127q0 -56 2.5 -112t15.5 -110h-131q13 54 15.5 110t2.5 112v591q0 54 -4 88.5t-12 58.5t-22 46v6l133 28v-304
zM163 228q0 -73 41 -117.5t111 -44.5q78 0 123.5 56t45.5 152t-42.5 153t-113.5 57q-53 0 -89 -28t-54.5 -71t-21.5 -90v-67z" />
    <glyph glyph-name="ydieresis" unicode="&#xff;" horiz-adv-x="610" 
d="M350 0q-37 -88 -58 -151.5t-29 -107.5h-136q30 45 62 109t69 154l-142 346q-31 75 -53.5 119t-47.5 81h134q6 -36 20 -78.5t42 -113.5l95 -246l99 246q29 71 42.5 113.5t20.5 78.5h127q-25 -37 -47 -81t-54 -119zM179 780l78 -78l-78 -78l-78 78zM430 780l78 -78l-78 -78
l-78 78z" />
    <glyph glyph-name="Amacron" unicode="&#x100;" horiz-adv-x="806" 
d="M352 775h102l248 -600q20 -44 41.5 -84.5t52.5 -90.5h-141q-6 32 -17 70.5t-37 104.5l-23 55h-350l-23 -55q-25 -66 -36.5 -104.5t-17.5 -70.5h-141q31 47 51.5 85.5t38.5 79.5zM261 310h284l-142 344zM266 964h274v-65h-274v65z" />
    <glyph glyph-name="amacron" unicode="&#x101;" horiz-adv-x="524" 
d="M30 158q0 70 40.5 115.5t114.5 63.5t175 5q-6 74 -33 107.5t-80 33.5q-47 0 -91 -22.5t-76 -59.5h-7l-3 104q81 58 191 58q102 0 148 -61.5t47 -198.5v-83q0 -49 3.5 -83t12 -59.5t22.5 -50.5v-6l-134 -28v84h-4q-19 -44 -57 -67.5t-88 -23.5q-51 0 -92 22.5t-65 61.5
t-24 88zM128 158q0 -44 27 -68t76 -24q35 0 63.5 15.5t46.5 42t20 58.5v97q-106 12 -169.5 -19.5t-63.5 -101.5zM123 739h274v-65h-274v65z" />
    <glyph glyph-name="Abreve" unicode="&#x102;" horiz-adv-x="806" 
d="M352 775h102l248 -600q20 -44 41.5 -84.5t52.5 -90.5h-141q-6 32 -17 70.5t-37 104.5l-23 55h-350l-23 -55q-25 -66 -36.5 -104.5t-17.5 -70.5h-141q31 47 51.5 85.5t38.5 79.5zM261 310h284l-142 344zM404 840q-48 0 -77 24t-42 60.5t-13 75.5h60q0 -20 5 -42
t20.5 -37.5t46.5 -15.5q32 0 47 15.5t20 37.5t5 42h60q0 -39 -13 -75.5t-42 -60.5t-77 -24z" />
    <glyph glyph-name="abreve" unicode="&#x103;" horiz-adv-x="524" 
d="M30 158q0 70 40.5 115.5t114.5 63.5t175 5q-6 74 -33 107.5t-80 33.5q-47 0 -91 -22.5t-76 -59.5h-7l-3 104q81 58 191 58q102 0 148 -61.5t47 -198.5v-83q0 -49 3.5 -83t12 -59.5t22.5 -50.5v-6l-134 -28v84h-4q-19 -44 -57 -67.5t-88 -23.5q-51 0 -92 22.5t-65 61.5
t-24 88zM128 158q0 -44 27 -68t76 -24q35 0 63.5 15.5t46.5 42t20 58.5v97q-106 12 -169.5 -19.5t-63.5 -101.5zM261 615q-48 0 -77 24t-42 60.5t-13 75.5h60q0 -20 5 -42t20.5 -37.5t46.5 -15.5q32 0 47 15.5t20 37.5t5 42h60q0 -39 -13 -75.5t-42 -60.5t-77 -24z" />
    <glyph glyph-name="Aogonek" unicode="&#x104;" horiz-adv-x="806" 
d="M352 775h102l248 -600q20 -44 41.5 -84.5t52.5 -90.5h-141q-6 32 -17 70.5t-37 104.5l-23 55h-350l-23 -55q-25 -66 -36.5 -104.5t-17.5 -70.5h-141q31 47 51.5 85.5t38.5 79.5zM261 310h284l-142 344zM797 0q-56 -19 -87 -55.5t-31 -82.5q0 -73 70 -73q38 0 68 22t46 61
h3l38 -65q-25 -32 -65.5 -49.5t-89.5 -17.5q-68 0 -110.5 33t-42.5 87q0 48 44 85t144 74z" />
    <glyph glyph-name="aogonek" unicode="&#x105;" horiz-adv-x="524" 
d="M30 158q0 70 40.5 115.5t114.5 63.5t175 5q-6 74 -33 107.5t-80 33.5q-47 0 -91 -22.5t-76 -59.5h-7l-3 104q81 58 191 58q102 0 148 -61.5t47 -198.5v-83q0 -49 3.5 -83t12 -59.5t22.5 -50.5v-6l-134 -28v84h-4q-19 -44 -57 -67.5t-88 -23.5q-51 0 -92 22.5t-65 61.5
t-24 88zM128 158q0 -44 27 -68t76 -24q35 0 63.5 15.5t46.5 42t20 58.5v97q-106 12 -169.5 -19.5t-63.5 -101.5zM393 0q-56 -19 -87 -55.5t-31 -82.5q0 -73 70 -73q38 0 68 22t46 61h3l38 -65q-25 -32 -65.5 -49.5t-89.5 -17.5q-68 0 -110.5 33t-42.5 87q0 48 44 85t144 74z
" />
    <glyph glyph-name="Cacute" unicode="&#x106;" horiz-adv-x="747" 
d="M703 208h4l-16 -146q-49 -38 -109 -57t-155 -19q-85 0 -157 30.5t-124.5 85.5t-81.5 128t-29 158t29 158t82 127.5t124.5 85t156.5 30.5q92 0 152.5 -19t109.5 -57l16 -145h-4q-40 61 -106 101t-168 40q-63 0 -115.5 -25t-90 -69.5t-58 -102.5t-20.5 -124t20.5 -124
t58 -102.5t90 -70t115.5 -25.5q107 0 171.5 40.5t104.5 101.5zM447 840h-70l66 160h125z" />
    <glyph glyph-name="cacute" unicode="&#x107;" horiz-adv-x="530" 
d="M515 108q-11 -22 -35.5 -50.5t-67 -50t-107.5 -21.5q-56 0 -105.5 22t-88 61t-60 91.5t-21.5 113.5t21.5 114t60 92.5t88 61.5t105.5 22q62 0 106.5 -17t73.5 -41l-3 -114h-7q-22 37 -62.5 64.5t-107.5 27.5q-54 0 -93.5 -27t-61.5 -74t-22 -109q0 -63 28.5 -110
t74.5 -72.5t97 -25.5q56 0 92.5 20t58.5 53zM323 615h-70l66 160h125z" />
    <glyph glyph-name="Ccircumflex" unicode="&#x108;" horiz-adv-x="747" 
d="M703 208h4l-16 -146q-49 -38 -109 -57t-155 -19q-85 0 -157 30.5t-124.5 85.5t-81.5 128t-29 158t29 158t82 127.5t124.5 85t156.5 30.5q92 0 152.5 -19t109.5 -57l16 -145h-4q-40 61 -106 101t-168 40q-63 0 -115.5 -25t-90 -69.5t-58 -102.5t-20.5 -124t20.5 -124
t58 -102.5t90 -70t115.5 -25.5q107 0 171.5 40.5t104.5 101.5zM345 840h-90l126 160h93l126 -160h-90l-82 119z" />
    <glyph glyph-name="ccircumflex" unicode="&#x109;" horiz-adv-x="530" 
d="M515 108q-11 -22 -35.5 -50.5t-67 -50t-107.5 -21.5q-56 0 -105.5 22t-88 61t-60 91.5t-21.5 113.5t21.5 114t60 92.5t88 61.5t105.5 22q62 0 106.5 -17t73.5 -41l-3 -114h-7q-22 37 -62.5 64.5t-107.5 27.5q-54 0 -93.5 -27t-61.5 -74t-22 -109q0 -63 28.5 -110
t74.5 -72.5t97 -25.5q56 0 92.5 20t58.5 53zM221 615h-90l126 160h93l126 -160h-90l-82 119z" />
    <glyph glyph-name="Cdotaccent" unicode="&#x10a;" horiz-adv-x="747" 
d="M703 208h4l-16 -146q-49 -38 -109 -57t-155 -19q-85 0 -157 30.5t-124.5 85.5t-81.5 128t-29 158t29 158t82 127.5t124.5 85t156.5 30.5q92 0 152.5 -19t109.5 -57l16 -145h-4q-40 61 -106 101t-168 40q-63 0 -115.5 -25t-90 -69.5t-58 -102.5t-20.5 -124t20.5 -124
t58 -102.5t90 -70t115.5 -25.5q107 0 171.5 40.5t104.5 101.5zM427 840q-33 0 -56.5 23.5t-23.5 56.5t23.5 56.5t56.5 23.5t56.5 -23.5t23.5 -56.5t-23.5 -56.5t-56.5 -23.5z" />
    <glyph glyph-name="cdotaccent" unicode="&#x10b;" horiz-adv-x="530" 
d="M515 108q-11 -22 -35.5 -50.5t-67 -50t-107.5 -21.5q-56 0 -105.5 22t-88 61t-60 91.5t-21.5 113.5t21.5 114t60 92.5t88 61.5t105.5 22q62 0 106.5 -17t73.5 -41l-3 -114h-7q-22 37 -62.5 64.5t-107.5 27.5q-54 0 -93.5 -27t-61.5 -74t-22 -109q0 -63 28.5 -110
t74.5 -72.5t97 -25.5q56 0 92.5 20t58.5 53zM303 615q-33 0 -56.5 23.5t-23.5 56.5t23.5 56.5t56.5 23.5t56.5 -23.5t23.5 -56.5t-23.5 -56.5t-56.5 -23.5z" />
    <glyph glyph-name="Ccaron" unicode="&#x10c;" horiz-adv-x="747" 
d="M703 208h4l-16 -146q-49 -38 -109 -57t-155 -19q-85 0 -157 30.5t-124.5 85.5t-81.5 128t-29 158t29 158t82 127.5t124.5 85t156.5 30.5q92 0 152.5 -19t109.5 -57l16 -145h-4q-40 61 -106 101t-168 40q-63 0 -115.5 -25t-90 -69.5t-58 -102.5t-20.5 -124t20.5 -124
t58 -102.5t90 -70t115.5 -25.5q107 0 171.5 40.5t104.5 101.5zM345 1000l83 -119l82 119h90l-126 -160h-93l-126 160h90z" />
    <glyph glyph-name="ccaron" unicode="&#x10d;" horiz-adv-x="530" 
d="M515 108q-11 -22 -35.5 -50.5t-67 -50t-107.5 -21.5q-56 0 -105.5 22t-88 61t-60 91.5t-21.5 113.5t21.5 114t60 92.5t88 61.5t105.5 22q62 0 106.5 -17t73.5 -41l-3 -114h-7q-22 37 -62.5 64.5t-107.5 27.5q-54 0 -93.5 -27t-61.5 -74t-22 -109q0 -63 28.5 -110
t74.5 -72.5t97 -25.5q56 0 92.5 20t58.5 53zM221 775l83 -119l82 119h90l-126 -160h-93l-126 160h90z" />
    <glyph glyph-name="Dcaron" unicode="&#x10e;" horiz-adv-x="764" 
d="M333 775q102 0 176.5 -35.5t123.5 -93t72.5 -125.5t23.5 -133t-23.5 -133t-72.5 -126t-123.5 -93.5t-176.5 -35.5h-263q13 54 15.5 110t2.5 112v331q0 56 -2.5 112t-15.5 110h263zM188 80h115q95 0 156.5 29t97 75.5t50 100t14.5 103.5t-14.5 103.5t-50 100t-97 75
t-156.5 28.5h-115v-615zM305 1000l83 -119l82 119h90l-126 -160h-93l-126 160h90z" />
    <glyph glyph-name="dcaron" unicode="&#x10f;" horiz-adv-x="627" 
d="M545 221q0 -54 3.5 -88.5t12 -58t21.5 -46.5v-6l-133 -28l1 95h-3q-24 -49 -69.5 -76t-101.5 -27q-68 0 -124 38.5t-89 104t-33 145.5q0 82 33.5 147.5t91 104t128.5 38.5q53 0 94 -22.5t66 -65.5h7v77q0 54 -4 88.5t-12 58.5t-22 46v6l133 28v-559zM450 308
q-4 45 -23.5 85t-54.5 65.5t-88 25.5q-73 0 -114.5 -55.5t-41.5 -154.5q0 -95 46 -151.5t123 -56.5q64 0 105.5 39t47.5 102v101zM640 780l59 -61l-79 -136l-24 7l30 83l-47 46z" />
    <glyph glyph-name="Dcroat" unicode="&#x110;" horiz-adv-x="832" 
d="M401 775q102 0 176.5 -35.5t123.5 -93t72.5 -125.5t23.5 -133t-23.5 -133t-72.5 -126t-123.5 -93.5t-176.5 -35.5h-263q13 54 15.5 110t2.5 112v139q-38 0 -66.5 -2.5t-69.5 -10.5v96q41 -8 69.5 -10.5t66.5 -2.5v122q0 56 -2.5 112t-15.5 110h263zM256 80h115
q95 0 156.5 29t97 75.5t50 100t14.5 103.5t-14.5 103.5t-50 100t-97 75t-156.5 28.5h-115v-264q38 0 66 2.5t68 10.5v-96q-40 8 -68 10.5t-66 2.5v-281z" />
    <glyph glyph-name="dcroat" unicode="&#x111;" horiz-adv-x="666" 
d="M544 221q0 -54 4 -88.5t12.5 -58t21.5 -46.5v-6l-133 -28l1 95h-3q-24 -49 -69.5 -76t-101.5 -27q-68 0 -124 38.5t-89 104t-33 145.5q0 82 33.5 147.5t91 104t128.5 38.5q53 0 94 -22.5t66 -65.5h7v111q-31 -1 -56.5 -3.5t-61.5 -9.5v96q34 -7 59 -9.5t53 -3.5
q-4 29 -12 49.5t-20 39.5v6l133 28l-1 -123q29 1 53.5 3.5t58.5 9.5v-96q-34 7 -58.5 9.5t-53.5 3.5v-366zM450 308q-4 45 -23.5 85t-54.5 65.5t-88 25.5q-73 0 -114.5 -55.5t-41.5 -154.5q0 -95 46 -151.5t123 -56.5q64 0 105.5 39t47.5 102v101z" />
    <glyph glyph-name="Emacron" unicode="&#x112;" horiz-adv-x="631" 
d="M521 775l24 -118q-27 14 -56.5 22.5t-67.5 12t-93 3.5h-140v-259h85q56 0 112 2.5t110 15.5v-116q-54 13 -110 15.5t-112 2.5h-85v-276h148q82 0 143.5 8.5t101.5 29.5l-24 -118h-487q13 54 15.5 110t2.5 112v331q0 56 -2.5 112t-15.5 110h451zM179 964h274v-65h-274v65z
" />
    <glyph glyph-name="emacron" unicode="&#x113;" horiz-adv-x="559" 
d="M305 -14q-56 0 -105.5 22t-88 61t-60 91.5t-21.5 113.5t21.5 114t59.5 92.5t87.5 61.5t105.5 22q75 0 126 -38.5t77.5 -104t26.5 -147.5h-406q0 -57 26.5 -104.5t72 -75.5t101.5 -28t92.5 20t58.5 53l36 -31q-11 -22 -35.5 -50.5t-67 -50t-107.5 -21.5zM136 349h294
q-11 62 -44 98.5t-92 36.5q-64 0 -104 -36.5t-54 -98.5zM160 739h274v-65h-274v65z" />
    <glyph glyph-name="Edotaccent" unicode="&#x116;" horiz-adv-x="631" 
d="M521 775l24 -118q-27 14 -56.5 22.5t-67.5 12t-93 3.5h-140v-259h85q56 0 112 2.5t110 15.5v-116q-54 13 -110 15.5t-112 2.5h-85v-276h148q82 0 143.5 8.5t101.5 29.5l-24 -118h-487q13 54 15.5 110t2.5 112v331q0 56 -2.5 112t-15.5 110h451zM316 840q-33 0 -56.5 23.5
t-23.5 56.5t23.5 56.5t56.5 23.5t56.5 -23.5t23.5 -56.5t-23.5 -56.5t-56.5 -23.5z" />
    <glyph glyph-name="edotaccent" unicode="&#x117;" horiz-adv-x="559" 
d="M305 -14q-56 0 -105.5 22t-88 61t-60 91.5t-21.5 113.5t21.5 114t59.5 92.5t87.5 61.5t105.5 22q75 0 126 -38.5t77.5 -104t26.5 -147.5h-406q0 -57 26.5 -104.5t72 -75.5t101.5 -28t92.5 20t58.5 53l36 -31q-11 -22 -35.5 -50.5t-67 -50t-107.5 -21.5zM136 349h294
q-11 62 -44 98.5t-92 36.5q-64 0 -104 -36.5t-54 -98.5zM297 615q-33 0 -56.5 23.5t-23.5 56.5t23.5 56.5t56.5 23.5t56.5 -23.5t23.5 -56.5t-23.5 -56.5t-56.5 -23.5z" />
    <glyph glyph-name="Eogonek" unicode="&#x118;" horiz-adv-x="631" 
d="M521 775l24 -118q-27 14 -56.5 22.5t-67.5 12t-93 3.5h-140v-259h85q56 0 112 2.5t110 15.5v-116q-54 13 -110 15.5t-112 2.5h-85v-276h148q82 0 143.5 8.5t101.5 29.5l-24 -118h-487q13 54 15.5 110t2.5 112v331q0 56 -2.5 112t-15.5 110h451zM557 0q-56 -19 -87 -55.5
t-31 -82.5q0 -73 70 -73q38 0 68 22t46 61h3l38 -65q-25 -32 -65.5 -49.5t-89.5 -17.5q-68 0 -110.5 33t-42.5 87q0 48 44 85t144 74z" />
    <glyph glyph-name="eogonek" unicode="&#x119;" horiz-adv-x="559" 
d="M305 -14q-56 0 -105.5 22t-88 61t-60 91.5t-21.5 113.5t21.5 114t59.5 92.5t87.5 61.5t105.5 22q75 0 126 -38.5t77.5 -104t26.5 -147.5h-406q0 -57 26.5 -104.5t72 -75.5t101.5 -28t92.5 20t58.5 53l36 -31q-11 -22 -35.5 -50.5t-67 -50t-107.5 -21.5zM136 349h294
q-11 62 -44 98.5t-92 36.5q-64 0 -104 -36.5t-54 -98.5zM393 0q-56 -19 -87 -55.5t-31 -82.5q0 -73 70 -73q38 0 68 22t46 61h3l38 -65q-25 -32 -65.5 -49.5t-89.5 -17.5q-68 0 -110.5 33t-42.5 87q0 48 44 85t144 74z" />
    <glyph glyph-name="Ecaron" unicode="&#x11a;" horiz-adv-x="631" 
d="M521 775l24 -118q-27 14 -56.5 22.5t-67.5 12t-93 3.5h-140v-259h85q56 0 112 2.5t110 15.5v-116q-54 13 -110 15.5t-112 2.5h-85v-276h148q82 0 143.5 8.5t101.5 29.5l-24 -118h-487q13 54 15.5 110t2.5 112v331q0 56 -2.5 112t-15.5 110h451zM234 1000l83 -119l82 119
h90l-126 -160h-93l-126 160h90z" />
    <glyph glyph-name="ecaron" unicode="&#x11b;" horiz-adv-x="559" 
d="M305 -14q-56 0 -105.5 22t-88 61t-60 91.5t-21.5 113.5t21.5 114t59.5 92.5t87.5 61.5t105.5 22q75 0 126 -38.5t77.5 -104t26.5 -147.5h-406q0 -57 26.5 -104.5t72 -75.5t101.5 -28t92.5 20t58.5 53l36 -31q-11 -22 -35.5 -50.5t-67 -50t-107.5 -21.5zM136 349h294
q-11 62 -44 98.5t-92 36.5q-64 0 -104 -36.5t-54 -98.5zM215 775l83 -119l82 119h90l-126 -160h-93l-126 160h90z" />
    <glyph glyph-name="Gcircumflex" unicode="&#x11c;" horiz-adv-x="797" 
d="M727 70q-69 -45 -140 -64.5t-149 -19.5q-89 0 -163 30.5t-127.5 85.5t-83 128t-29.5 158t28.5 158t81 127.5t124 85t158.5 30.5q99 0 161 -19t111 -57l16 -145h-3q-40 61 -107.5 101t-177.5 40q-86 0 -150 -44t-99 -116.5t-35 -160.5q0 -66 22 -124t63 -102.5t97 -70
t124 -25.5q53 0 100 13t78 33v219q-45 -1 -89 -4t-88 -14v99h277v-342zM312 840h-90l126 160h93l126 -160h-90l-82 119z" />
    <glyph glyph-name="gcircumflex" unicode="&#x11d;" horiz-adv-x="582" 
d="M283 108q-71 0 -126 35q-7 -13 -10 -31.5t12 -29.5q17 -13 57 -14.5t106 -6.5q38 -2 81.5 -8t82 -21t62.5 -43.5t24 -76.5q0 -52 -26 -88t-68 -58t-92.5 -32t-99.5 -10q-81 0 -141 21.5t-92.5 60t-32.5 88.5q0 44 25 74t51 47q-16 10 -25.5 25.5t-9.5 38.5q0 36 20.5 60
t36.5 35q-29 29 -45.5 70t-16.5 91q0 70 30.5 121t82.5 79.5t114 28.5q41 0 78 -15q61 0 97 1t60 3.5t47 6.5l-10 -80h-96q23 -28 37.5 -64.5t14.5 -80.5q0 -52 -20 -94t-53 -71.5t-73.5 -45.5t-81.5 -16zM282 188q42 0 71 20.5t44.5 54.5t15.5 72q0 39 -15.5 72.5
t-44.5 54.5t-71 21q-41 0 -70 -21t-43.5 -55t-14.5 -72t14.5 -72t43.5 -54.5t70 -20.5zM118 -101q0 -48 46 -71.5t119 -23.5q50 0 93.5 12.5t70.5 36.5t27 60q0 34 -23.5 48.5t-59.5 18t-74 5.5q-39 2 -78 3.5t-72 5.5q-22 -17 -35.5 -43.5t-13.5 -51.5zM214 615h-90
l126 160h93l126 -160h-90l-82 119z" />
    <glyph glyph-name="Gbreve" unicode="&#x11e;" horiz-adv-x="797" 
d="M727 70q-69 -45 -140 -64.5t-149 -19.5q-89 0 -163 30.5t-127.5 85.5t-83 128t-29.5 158t28.5 158t81 127.5t124 85t158.5 30.5q99 0 161 -19t111 -57l16 -145h-3q-40 61 -107.5 101t-177.5 40q-86 0 -150 -44t-99 -116.5t-35 -160.5q0 -66 22 -124t63 -102.5t97 -70
t124 -25.5q53 0 100 13t78 33v219q-45 -1 -89 -4t-88 -14v99h277v-342zM395 840q-48 0 -77 24t-42 60.5t-13 75.5h60q0 -20 5 -42t20.5 -37.5t46.5 -15.5q32 0 47 15.5t20 37.5t5 42h60q0 -39 -13 -75.5t-42 -60.5t-77 -24z" />
    <glyph glyph-name="gbreve" unicode="&#x11f;" horiz-adv-x="582" 
d="M283 108q-71 0 -126 35q-7 -13 -10 -31.5t12 -29.5q17 -13 57 -14.5t106 -6.5q38 -2 81.5 -8t82 -21t62.5 -43.5t24 -76.5q0 -52 -26 -88t-68 -58t-92.5 -32t-99.5 -10q-81 0 -141 21.5t-92.5 60t-32.5 88.5q0 44 25 74t51 47q-16 10 -25.5 25.5t-9.5 38.5q0 36 20.5 60
t36.5 35q-29 29 -45.5 70t-16.5 91q0 70 30.5 121t82.5 79.5t114 28.5q41 0 78 -15q61 0 97 1t60 3.5t47 6.5l-10 -80h-96q23 -28 37.5 -64.5t14.5 -80.5q0 -52 -20 -94t-53 -71.5t-73.5 -45.5t-81.5 -16zM282 188q42 0 71 20.5t44.5 54.5t15.5 72q0 39 -15.5 72.5
t-44.5 54.5t-71 21q-41 0 -70 -21t-43.5 -55t-14.5 -72t14.5 -72t43.5 -54.5t70 -20.5zM118 -101q0 -48 46 -71.5t119 -23.5q50 0 93.5 12.5t70.5 36.5t27 60q0 34 -23.5 48.5t-59.5 18t-74 5.5q-39 2 -78 3.5t-72 5.5q-22 -17 -35.5 -43.5t-13.5 -51.5zM297 615
q-48 0 -77 24t-42 60.5t-13 75.5h60q0 -20 5 -42t20.5 -37.5t46.5 -15.5q32 0 47 15.5t20 37.5t5 42h60q0 -39 -13 -75.5t-42 -60.5t-77 -24z" />
    <glyph glyph-name="Gdotaccent" unicode="&#x120;" horiz-adv-x="797" 
d="M727 70q-69 -45 -140 -64.5t-149 -19.5q-89 0 -163 30.5t-127.5 85.5t-83 128t-29.5 158t28.5 158t81 127.5t124 85t158.5 30.5q99 0 161 -19t111 -57l16 -145h-3q-40 61 -107.5 101t-177.5 40q-86 0 -150 -44t-99 -116.5t-35 -160.5q0 -66 22 -124t63 -102.5t97 -70
t124 -25.5q53 0 100 13t78 33v219q-45 -1 -89 -4t-88 -14v99h277v-342zM394 840q-33 0 -56.5 23.5t-23.5 56.5t23.5 56.5t56.5 23.5t56.5 -23.5t23.5 -56.5t-23.5 -56.5t-56.5 -23.5z" />
    <glyph glyph-name="gdotaccent" unicode="&#x121;" horiz-adv-x="582" 
d="M283 108q-71 0 -126 35q-7 -13 -10 -31.5t12 -29.5q17 -13 57 -14.5t106 -6.5q38 -2 81.5 -8t82 -21t62.5 -43.5t24 -76.5q0 -52 -26 -88t-68 -58t-92.5 -32t-99.5 -10q-81 0 -141 21.5t-92.5 60t-32.5 88.5q0 44 25 74t51 47q-16 10 -25.5 25.5t-9.5 38.5q0 36 20.5 60
t36.5 35q-29 29 -45.5 70t-16.5 91q0 70 30.5 121t82.5 79.5t114 28.5q41 0 78 -15q61 0 97 1t60 3.5t47 6.5l-10 -80h-96q23 -28 37.5 -64.5t14.5 -80.5q0 -52 -20 -94t-53 -71.5t-73.5 -45.5t-81.5 -16zM282 188q42 0 71 20.5t44.5 54.5t15.5 72q0 39 -15.5 72.5
t-44.5 54.5t-71 21q-41 0 -70 -21t-43.5 -55t-14.5 -72t14.5 -72t43.5 -54.5t70 -20.5zM118 -101q0 -48 46 -71.5t119 -23.5q50 0 93.5 12.5t70.5 36.5t27 60q0 34 -23.5 48.5t-59.5 18t-74 5.5q-39 2 -78 3.5t-72 5.5q-22 -17 -35.5 -43.5t-13.5 -51.5zM296 615
q-33 0 -56.5 23.5t-23.5 56.5t23.5 56.5t56.5 23.5t56.5 -23.5t23.5 -56.5t-23.5 -56.5t-56.5 -23.5z" />
    <glyph glyph-name="uni0122" unicode="&#x122;" horiz-adv-x="797" 
d="M727 70q-69 -45 -140 -64.5t-149 -19.5q-89 0 -163 30.5t-127.5 85.5t-83 128t-29.5 158t28.5 158t81 127.5t124 85t158.5 30.5q99 0 161 -19t111 -57l16 -145h-3q-40 61 -107.5 101t-177.5 40q-86 0 -150 -44t-99 -116.5t-35 -160.5q0 -66 22 -124t63 -102.5t97 -70
t124 -25.5q53 0 100 13t78 33v219q-45 -1 -89 -4t-88 -14v99h277v-342zM394 -51l59 -61l-79 -136l-24 7l30 83l-47 46z" />
    <glyph glyph-name="uni0123" unicode="&#x123;" horiz-adv-x="582" 
d="M283 108q-71 0 -126 35q-7 -13 -10 -31.5t12 -29.5q17 -13 57 -14.5t106 -6.5q38 -2 81.5 -8t82 -21t62.5 -43.5t24 -76.5q0 -52 -26 -88t-68 -58t-92.5 -32t-99.5 -10q-81 0 -141 21.5t-92.5 60t-32.5 88.5q0 44 25 74t51 47q-16 10 -25.5 25.5t-9.5 38.5q0 36 20.5 60
t36.5 35q-29 29 -45.5 70t-16.5 91q0 70 30.5 121t82.5 79.5t114 28.5q41 0 78 -15q61 0 97 1t60 3.5t47 6.5l-10 -80h-96q23 -28 37.5 -64.5t14.5 -80.5q0 -52 -20 -94t-53 -71.5t-73.5 -45.5t-81.5 -16zM282 188q42 0 71 20.5t44.5 54.5t15.5 72q0 39 -15.5 72.5
t-44.5 54.5t-71 21q-41 0 -70 -21t-43.5 -55t-14.5 -72t14.5 -72t43.5 -54.5t70 -20.5zM118 -101q0 -48 46 -71.5t119 -23.5q50 0 93.5 12.5t70.5 36.5t27 60q0 34 -23.5 48.5t-59.5 18t-74 5.5q-39 2 -78 3.5t-72 5.5q-22 -17 -35.5 -43.5t-13.5 -51.5zM272 588l-59 61
l79 136l24 -7l-30 -83l47 -46z" />
    <glyph glyph-name="Hcircumflex" unicode="&#x124;" horiz-adv-x="777" 
d="M206 775q-13 -54 -15.5 -110t-2.5 -112v-122h401v122q0 56 -2.5 112t-15.5 110h136q-13 -54 -15.5 -110t-2.5 -112v-331q0 -56 2.5 -112t15.5 -110h-136q13 54 15.5 110t2.5 112v129h-401v-129q0 -56 2.5 -112t15.5 -110h-136q13 54 15.5 110t2.5 112v331q0 56 -2.5 112
t-15.5 110h136zM307 840h-90l126 160h93l126 -160h-90l-82 119z" />
    <glyph glyph-name="hcircumflex" unicode="&#x125;" horiz-adv-x="584" 
d="M431 299q0 32 -3 64.5t-13 59.5t-32 44t-60 17q-59 0 -90.5 -28t-44 -71t-15.5 -90v-73q0 -56 2.5 -112t15.5 -110h-131q13 54 15.5 110t2.5 112v331q0 54 -4 88.5t-12 58.5t-22 46v6l133 28v-304h7q15 25 32.5 44.5t46.5 31.5t78 12q60 0 97.5 -22.5t57 -60.5t27 -85
t7.5 -97v-77q0 -56 2.5 -112t15.5 -110h-131q13 54 15.5 110t2.5 112v77zM208 850h-90l126 160h93l126 -160h-90l-82 119z" />
    <glyph glyph-name="Hbar" unicode="&#x126;" horiz-adv-x="824" 
d="M230 775q-9 -38 -12.5 -77t-4.5 -78h399q-1 39 -4.5 78t-12.5 77h136q-9 -37 -12.5 -76t-4.5 -78q21 2 42 4.5t48 7.5v-96q-28 5 -48.5 8t-42.5 4v-327q0 -56 2.5 -112t15.5 -110h-136q13 54 15.5 110t2.5 112v129h-401v-129q0 -56 2.5 -112t15.5 -110h-136
q13 54 15.5 110t2.5 112v327q-22 -1 -43 -4t-49 -8v96q28 -5 49 -7.5t42 -4.5q-1 39 -4.5 78t-12.5 76h136zM212 431h401v119h-401v-119z" />
    <glyph glyph-name="hbar" unicode="&#x127;" horiz-adv-x="631" 
d="M478 299q0 32 -3 64.5t-13 59.5t-32 44t-60 17q-59 0 -90.5 -28t-44 -71t-15.5 -90v-73q0 -56 2.5 -112t15.5 -110h-131q13 54 15.5 110t2.5 112v365q-30 -1 -55 -3.5t-60 -9.5v96q33 -7 57.5 -9.5t51.5 -3.5q-4 29 -12 49.5t-20 39.5v6l133 28v-123q29 1 54.5 3.5
t59.5 9.5v-96q-34 7 -59.5 9.5t-54.5 3.5v-111h7q15 25 32.5 44.5t46.5 31.5t78 12q60 0 97.5 -22.5t57 -60.5t27 -85t7.5 -97v-77q0 -56 2.5 -112t15.5 -110h-131q13 54 15.5 110t2.5 112v77z" />
    <glyph glyph-name="Itilde" unicode="&#x128;" horiz-adv-x="296" 
d="M216 775q-13 -54 -15.5 -110t-2.5 -112v-331q0 -56 2.5 -112t15.5 -110h-136q13 54 15.5 110t2.5 112v331q0 56 -2.5 112t-15.5 110h136zM263 987h60q0 -68 -24.5 -107.5t-73.5 -39.5q-31 0 -53.5 14.5t-39 33t-31 33t-29.5 14.5q-38 0 -38 -87h-60q0 68 24.5 110
t73.5 42q31 0 53.5 -14.5t39 -33t31 -33t29.5 -14.5q38 0 38 82z" />
    <glyph glyph-name="itilde" unicode="&#x129;" horiz-adv-x="257" 
d="M94 222v108q0 54 -4 88.5t-12 58.5t-22 46v6l133 28v-335q0 -56 2.5 -112t15.5 -110h-131q13 54 15.5 110t2.5 112zM246 762h60q0 -68 -24.5 -107.5t-73.5 -39.5q-31 0 -53.5 14.5t-39 33t-31 33t-29.5 14.5q-38 0 -38 -87h-60q0 68 24.5 110t73.5 42q31 0 53.5 -14.5
t39 -33t31 -33t29.5 -14.5q38 0 38 82z" />
    <glyph glyph-name="Imacron" unicode="&#x12a;" horiz-adv-x="296" 
d="M216 775q-13 -54 -15.5 -110t-2.5 -112v-331q0 -56 2.5 -112t15.5 -110h-136q13 54 15.5 110t2.5 112v331q0 56 -2.5 112t-15.5 110h136zM11 964h274v-65h-274v65z" />
    <glyph glyph-name="imacron" unicode="&#x12b;" horiz-adv-x="257" 
d="M94 222v108q0 54 -4 88.5t-12 58.5t-22 46v6l133 28v-335q0 -56 2.5 -112t15.5 -110h-131q13 54 15.5 110t2.5 112zM-6 739h274v-65h-274v65z" />
    <glyph glyph-name="Ibreve" unicode="&#x12c;" horiz-adv-x="296" 
d="M216 775q-13 -54 -15.5 -110t-2.5 -112v-331q0 -56 2.5 -112t15.5 -110h-136q13 54 15.5 110t2.5 112v331q0 56 -2.5 112t-15.5 110h136zM149 840q-48 0 -77 24t-42 60.5t-13 75.5h60q0 -20 5 -42t20.5 -37.5t46.5 -15.5q32 0 47 15.5t20 37.5t5 42h60q0 -39 -13 -75.5
t-42 -60.5t-77 -24z" />
    <glyph glyph-name="ibreve" unicode="&#x12d;" horiz-adv-x="257" 
d="M94 222v108q0 54 -4 88.5t-12 58.5t-22 46v6l133 28v-335q0 -56 2.5 -112t15.5 -110h-131q13 54 15.5 110t2.5 112zM132 615q-48 0 -77 24t-42 60.5t-13 75.5h60q0 -20 5 -42t20.5 -37.5t46.5 -15.5q32 0 47 15.5t20 37.5t5 42h60q0 -39 -13 -75.5t-42 -60.5t-77 -24z
" />
    <glyph glyph-name="Iogonek" unicode="&#x12e;" horiz-adv-x="296" 
d="M216 775q-13 -54 -15.5 -110t-2.5 -112v-331q0 -56 2.5 -112t15.5 -110h-136q13 54 15.5 110t2.5 112v331q0 56 -2.5 112t-15.5 110h136zM216 0q-56 -19 -87 -55.5t-31 -82.5q0 -73 70 -73q38 0 68 22t46 61h3l38 -65q-25 -32 -65.5 -49.5t-89.5 -17.5q-68 0 -110.5 33
t-42.5 87q0 48 44 85t144 74z" />
    <glyph glyph-name="iogonek" unicode="&#x12f;" horiz-adv-x="257" 
d="M94 222v108q0 54 -4 88.5t-12 58.5t-22 46v6l133 28v-335q0 -56 2.5 -112t15.5 -110h-131q13 54 15.5 110t2.5 112zM131 615q-33 0 -56.5 23.5t-23.5 56.5t23.5 56.5t56.5 23.5t56.5 -23.5t23.5 -56.5t-23.5 -56.5t-56.5 -23.5zM207 0q-56 -19 -87 -55.5t-31 -82.5
q0 -73 70 -73q38 0 68 22t46 61h3l38 -65q-25 -32 -65.5 -49.5t-89.5 -17.5q-68 0 -110.5 33t-42.5 87q0 48 44 85t144 74z" />
    <glyph glyph-name="Idotaccent" unicode="&#x130;" horiz-adv-x="296" 
d="M216 775q-13 -54 -15.5 -110t-2.5 -112v-331q0 -56 2.5 -112t15.5 -110h-136q13 54 15.5 110t2.5 112v331q0 56 -2.5 112t-15.5 110h136zM148 840q-33 0 -56.5 23.5t-23.5 56.5t23.5 56.5t56.5 23.5t56.5 -23.5t23.5 -56.5t-23.5 -56.5t-56.5 -23.5z" />
    <glyph glyph-name="dotlessi" unicode="&#x131;" horiz-adv-x="257" 
d="M94 222v108q0 54 -4 88.5t-12 58.5t-22 46v6l133 28v-335q0 -56 2.5 -112t15.5 -110h-131q13 54 15.5 110t2.5 112z" />
    <glyph glyph-name="IJ" unicode="&#x132;" horiz-adv-x="553" 
d="M206 775q-13 -54 -15.5 -110t-2.5 -112v-331q0 -56 2.5 -112t15.5 -110h-136q13 54 15.5 110t2.5 112v331q0 56 -2.5 112t-15.5 110h136zM483 775q-13 -54 -15.5 -110t-2.5 -112v-513q0 -131 -56 -193.5t-165 -62.5q-48 0 -80 9t-50.5 20t-24.5 15l-19 126l3 1
q10 -9 30.5 -30t54.5 -38t83 -17q71 1 97.5 49t26.5 143v491q0 56 -2.5 112t-15.5 110h136z" />
    <glyph glyph-name="ij" unicode="&#x133;" horiz-adv-x="516" 
d="M122 788l83 -82l-83 -83l-82 83zM388 788l83 -82l-83 -83l-82 83zM85 222v108q0 54 -4 88.5t-12 58.5t-22 46v6l133 28v-335q0 -56 2.5 -112t15.5 -110h-131q13 54 15.5 110t2.5 112zM450 330v-358q-2 -126 -55.5 -186t-160.5 -60q-48 0 -80 9t-50.5 20t-24.5 15l-19 126
l3 1q10 -9 30.5 -30t54.5 -38t83 -17q71 1 98 49t27 143v326q0 54 -4 88.5t-12 58.5t-22 46v6l133 28z" />
    <glyph glyph-name="Jcircumflex" unicode="&#x134;" horiz-adv-x="282" 
d="M212 775q-13 -54 -15.5 -110t-2.5 -112v-533q0 -124 -46 -180t-155 -56q-12 0 -32.5 2t-32.5 4l-18 114l3 1q15 -14 36 -27t51 -13q58 0 76 41.5t18 135.5v511q0 56 -2.5 112t-15.5 110h136zM60 840h-90l126 160h93l126 -160h-90l-82 119z" />
    <glyph glyph-name="jcircumflex" unicode="&#x135;" horiz-adv-x="286" 
d="M235 -28q0 -72 -20 -127.5t-64 -87t-117 -31.5q-3 0 -15.5 0.5t-27 1.5t-22.5 2l-19 120l3 1q10 -9 29.5 -17t42.5 -12t42 -1q41 6 57.5 46.5t16.5 120.5v342q0 54 -4 88.5t-12 58.5t-22 46v6l133 28l-1 -227v-358zM91 615h-90l126 160h93l126 -160h-90l-82 119z" />
    <glyph glyph-name="uni0136" unicode="&#x136;" horiz-adv-x="729" 
d="M206 775q-13 -54 -15.5 -110t-2.5 -112v-132l221 243q36 42 58 72.5t25 38.5h161q-43 -37 -78 -69.5t-68 -66.5l-200 -219l259 -283q33 -34 69 -67t79 -70h-161q-3 8 -22 35.5t-51 63.5l-292 319v-196q0 -56 2.5 -112t15.5 -110h-136q13 54 15.5 110t2.5 112v331
q0 56 -2.5 112t-15.5 110h136zM387 -51l59 -61l-79 -136l-24 7l30 83l-47 46z" />
    <glyph glyph-name="uni0137" unicode="&#x137;" horiz-adv-x="603" 
d="M439 132q32 -35 64.5 -66t74.5 -66h-139q-2 6 -17 26t-38 45l-211 225v-74q0 -56 2.5 -112t15.5 -110h-131q13 54 15.5 110t2.5 112v331q0 54 -4 88.5t-12 58.5t-22 46v6l133 28v-481l158 169q27 31 44.5 53t20.5 29h139q-32 -27 -58.5 -51t-51.5 -49l-143 -152zM299 -51
l59 -61l-79 -136l-24 7l30 83l-47 46z" />
    <glyph glyph-name="Lacute" unicode="&#x139;" horiz-adv-x="575" 
d="M70 0q13 54 15.5 110t2.5 112v331q0 56 -2.5 112t-15.5 110h136q-13 -54 -15.5 -110t-2.5 -112v-473h140q55 0 93 3.5t67.5 12t56.5 22.5l-24 -118h-451zM173 840h-70l66 160h125z" />
    <glyph glyph-name="lacute" unicode="&#x13a;" horiz-adv-x="241" 
d="M78 222v331q0 54 -4 88.5t-12 58.5t-22 46v6l133 28v-558q0 -56 2.5 -112t15.5 -110h-131q13 54 15.5 110t2.5 112zM143 850h-70l66 160h125z" />
    <glyph glyph-name="uni013B" unicode="&#x13b;" horiz-adv-x="575" 
d="M70 0q13 54 15.5 110t2.5 112v331q0 56 -2.5 112t-15.5 110h136q-13 -54 -15.5 -110t-2.5 -112v-473h140q55 0 93 3.5t67.5 12t56.5 22.5l-24 -118h-451zM305 -51l59 -61l-79 -136l-24 7l30 83l-47 46z" />
    <glyph glyph-name="uni013C" unicode="&#x13c;" horiz-adv-x="241" 
d="M78 222v331q0 54 -4 88.5t-12 58.5t-22 46v6l133 28v-558q0 -56 2.5 -112t15.5 -110h-131q13 54 15.5 110t2.5 112zM123 -51l59 -61l-79 -136l-24 7l30 83l-47 46z" />
    <glyph glyph-name="Lcaron" unicode="&#x13d;" horiz-adv-x="575" 
d="M70 0q13 54 15.5 110t2.5 112v331q0 56 -2.5 112t-15.5 110h136q-13 -54 -15.5 -110t-2.5 -112v-473h140q55 0 93 3.5t67.5 12t56.5 22.5l-24 -118h-451zM306 770l59 -61l-79 -136l-24 7l30 83l-47 46z" />
    <glyph glyph-name="lcaron" unicode="&#x13e;" horiz-adv-x="322" 
d="M78 222v331q0 54 -4 88.5t-12 58.5t-22 46v6l133 28v-558q0 -56 2.5 -112t15.5 -110h-131q13 54 15.5 110t2.5 112zM259 780l59 -61l-79 -136l-24 7l30 83l-47 46z" />
    <glyph glyph-name="Lslash" unicode="&#x141;" horiz-adv-x="662" 
d="M122 0q13 54 15.5 110t2.5 112v87l-7 -2q-45 -15 -79.5 -28t-63.5 -30v106q21 0 58 9t84 22l8 3v164q0 56 -2.5 112t-15.5 110h136q-13 -54 -15.5 -110t-2.5 -112v-133l87 27q45 15 80 28.5t63 29.5v-106q-21 0 -58 -8.5t-84 -22.5l-88 -28v-260h140q55 0 93 3.5t67.5 12
t56.5 22.5l-24 -118h-451z" />
    <glyph glyph-name="lslash" unicode="&#x142;" horiz-adv-x="435" 
d="M170 222v86l-44 -14q-31 -10 -57 -20.5t-49 -24.5v106q22 0 61.5 10t88.5 24v164q0 54 -4 88.5t-12 58.5t-22 46v6l133 28v-363l44 14q32 11 58 21.5t48 23.5v-106q-22 0 -61 -10t-89 -24v-114q0 -56 2.5 -112t15.5 -110h-131q13 54 15.5 110t2.5 112z" />
    <glyph glyph-name="Nacute" unicode="&#x143;" horiz-adv-x="810" 
d="M211 775l416 -645v424q0 56 -2.5 112t-15.5 110h131q-13 -54 -15.5 -110t-2.5 -112v-331q0 -56 2.5 -112.5t15.5 -110.5h-144l-413 640v-418q0 -56 2.5 -112t15.5 -110h-131q13 54 15.5 110t2.5 112v331q0 56 -2.5 112t-15.5 110h141zM423 840h-70l66 160h125z" />
    <glyph glyph-name="nacute" unicode="&#x144;" horiz-adv-x="584" 
d="M431 299q0 32 -3 64.5t-13 59.5t-32 44t-60 17q-59 0 -90.5 -28t-44 -71t-15.5 -90v-73q0 -56 2.5 -112t15.5 -110h-131q13 54 15.5 110t2.5 112v108q0 54 -4 88.5t-12 58.5t-22 46v6l133 28v-81h7q15 25 32.5 44.5t46.5 31.5t78 12q60 0 97.5 -22.5t57 -60.5t27 -85
t7.5 -97v-77q0 -56 2.5 -112t15.5 -110h-131q13 54 15.5 110t2.5 112v77zM308 615h-70l66 160h125z" />
    <glyph glyph-name="uni0145" unicode="&#x145;" horiz-adv-x="810" 
d="M211 775l416 -645v424q0 56 -2.5 112t-15.5 110h131q-13 -54 -15.5 -110t-2.5 -112v-331q0 -56 2.5 -112.5t15.5 -110.5h-144l-413 640v-418q0 -56 2.5 -112t15.5 -110h-131q13 54 15.5 110t2.5 112v331q0 56 -2.5 112t-15.5 110h141zM403 -51l59 -61l-79 -136l-24 7
l30 83l-47 46z" />
    <glyph glyph-name="uni0146" unicode="&#x146;" horiz-adv-x="584" 
d="M431 299q0 32 -3 64.5t-13 59.5t-32 44t-60 17q-59 0 -90.5 -28t-44 -71t-15.5 -90v-73q0 -56 2.5 -112t15.5 -110h-131q13 54 15.5 110t2.5 112v108q0 54 -4 88.5t-12 58.5t-22 46v6l133 28v-81h7q15 25 32.5 44.5t46.5 31.5t78 12q60 0 97.5 -22.5t57 -60.5t27 -85
t7.5 -97v-77q0 -56 2.5 -112t15.5 -110h-131q13 54 15.5 110t2.5 112v77zM290 -51l59 -61l-79 -136l-24 7l30 83l-47 46z" />
    <glyph glyph-name="Ncaron" unicode="&#x147;" horiz-adv-x="810" 
d="M211 775l416 -645v424q0 56 -2.5 112t-15.5 110h131q-13 -54 -15.5 -110t-2.5 -112v-331q0 -56 2.5 -112.5t15.5 -110.5h-144l-413 640v-418q0 -56 2.5 -112t15.5 -110h-131q13 54 15.5 110t2.5 112v331q0 56 -2.5 112t-15.5 110h141zM321 1000l83 -119l82 119h90
l-126 -160h-93l-126 160h90z" />
    <glyph glyph-name="ncaron" unicode="&#x148;" horiz-adv-x="584" 
d="M431 299q0 32 -3 64.5t-13 59.5t-32 44t-60 17q-59 0 -90.5 -28t-44 -71t-15.5 -90v-73q0 -56 2.5 -112t15.5 -110h-131q13 54 15.5 110t2.5 112v108q0 54 -4 88.5t-12 58.5t-22 46v6l133 28v-81h7q15 25 32.5 44.5t46.5 31.5t78 12q60 0 97.5 -22.5t57 -60.5t27 -85
t7.5 -97v-77q0 -56 2.5 -112t15.5 -110h-131q13 54 15.5 110t2.5 112v77zM206 775l83 -119l82 119h90l-126 -160h-93l-126 160h90z" />
    <glyph glyph-name="Omacron" unicode="&#x14c;" horiz-adv-x="857" 
d="M428 -14q-86 0 -158 30.5t-124.5 85.5t-81.5 128t-29 158t29 158t81.5 127.5t124.5 85t158 30.5t158 -30t125 -84.5t82 -127.5t29 -159q0 -85 -29 -158t-82 -128t-125 -85.5t-158 -30.5zM427 66q65 0 118 26t91 70.5t58 103t20 122.5q0 65 -20 123t-58 102.5t-91 70
t-118 25.5t-117.5 -25.5t-89.5 -70.5t-57 -102.5t-20 -122.5q0 -64 20 -122.5t57 -103t89.5 -70.5t117.5 -26zM292 964h274v-65h-274v65z" />
    <glyph glyph-name="omacron" unicode="&#x14d;" horiz-adv-x="611" 
d="M305 -14q-79 0 -141.5 38t-98 103.5t-35.5 146.5q0 82 35.5 147.5t98 104t141.5 38.5q80 0 142 -38.5t98 -104t36 -147.5q0 -81 -36 -146.5t-98 -103.5t-142 -38zM304 66q52 0 92 26.5t63.5 73.5t23.5 108q0 62 -23.5 109.5t-63.5 74t-92 26.5q-51 0 -91 -27t-62.5 -74
t-22.5 -109q0 -61 22.5 -108t62.5 -73.5t91 -26.5zM169 739h274v-65h-274v65z" />
    <glyph glyph-name="Obreve" unicode="&#x14e;" horiz-adv-x="857" 
d="M428 -14q-86 0 -158 30.5t-124.5 85.5t-81.5 128t-29 158t29 158t81.5 127.5t124.5 85t158 30.5t158 -30t125 -84.5t82 -127.5t29 -159q0 -85 -29 -158t-82 -128t-125 -85.5t-158 -30.5zM427 66q65 0 118 26t91 70.5t58 103t20 122.5q0 65 -20 123t-58 102.5t-91 70
t-118 25.5t-117.5 -25.5t-89.5 -70.5t-57 -102.5t-20 -122.5q0 -64 20 -122.5t57 -103t89.5 -70.5t117.5 -26zM430 840q-48 0 -77 24t-42 60.5t-13 75.5h60q0 -20 5 -42t20.5 -37.5t46.5 -15.5q32 0 47 15.5t20 37.5t5 42h60q0 -39 -13 -75.5t-42 -60.5t-77 -24z" />
    <glyph glyph-name="obreve" unicode="&#x14f;" horiz-adv-x="611" 
d="M305 -14q-79 0 -141.5 38t-98 103.5t-35.5 146.5q0 82 35.5 147.5t98 104t141.5 38.5q80 0 142 -38.5t98 -104t36 -147.5q0 -81 -36 -146.5t-98 -103.5t-142 -38zM304 66q52 0 92 26.5t63.5 73.5t23.5 108q0 62 -23.5 109.5t-63.5 74t-92 26.5q-51 0 -91 -27t-62.5 -74
t-22.5 -109q0 -61 22.5 -108t62.5 -73.5t91 -26.5zM307 615q-48 0 -77 24t-42 60.5t-13 75.5h60q0 -20 5 -42t20.5 -37.5t46.5 -15.5q32 0 47 15.5t20 37.5t5 42h60q0 -39 -13 -75.5t-42 -60.5t-77 -24z" />
    <glyph glyph-name="Ohungarumlaut" unicode="&#x150;" horiz-adv-x="857" 
d="M428 -14q-86 0 -158 30.5t-124.5 85.5t-81.5 128t-29 158t29 158t81.5 127.5t124.5 85t158 30.5t158 -30t125 -84.5t82 -127.5t29 -159q0 -85 -29 -158t-82 -128t-125 -85.5t-158 -30.5zM427 66q65 0 118 26t91 70.5t58 103t20 122.5q0 65 -20 123t-58 102.5t-91 70
t-118 25.5t-117.5 -25.5t-89.5 -70.5t-57 -102.5t-20 -122.5q0 -64 20 -122.5t57 -103t89.5 -70.5t117.5 -26zM365 840h-70l66 160h125zM534 840h-70l66 160h125z" />
    <glyph glyph-name="ohungarumlaut" unicode="&#x151;" horiz-adv-x="611" 
d="M305 -14q-79 0 -141.5 38t-98 103.5t-35.5 146.5q0 82 35.5 147.5t98 104t141.5 38.5q80 0 142 -38.5t98 -104t36 -147.5q0 -81 -36 -146.5t-98 -103.5t-142 -38zM304 66q52 0 92 26.5t63.5 73.5t23.5 108q0 62 -23.5 109.5t-63.5 74t-92 26.5q-51 0 -91 -27t-62.5 -74
t-22.5 -109q0 -61 22.5 -108t62.5 -73.5t91 -26.5zM242 615h-70l66 160h125zM411 615h-70l66 160h125z" />
    <glyph glyph-name="OE" unicode="&#x152;" horiz-adv-x="981" 
d="M871 775l24 -118q-27 14 -56.5 22.5t-67.5 12t-93 3.5h-110v-259h55q56 0 112 2.5t110 15.5v-116q-54 13 -110 15.5t-112 2.5h-55v-276h118q82 0 143.5 8.5t101.5 29.5l-24 -118h-476q-102 0 -176.5 35.5t-123.5 93.5t-72.5 126t-23.5 133t23.5 133t72.5 125.5t123.5 93
t176.5 35.5h440zM143 388q0 -50 14.5 -103.5t50 -100t97.5 -75.5t156 -29h7v615h-7q-94 0 -156 -28.5t-97.5 -75t-50 -100t-14.5 -103.5z" />
    <glyph glyph-name="oe" unicode="&#x153;" horiz-adv-x="1017" 
d="M310 -14q-79 0 -141.5 38t-98 103.5t-35.5 146.5q0 82 35.5 147.5t98 104t141.5 38.5q74 0 132.5 -33.5t95.5 -89.5q38 56 96.5 89.5t127.5 33.5q75 0 126 -38.5t77.5 -104t26.5 -147.5h-406q0 -61 29.5 -111t80 -76.5t112.5 -19.5q40 5 66 18t41 28.5t22 25.5l36 -31
q-11 -22 -35.5 -50.5t-67 -50t-107.5 -21.5q-69 0 -128 33t-97 89q-36 -56 -95 -89t-133 -33zM309 66q52 0 92 26.5t63.5 73.5t23.5 108q0 62 -23.5 109.5t-63.5 74t-92 26.5q-51 0 -91 -27t-62.5 -74t-22.5 -109q0 -61 22.5 -108t62.5 -73.5t91 -26.5zM594 349h294
q-11 62 -44 98.5t-92 36.5q-64 0 -104 -36.5t-54 -98.5z" />
    <glyph glyph-name="Racute" unicode="&#x154;" horiz-adv-x="660" 
d="M282 775q76 0 139.5 -27.5t102 -78t38.5 -119.5q0 -55 -25 -99t-68.5 -74.5t-98.5 -44.5l144 -209q24 -31 50.5 -62t55.5 -61h-155q-13 29 -33.5 63.5t-55.5 87.5l-122 170h-66v-99q0 -56 2.5 -112t15.5 -110h-136q13 54 15.5 110t2.5 112v331q0 56 -2.5 112t-15.5 110
h212zM188 401h64q98 0 150 38t52 111q0 74 -52 109.5t-150 35.5h-64v-294zM338 840h-70l66 160h125z" />
    <glyph glyph-name="racute" unicode="&#x155;" horiz-adv-x="417" 
d="M386 428q-16 28 -38 37t-51 9q-45 0 -71 -30t-38 -79.5t-15 -109.5v-33q0 -56 2.5 -112t15.5 -110h-131q13 54 15.5 110t2.5 112v108q0 54 -4 88.5t-12 58.5t-22 46v6l133 28v-111h7q13 52 51.5 85t95.5 33q30 0 47.5 -8.5l17.5 -8.5v-119h-6zM224 615h-70l66 160h125z
" />
    <glyph glyph-name="uni0156" unicode="&#x156;" horiz-adv-x="660" 
d="M282 775q76 0 139.5 -27.5t102 -78t38.5 -119.5q0 -55 -25 -99t-68.5 -74.5t-98.5 -44.5l144 -209q24 -31 50.5 -62t55.5 -61h-155q-13 29 -33.5 63.5t-55.5 87.5l-122 170h-66v-99q0 -56 2.5 -112t15.5 -110h-136q13 54 15.5 110t2.5 112v331q0 56 -2.5 112t-15.5 110
h212zM188 401h64q98 0 150 38t52 111q0 74 -52 109.5t-150 35.5h-64v-294zM318 -51l59 -61l-79 -136l-24 7l30 83l-47 46z" />
    <glyph glyph-name="uni0157" unicode="&#x157;" horiz-adv-x="417" 
d="M386 428q-16 28 -38 37t-51 9q-45 0 -71 -30t-38 -79.5t-15 -109.5v-33q0 -56 2.5 -112t15.5 -110h-131q13 54 15.5 110t2.5 112v108q0 54 -4 88.5t-12 58.5t-22 46v6l133 28v-111h7q13 52 51.5 85t95.5 33q30 0 47.5 -8.5l17.5 -8.5v-119h-6zM124 -51l59 -61l-79 -136
l-24 7l30 83l-47 46z" />
    <glyph glyph-name="Rcaron" unicode="&#x158;" horiz-adv-x="660" 
d="M282 775q76 0 139.5 -27.5t102 -78t38.5 -119.5q0 -55 -25 -99t-68.5 -74.5t-98.5 -44.5l144 -209q24 -31 50.5 -62t55.5 -61h-155q-13 29 -33.5 63.5t-55.5 87.5l-122 170h-66v-99q0 -56 2.5 -112t15.5 -110h-136q13 54 15.5 110t2.5 112v331q0 56 -2.5 112t-15.5 110
h212zM188 401h64q98 0 150 38t52 111q0 74 -52 109.5t-150 35.5h-64v-294zM236 1000l83 -119l82 119h90l-126 -160h-93l-126 160h90z" />
    <glyph glyph-name="rcaron" unicode="&#x159;" horiz-adv-x="417" 
d="M386 428q-16 28 -38 37t-51 9q-45 0 -71 -30t-38 -79.5t-15 -109.5v-33q0 -56 2.5 -112t15.5 -110h-131q13 54 15.5 110t2.5 112v108q0 54 -4 88.5t-12 58.5t-22 46v6l133 28v-111h7q13 52 51.5 85t95.5 33q30 0 47.5 -8.5l17.5 -8.5v-119h-6zM122 775l83 -119l82 119h90
l-126 -160h-93l-126 160h90z" />
    <glyph glyph-name="Sacute" unicode="&#x15a;" horiz-adv-x="582" 
d="M524 696l-55 -108h-3q-7 28 -27.5 56t-54 46.5t-82.5 18.5q-63 0 -103.5 -32t-40.5 -85q0 -41 27 -67.5t70 -47t91 -43.5q51 -24 97 -55.5t75 -75t29 -104.5q0 -63 -30.5 -111t-87 -75t-135.5 -27q-62 0 -108 14t-77.5 33.5t-49.5 37.5t-24 26l67 109h3q13 -33 37.5 -65
t62 -53.5t89.5 -21.5q65 0 106.5 37.5t41.5 95.5q0 59 -40 94.5t-98 63.5q-42 21 -85.5 41.5t-80.5 47t-60 62.5t-24 87q-1 56 30 99.5t88 69t132 25.5q57 0 97.5 -12.5t66.5 -30t39.5 -32t16.5 -18.5zM311 840h-70l66 160h125z" />
    <glyph glyph-name="sacute" unicode="&#x15b;" horiz-adv-x="420" 
d="M358 507l-12 -101h-4q-16 37 -49.5 57.5t-71.5 20.5q-43 0 -69.5 -16.5t-26.5 -51.5q0 -38 31.5 -58t72.5 -37q36 -15 72 -34.5t60 -52t24 -87.5q0 -52 -25.5 -88t-68 -54.5t-93.5 -18.5q-43 0 -77 14.5t-56.5 34.5t-29.5 36l14 111h4q2 -12 12.5 -31.5t29.5 -38.5
t45 -32.5t58 -13.5q45 0 72.5 22t27.5 62q0 38 -31.5 59t-73.5 39q-36 16 -71.5 34.5t-59 49t-23.5 79.5q0 52 24.5 85.5t66 50.5t92.5 17q56 0 89.5 -20.5t46.5 -36.5zM230 615h-70l66 160h125z" />
    <glyph glyph-name="Scircumflex" unicode="&#x15c;" horiz-adv-x="582" 
d="M524 696l-55 -108h-3q-7 28 -27.5 56t-54 46.5t-82.5 18.5q-63 0 -103.5 -32t-40.5 -85q0 -41 27 -67.5t70 -47t91 -43.5q51 -24 97 -55.5t75 -75t29 -104.5q0 -63 -30.5 -111t-87 -75t-135.5 -27q-62 0 -108 14t-77.5 33.5t-49.5 37.5t-24 26l67 109h3q13 -33 37.5 -65
t62 -53.5t89.5 -21.5q65 0 106.5 37.5t41.5 95.5q0 59 -40 94.5t-98 63.5q-42 21 -85.5 41.5t-80.5 47t-60 62.5t-24 87q-1 56 30 99.5t88 69t132 25.5q57 0 97.5 -12.5t66.5 -30t39.5 -32t16.5 -18.5zM209 840h-90l126 160h93l126 -160h-90l-82 119z" />
    <glyph glyph-name="scircumflex" unicode="&#x15d;" horiz-adv-x="420" 
d="M358 507l-12 -101h-4q-16 37 -49.5 57.5t-71.5 20.5q-43 0 -69.5 -16.5t-26.5 -51.5q0 -38 31.5 -58t72.5 -37q36 -15 72 -34.5t60 -52t24 -87.5q0 -52 -25.5 -88t-68 -54.5t-93.5 -18.5q-43 0 -77 14.5t-56.5 34.5t-29.5 36l14 111h4q2 -12 12.5 -31.5t29.5 -38.5
t45 -32.5t58 -13.5q45 0 72.5 22t27.5 62q0 38 -31.5 59t-73.5 39q-36 16 -71.5 34.5t-59 49t-23.5 79.5q0 52 24.5 85.5t66 50.5t92.5 17q56 0 89.5 -20.5t46.5 -36.5zM128 615h-90l126 160h93l126 -160h-90l-82 119z" />
    <glyph glyph-name="Scedilla" unicode="&#x15e;" horiz-adv-x="582" 
d="M524 696l-55 -108h-3q-7 28 -27.5 56t-54 46.5t-82.5 18.5q-63 0 -103.5 -32t-40.5 -85q0 -41 27 -67.5t70 -47t91 -43.5q51 -24 97 -55.5t75 -75t29 -104.5q0 -63 -30.5 -111t-87 -75t-135.5 -27q-62 0 -108 14t-77.5 33.5t-49.5 37.5t-24 26l67 109h3q13 -33 37.5 -65
t62 -53.5t89.5 -21.5q65 0 106.5 37.5t41.5 95.5q0 59 -40 94.5t-98 63.5q-42 21 -85.5 41.5t-80.5 47t-60 62.5t-24 87q-1 56 30 99.5t88 69t132 25.5q57 0 97.5 -12.5t66.5 -30t39.5 -32t16.5 -18.5zM273 -112l56 112h55l-37 -68q55 1 91 -26.5t36 -65.5q0 -44 -42.5 -72
t-110.5 -28q-102 0 -155 67l38 65h3q34 -83 114 -83q32 0 51 14t19 39q0 23 -28.5 41t-79.5 7z" />
    <glyph glyph-name="scedilla" unicode="&#x15f;" horiz-adv-x="420" 
d="M172 -112l50 99q-12 -1 -24 -1q-43 0 -77 14.5t-56.5 34.5t-29.5 36l14 111h4q2 -12 12.5 -31.5t29.5 -38.5t45 -32.5t58 -13.5q45 0 72.5 22t27.5 62q0 38 -31.5 59t-73.5 39q-36 16 -71.5 34.5t-59 49t-23.5 79.5q0 52 24.5 85.5t66 50.5t92.5 17q56 0 89.5 -20.5
t46.5 -36.5l-12 -101h-4q-16 37 -49.5 57.5t-71.5 20.5q-43 0 -69.5 -16.5t-26.5 -51.5q0 -38 31.5 -58t72.5 -37q36 -15 72 -34.5t60 -52t24 -87.5q0 -54 -28.5 -91t-72.5 -55l-38 -69q55 2 91 -26t36 -66q0 -44 -42.5 -72t-110.5 -28q-102 0 -155 67l38 65h3
q34 -83 114 -83q32 0 51 14t19 39q0 23 -28.5 41t-79.5 7z" />
    <glyph glyph-name="Scaron" unicode="&#x160;" horiz-adv-x="582" 
d="M524 696l-55 -108h-3q-7 28 -27.5 56t-54 46.5t-82.5 18.5q-63 0 -103.5 -32t-40.5 -85q0 -41 27 -67.5t70 -47t91 -43.5q51 -24 97 -55.5t75 -75t29 -104.5q0 -63 -30.5 -111t-87 -75t-135.5 -27q-62 0 -108 14t-77.5 33.5t-49.5 37.5t-24 26l67 109h3q13 -33 37.5 -65
t62 -53.5t89.5 -21.5q65 0 106.5 37.5t41.5 95.5q0 59 -40 94.5t-98 63.5q-42 21 -85.5 41.5t-80.5 47t-60 62.5t-24 87q-1 56 30 99.5t88 69t132 25.5q57 0 97.5 -12.5t66.5 -30t39.5 -32t16.5 -18.5zM209 1000l83 -119l82 119h90l-126 -160h-93l-126 160h90z" />
    <glyph glyph-name="scaron" unicode="&#x161;" horiz-adv-x="420" 
d="M358 507l-12 -101h-4q-16 37 -49.5 57.5t-71.5 20.5q-43 0 -69.5 -16.5t-26.5 -51.5q0 -38 31.5 -58t72.5 -37q36 -15 72 -34.5t60 -52t24 -87.5q0 -52 -25.5 -88t-68 -54.5t-93.5 -18.5q-43 0 -77 14.5t-56.5 34.5t-29.5 36l14 111h4q2 -12 12.5 -31.5t29.5 -38.5
t45 -32.5t58 -13.5q45 0 72.5 22t27.5 62q0 38 -31.5 59t-73.5 39q-36 16 -71.5 34.5t-59 49t-23.5 79.5q0 52 24.5 85.5t66 50.5t92.5 17q56 0 89.5 -20.5t46.5 -36.5zM128 775l83 -119l82 119h90l-126 -160h-93l-126 160h90z" />
    <glyph glyph-name="uni0162" unicode="&#x162;" horiz-adv-x="694" 
d="M304 -112l56 112h-81q13 54 15.5 110t2.5 112v473h-60q-54 0 -92.5 -3.5t-68 -12t-56.5 -22.5l24 118h606l24 -118q-27 14 -56.5 22.5t-67.5 12t-93 3.5h-60v-473q0 -56 2.5 -112t15.5 -110l-37 -68q55 1 91 -26.5t36 -65.5q0 -44 -42.5 -72t-110.5 -28q-102 0 -155 67
l38 65h3q34 -83 114 -83q32 0 51 14t19 39q0 23 -28.5 41t-79.5 7z" />
    <glyph glyph-name="uni0163" unicode="&#x163;" horiz-adv-x="386" 
d="M242 -260q-102 0 -155 67l38 65h3q34 -83 114 -83q32 0 51 14t19 39q0 23 -28.5 41t-79.5 7l-10 -2l49 98q-140 1 -140 180v315l-14 -1.5t-33 -4t-36 -5.5v11l168 185h10v-116h141l10 -80q-20 4 -39.5 6t-45.5 3.5t-66 1.5v-311q0 -56 15.5 -78t54.5 -22q25 0 41 10
t29 29l28 -38q-9 -23 -24.5 -41.5t-36.5 -29.5l-37 -68q55 1 91 -26.5t36 -65.5q0 -44 -42.5 -72t-110.5 -28z" />
    <glyph glyph-name="Tcaron" unicode="&#x164;" horiz-adv-x="694" 
d="M650 775l24 -118q-27 14 -56.5 22.5t-67.5 12t-93 3.5h-60v-473q0 -56 2.5 -112t15.5 -110h-136q13 54 15.5 110t2.5 112v473h-60q-54 0 -92.5 -3.5t-68 -12t-56.5 -22.5l24 118h606zM265 1000l83 -119l82 119h90l-126 -160h-93l-126 160h90z" />
    <glyph glyph-name="tcaron" unicode="&#x165;" horiz-adv-x="386" 
d="M244 -14q-141 0 -141 180v315l-14 -1.5t-33 -4t-36 -5.5v11l168 185h10v-116h141l10 -80q-20 4 -39.5 6t-45.5 3.5t-66 1.5v-311q0 -56 15.5 -78t54.5 -22q25 0 41 10t29 29l28 -38q-15 -37 -45 -61t-77 -24zM297 780l59 -61l-79 -136l-24 7l30 83l-47 46z" />
    <glyph glyph-name="Utilde" unicode="&#x168;" horiz-adv-x="724" 
d="M191 775q-13 -54 -15.5 -110t-2.5 -112v-210q0 -78 14 -140.5t55 -99t120 -36.5q80 0 120.5 36.5t54.5 99t14 140.5v210q0 56 -2.5 112t-15.5 110h136q-13 -54 -15.5 -110t-2.5 -112v-210q0 -111 -29.5 -191t-93.5 -123t-166 -43t-165.5 43t-93.5 123t-30 191v210
q0 56 -2.5 112t-15.5 110h136zM481 987h60q0 -68 -24.5 -107.5t-73.5 -39.5q-31 0 -53.5 14.5t-39 33t-31 33t-29.5 14.5q-38 0 -38 -87h-60q0 68 24.5 110t73.5 42q31 0 53.5 -14.5t39 -33t31 -33t29.5 -14.5q38 0 38 82z" />
    <glyph glyph-name="utilde" unicode="&#x169;" horiz-adv-x="563" 
d="M143 252q0 -31 2.5 -64t11.5 -60t30.5 -44t58.5 -17q58 0 88.5 28t42.5 71.5t14 89.5v73q0 56 -2.5 112t-15.5 110h113v-330q0 -54 3.5 -86.5t13 -55.5t25.5 -48v-6l-127 -31l-10 81h-7q-14 -24 -31 -44t-45 -32t-76 -12q-59 0 -95.5 22.5t-55.5 60.5t-26 85.5t-7 96.5
v77q0 56 -2.5 112t-15.5 110h113v-299zM377 762h60q0 -68 -24.5 -107.5t-73.5 -39.5q-31 0 -53.5 14.5t-39 33t-31 33t-29.5 14.5q-38 0 -38 -87h-60q0 68 24.5 110t73.5 42q31 0 53.5 -14.5t39 -33t31 -33t29.5 -14.5q38 0 38 82z" />
    <glyph glyph-name="Umacron" unicode="&#x16a;" horiz-adv-x="724" 
d="M191 775q-13 -54 -15.5 -110t-2.5 -112v-210q0 -78 14 -140.5t55 -99t120 -36.5q80 0 120.5 36.5t54.5 99t14 140.5v210q0 56 -2.5 112t-15.5 110h136q-13 -54 -15.5 -110t-2.5 -112v-210q0 -111 -29.5 -191t-93.5 -123t-166 -43t-165.5 43t-93.5 123t-30 191v210
q0 56 -2.5 112t-15.5 110h136zM229 964h274v-65h-274v65z" />
    <glyph glyph-name="umacron" unicode="&#x16b;" horiz-adv-x="563" 
d="M143 252q0 -31 2.5 -64t11.5 -60t30.5 -44t58.5 -17q58 0 88.5 28t42.5 71.5t14 89.5v73q0 56 -2.5 112t-15.5 110h113v-330q0 -54 3.5 -86.5t13 -55.5t25.5 -48v-6l-127 -31l-10 81h-7q-14 -24 -31 -44t-45 -32t-76 -12q-59 0 -95.5 22.5t-55.5 60.5t-26 85.5t-7 96.5
v77q0 56 -2.5 112t-15.5 110h113v-299zM125 739h274v-65h-274v65z" />
    <glyph glyph-name="Ubreve" unicode="&#x16c;" horiz-adv-x="724" 
d="M191 775q-13 -54 -15.5 -110t-2.5 -112v-210q0 -78 14 -140.5t55 -99t120 -36.5q80 0 120.5 36.5t54.5 99t14 140.5v210q0 56 -2.5 112t-15.5 110h136q-13 -54 -15.5 -110t-2.5 -112v-210q0 -111 -29.5 -191t-93.5 -123t-166 -43t-165.5 43t-93.5 123t-30 191v210
q0 56 -2.5 112t-15.5 110h136zM367 840q-48 0 -77 24t-42 60.5t-13 75.5h60q0 -20 5 -42t20.5 -37.5t46.5 -15.5q32 0 47 15.5t20 37.5t5 42h60q0 -39 -13 -75.5t-42 -60.5t-77 -24z" />
    <glyph glyph-name="ubreve" unicode="&#x16d;" horiz-adv-x="563" 
d="M143 252q0 -31 2.5 -64t11.5 -60t30.5 -44t58.5 -17q58 0 88.5 28t42.5 71.5t14 89.5v73q0 56 -2.5 112t-15.5 110h113v-330q0 -54 3.5 -86.5t13 -55.5t25.5 -48v-6l-127 -31l-10 81h-7q-14 -24 -31 -44t-45 -32t-76 -12q-59 0 -95.5 22.5t-55.5 60.5t-26 85.5t-7 96.5
v77q0 56 -2.5 112t-15.5 110h113v-299zM263 615q-48 0 -77 24t-42 60.5t-13 75.5h60q0 -20 5 -42t20.5 -37.5t46.5 -15.5q32 0 47 15.5t20 37.5t5 42h60q0 -39 -13 -75.5t-42 -60.5t-77 -24z" />
    <glyph glyph-name="Uring" unicode="&#x16e;" horiz-adv-x="724" 
d="M191 775q-13 -54 -15.5 -110t-2.5 -112v-210q0 -78 14 -140.5t55 -99t120 -36.5q80 0 120.5 36.5t54.5 99t14 140.5v210q0 56 -2.5 112t-15.5 110h136q-13 -54 -15.5 -110t-2.5 -112v-210q0 -111 -29.5 -191t-93.5 -123t-166 -43t-165.5 43t-93.5 123t-30 191v210
q0 56 -2.5 112t-15.5 110h136zM366 822q-39 0 -66 28t-27 67t27 66t66 27t66 -27t27 -66t-27 -67t-66 -28zM366 876q17 0 28.5 12t11.5 28q0 17 -11.5 28.5t-28.5 11.5q-16 0 -28 -11.5t-12 -28.5q0 -16 12 -28t28 -12z" />
    <glyph glyph-name="uring" unicode="&#x16f;" horiz-adv-x="563" 
d="M143 252q0 -31 2.5 -64t11.5 -60t30.5 -44t58.5 -17q58 0 88.5 28t42.5 71.5t14 89.5v73q0 56 -2.5 112t-15.5 110h113v-330q0 -54 3.5 -86.5t13 -55.5t25.5 -48v-6l-127 -31l-10 81h-7q-14 -24 -31 -44t-45 -32t-76 -12q-59 0 -95.5 22.5t-55.5 60.5t-26 85.5t-7 96.5
v77q0 56 -2.5 112t-15.5 110h113v-299zM262 597q-39 0 -66 28t-27 67t27 66t66 27t66 -27t27 -66t-27 -67t-66 -28zM262 651q17 0 28.5 12t11.5 28q0 17 -11.5 28.5t-28.5 11.5q-16 0 -28 -11.5t-12 -28.5q0 -16 12 -28t28 -12z" />
    <glyph glyph-name="Uhungarumlaut" unicode="&#x170;" horiz-adv-x="724" 
d="M191 775q-13 -54 -15.5 -110t-2.5 -112v-210q0 -78 14 -140.5t55 -99t120 -36.5q80 0 120.5 36.5t54.5 99t14 140.5v210q0 56 -2.5 112t-15.5 110h136q-13 -54 -15.5 -110t-2.5 -112v-210q0 -111 -29.5 -191t-93.5 -123t-166 -43t-165.5 43t-93.5 123t-30 191v210
q0 56 -2.5 112t-15.5 110h136zM302 840h-70l66 160h125zM471 840h-70l66 160h125z" />
    <glyph glyph-name="uhungarumlaut" unicode="&#x171;" horiz-adv-x="563" 
d="M143 252q0 -31 2.5 -64t11.5 -60t30.5 -44t58.5 -17q58 0 88.5 28t42.5 71.5t14 89.5v73q0 56 -2.5 112t-15.5 110h113v-330q0 -54 3.5 -86.5t13 -55.5t25.5 -48v-6l-127 -31l-10 81h-7q-14 -24 -31 -44t-45 -32t-76 -12q-59 0 -95.5 22.5t-55.5 60.5t-26 85.5t-7 96.5
v77q0 56 -2.5 112t-15.5 110h113v-299zM198 615h-70l66 160h125zM367 615h-70l66 160h125z" />
    <glyph glyph-name="Uogonek" unicode="&#x172;" horiz-adv-x="724" 
d="M191 775q-13 -54 -15.5 -110t-2.5 -112v-210q0 -78 14 -140.5t55 -99t120 -36.5q80 0 120.5 36.5t54.5 99t14 140.5v210q0 56 -2.5 112t-15.5 110h136q-13 -54 -15.5 -110t-2.5 -112v-210q0 -111 -29.5 -191t-93.5 -123t-166 -43t-165.5 43t-93.5 123t-30 191v210
q0 56 -2.5 112t-15.5 110h136zM492 10q-56 -19 -87 -55.5t-31 -82.5q0 -73 70 -73q38 0 68 22t46 61h3l38 -65q-25 -32 -65.5 -49.5t-89.5 -17.5q-68 0 -110.5 33t-42.5 87q0 48 44 85t144 74z" />
    <glyph glyph-name="uogonek" unicode="&#x173;" horiz-adv-x="563" 
d="M143 252q0 -31 2.5 -64t11.5 -60t30.5 -44t58.5 -17q58 0 88.5 28t42.5 71.5t14 89.5v73q0 56 -2.5 112t-15.5 110h113v-330q0 -54 3.5 -86.5t13 -55.5t25.5 -48v-6l-127 -31l-10 81h-7q-14 -24 -31 -44t-45 -32t-76 -12q-59 0 -95.5 22.5t-55.5 60.5t-26 85.5t-7 96.5
v77q0 56 -2.5 112t-15.5 110h113v-299zM425 0q-56 -19 -87 -55.5t-31 -82.5q0 -73 70 -73q38 0 68 22t46 61h3l38 -65q-25 -32 -65.5 -49.5t-89.5 -17.5q-68 0 -110.5 33t-42.5 87q0 48 44 85t144 74z" />
    <glyph glyph-name="Wcircumflex" unicode="&#x174;" horiz-adv-x="1195" 
d="M799 0l-202 600l-201 -600h-100l-200 596q-16 47 -34 90t-47 89h144q6 -32 14.5 -77.5t29.5 -108.5l145 -433l208 619h83l208 -619l145 434q21 62 29.5 107.5t14.5 77.5h144q-28 -46 -46 -89t-35 -90l-200 -596h-100zM516 840h-90l126 160h93l126 -160h-90l-82 119z" />
    <glyph glyph-name="wcircumflex" unicode="&#x175;" horiz-adv-x="905" 
d="M890 550q-16 -24 -31 -51t-30 -62.5t-33 -86.5l-124 -350h-90l-131 370l-131 -370h-90l-124 350q-18 51 -32.5 86.5t-28 62.5t-30.5 51h129q4 -24 10 -50t16 -59.5t26 -82.5l83 -245l82 245q25 73 37 114.5t19 77.5h79q4 -24 10 -50t16 -59.5t26 -82.5l83 -245l82 245
q25 73 37 114.5t19 77.5h121zM371 615h-90l126 160h93l126 -160h-90l-82 119z" />
    <glyph glyph-name="Ycircumflex" unicode="&#x176;" horiz-adv-x="725" 
d="M311 222v155l-161 238q-29 43 -61 83t-69 77h150q14 -33 39.5 -74t71.5 -110l83 -119l79 118q31 47 51 79.5t33 57.5t23 48h155q-37 -38 -68.5 -78t-61.5 -82l-164 -242v-151q0 -56 2.5 -112t15.5 -110h-136q13 54 15.5 110t2.5 112zM281 840h-90l126 160h93l126 -160
h-90l-82 119z" />
    <glyph glyph-name="ycircumflex" unicode="&#x177;" horiz-adv-x="610" 
d="M350 0q-37 -88 -58 -151.5t-29 -107.5h-136q30 45 62 109t69 154l-142 346q-31 75 -53.5 119t-47.5 81h134q6 -36 20 -78.5t42 -113.5l95 -246l99 246q29 71 42.5 113.5t20.5 78.5h127q-25 -37 -47 -81t-54 -119zM223 615h-90l126 160h93l126 -160h-90l-82 119z" />
    <glyph glyph-name="Ydieresis" unicode="&#x178;" horiz-adv-x="725" 
d="M311 222v155l-161 238q-29 43 -61 83t-69 77h150q14 -33 39.5 -74t71.5 -110l83 -119l79 118q31 47 51 79.5t33 57.5t23 48h155q-37 -38 -68.5 -78t-61.5 -82l-164 -242v-151q0 -56 2.5 -112t15.5 -110h-136q13 54 15.5 110t2.5 112zM237 1005l78 -78l-78 -78l-78 78z
M488 1005l78 -78l-78 -78l-78 78z" />
    <glyph glyph-name="Zacute" unicode="&#x179;" horiz-adv-x="711" 
d="M620 775v-46l-418 -649h232q55 0 93 3.5t67.5 12t56.5 22.5l-24 -118h-560v46l416 649h-206q-54 0 -92.5 -3.5t-68 -12t-56.5 -22.5l24 118h536zM376 840h-70l66 160h125z" />
    <glyph glyph-name="zacute" unicode="&#x17a;" horiz-adv-x="510" 
d="M456 550v-43l-286 -427h146q58 0 92 6.5t62 21.5l-17 -108h-400v48l281 422h-140q-58 0 -92 -6.5t-62 -21.5l17 108h399zM275 615h-70l66 160h125z" />
    <glyph glyph-name="Zdotaccent" unicode="&#x17b;" horiz-adv-x="711" 
d="M620 775v-46l-418 -649h232q55 0 93 3.5t67.5 12t56.5 22.5l-24 -118h-560v46l416 649h-206q-54 0 -92.5 -3.5t-68 -12t-56.5 -22.5l24 118h536zM356 840q-33 0 -56.5 23.5t-23.5 56.5t23.5 56.5t56.5 23.5t56.5 -23.5t23.5 -56.5t-23.5 -56.5t-56.5 -23.5z" />
    <glyph glyph-name="zdotaccent" unicode="&#x17c;" horiz-adv-x="510" 
d="M456 550v-43l-286 -427h146q58 0 92 6.5t62 21.5l-17 -108h-400v48l281 422h-140q-58 0 -92 -6.5t-62 -21.5l17 108h399zM255 615q-33 0 -56.5 23.5t-23.5 56.5t23.5 56.5t56.5 23.5t56.5 -23.5t23.5 -56.5t-23.5 -56.5t-56.5 -23.5z" />
    <glyph glyph-name="Zcaron" unicode="&#x17d;" horiz-adv-x="711" 
d="M620 775v-46l-418 -649h232q55 0 93 3.5t67.5 12t56.5 22.5l-24 -118h-560v46l416 649h-206q-54 0 -92.5 -3.5t-68 -12t-56.5 -22.5l24 118h536zM274 1000l83 -119l82 119h90l-126 -160h-93l-126 160h90z" />
    <glyph glyph-name="zcaron" unicode="&#x17e;" horiz-adv-x="510" 
d="M456 550v-43l-286 -427h146q58 0 92 6.5t62 21.5l-17 -108h-400v48l281 422h-140q-58 0 -92 -6.5t-62 -21.5l17 108h399zM173 775l83 -119l82 119h90l-126 -160h-93l-126 160h90z" />
    <glyph glyph-name="uni018F" unicode="&#x18f;" horiz-adv-x="770" 
d="M61 620q12 23 34 51.5t56.5 55.5t84.5 44.5t117 17.5q85 0 155 -30.5t121 -84.5t78.5 -127t27.5 -158t-26 -158t-75 -128t-117.5 -86t-153.5 -31q-76 0 -137 31t-103.5 86t-65 128t-22.5 158h592q0 74 -24 134.5t-66 103t-97.5 63.5t-118.5 16q-41 -3 -78 -17.5
t-66.5 -34t-49 -38t-26.5 -29.5zM148 309q15 -115 73.5 -179t155.5 -64q69 0 119.5 31.5t82 86.5t42.5 125h-473z" />
    <glyph glyph-name="Gcaron" unicode="&#x1e6;" horiz-adv-x="797" 
d="M727 70q-69 -45 -140 -64.5t-149 -19.5q-89 0 -163 30.5t-127.5 85.5t-83 128t-29.5 158t28.5 158t81 127.5t124 85t158.5 30.5q99 0 161 -19t111 -57l16 -145h-3q-40 61 -107.5 101t-177.5 40q-86 0 -150 -44t-99 -116.5t-35 -160.5q0 -66 22 -124t63 -102.5t97 -70
t124 -25.5q53 0 100 13t78 33v219q-45 -1 -89 -4t-88 -14v99h277v-342zM312 1000l83 -119l82 119h90l-126 -160h-93l-126 160h90z" />
    <glyph glyph-name="gcaron" unicode="&#x1e7;" horiz-adv-x="582" 
d="M283 108q-71 0 -126 35q-7 -13 -10 -31.5t12 -29.5q17 -13 57 -14.5t106 -6.5q38 -2 81.5 -8t82 -21t62.5 -43.5t24 -76.5q0 -52 -26 -88t-68 -58t-92.5 -32t-99.5 -10q-81 0 -141 21.5t-92.5 60t-32.5 88.5q0 44 25 74t51 47q-16 10 -25.5 25.5t-9.5 38.5q0 36 20.5 60
t36.5 35q-29 29 -45.5 70t-16.5 91q0 70 30.5 121t82.5 79.5t114 28.5q41 0 78 -15q61 0 97 1t60 3.5t47 6.5l-10 -80h-96q23 -28 37.5 -64.5t14.5 -80.5q0 -52 -20 -94t-53 -71.5t-73.5 -45.5t-81.5 -16zM282 188q42 0 71 20.5t44.5 54.5t15.5 72q0 39 -15.5 72.5
t-44.5 54.5t-71 21q-41 0 -70 -21t-43.5 -55t-14.5 -72t14.5 -72t43.5 -54.5t70 -20.5zM118 -101q0 -48 46 -71.5t119 -23.5q50 0 93.5 12.5t70.5 36.5t27 60q0 34 -23.5 48.5t-59.5 18t-74 5.5q-39 2 -78 3.5t-72 5.5q-22 -17 -35.5 -43.5t-13.5 -51.5zM214 775l83 -119
l82 119h90l-126 -160h-93l-126 160h90z" />
    <glyph glyph-name="uni0218" unicode="&#x218;" horiz-adv-x="582" 
d="M524 696l-55 -108h-3q-7 28 -27.5 56t-54 46.5t-82.5 18.5q-63 0 -103.5 -32t-40.5 -85q0 -41 27 -67.5t70 -47t91 -43.5q51 -24 97 -55.5t75 -75t29 -104.5q0 -63 -30.5 -111t-87 -75t-135.5 -27q-62 0 -108 14t-77.5 33.5t-49.5 37.5t-24 26l67 109h3q13 -33 37.5 -65
t62 -53.5t89.5 -21.5q65 0 106.5 37.5t41.5 95.5q0 59 -40 94.5t-98 63.5q-42 21 -85.5 41.5t-80.5 47t-60 62.5t-24 87q-1 56 30 99.5t88 69t132 25.5q57 0 97.5 -12.5t66.5 -30t39.5 -32t16.5 -18.5zM291 -51l59 -61l-79 -136l-24 7l30 83l-47 46z" />
    <glyph glyph-name="uni0219" unicode="&#x219;" horiz-adv-x="420" 
d="M358 507l-12 -101h-4q-16 37 -49.5 57.5t-71.5 20.5q-43 0 -69.5 -16.5t-26.5 -51.5q0 -38 31.5 -58t72.5 -37q36 -15 72 -34.5t60 -52t24 -87.5q0 -52 -25.5 -88t-68 -54.5t-93.5 -18.5q-43 0 -77 14.5t-56.5 34.5t-29.5 36l14 111h4q2 -12 12.5 -31.5t29.5 -38.5
t45 -32.5t58 -13.5q45 0 72.5 22t27.5 62q0 38 -31.5 59t-73.5 39q-36 16 -71.5 34.5t-59 49t-23.5 79.5q0 52 24.5 85.5t66 50.5t92.5 17q56 0 89.5 -20.5t46.5 -36.5zM210 -51l59 -61l-79 -136l-24 7l30 83l-47 46z" />
    <glyph glyph-name="uni021A" unicode="&#x21a;" horiz-adv-x="694" 
d="M650 775l24 -118q-27 14 -56.5 22.5t-67.5 12t-93 3.5h-60v-473q0 -56 2.5 -112t15.5 -110h-136q13 54 15.5 110t2.5 112v473h-60q-54 0 -92.5 -3.5t-68 -12t-56.5 -22.5l24 118h606zM347 -51l59 -61l-79 -136l-24 7l30 83l-47 46z" />
    <glyph glyph-name="uni021B" unicode="&#x21b;" horiz-adv-x="386" 
d="M244 -14q-141 0 -141 180v315l-14 -1.5t-33 -4t-36 -5.5v11l168 185h10v-116h141l10 -80q-20 4 -39.5 6t-45.5 3.5t-66 1.5v-311q0 -56 15.5 -78t54.5 -22q25 0 41 10t29 29l28 -38q-15 -37 -45 -61t-77 -24zM192 -51l59 -61l-79 -136l-24 7l30 83l-47 46z" />
    <glyph glyph-name="uni0237" unicode="&#x237;" horiz-adv-x="286" 
d="M235 -28q0 -72 -20 -127.5t-64 -87t-117 -31.5q-3 0 -15.5 0.5t-27 1.5t-22.5 2l-19 120l3 1q10 -9 29.5 -17t42.5 -12t42 -1q41 6 57.5 46.5t16.5 120.5v342q0 54 -4 88.5t-12 58.5t-22 46v6l133 28l-1 -227v-358z" />
    <glyph glyph-name="uni0259" unicode="&#x259;" horiz-adv-x="564" 
d="M259 564q56 0 105.5 -22t88 -61t60 -91.5t21.5 -113.5t-21.5 -114t-59.5 -92.5t-87.5 -61.5t-105.5 -22q-74 0 -125.5 38.5t-78 104.5t-26.5 147h406q0 58 -26.5 105t-71.5 75.5t-102 27.5q-55 0 -92 -20t-59 -53l-36 31q12 22 36 50.5t66.5 50t107.5 21.5zM428 201h-294
q11 -61 44 -98t92 -37q65 0 104.5 37t53.5 98z" />
    <glyph glyph-name="circumflex" unicode="&#x2c6;" horiz-adv-x="445" 
d="M140 615h-90l126 160h93l126 -160h-90l-82 119z" />
    <glyph glyph-name="caron" unicode="&#x2c7;" horiz-adv-x="445" 
d="M140 775l83 -119l82 119h90l-126 -160h-93l-126 160h90z" />
    <glyph glyph-name="breve" unicode="&#x2d8;" horiz-adv-x="364" 
d="M182 615q-48 0 -77 24t-42 60.5t-13 75.5h60q0 -20 5 -42t20.5 -37.5t46.5 -15.5q32 0 47 15.5t20 37.5t5 42h60q0 -39 -13 -75.5t-42 -60.5t-77 -24z" />
    <glyph glyph-name="dotaccent" unicode="&#x2d9;" horiz-adv-x="260" 
d="M130 615q-33 0 -56.5 23.5t-23.5 56.5t23.5 56.5t56.5 23.5t56.5 -23.5t23.5 -56.5t-23.5 -56.5t-56.5 -23.5z" />
    <glyph glyph-name="ring" unicode="&#x2da;" horiz-adv-x="286" 
d="M143 597q-39 0 -66 28t-27 67t27 66t66 27t66 -27t27 -66t-27 -67t-66 -28zM143 651q17 0 28.5 12t11.5 28q0 17 -11.5 28.5t-28.5 11.5q-16 0 -28 -11.5t-12 -28.5q0 -16 12 -28t28 -12z" />
    <glyph glyph-name="ogonek" unicode="&#x2db;" horiz-adv-x="408" 
d="M251 0q-56 -19 -87 -55.5t-31 -82.5q0 -73 70 -73q38 0 68 22t46 61h3l38 -65q-25 -32 -65.5 -49.5t-89.5 -17.5q-68 0 -110.5 33t-42.5 87q0 48 44 85t144 74z" />
    <glyph glyph-name="tilde" unicode="&#x2dc;" horiz-adv-x="459" 
d="M344 762h60q0 -68 -24.5 -107.5t-73.5 -39.5q-31 0 -53.5 14.5t-39 33t-31 33t-29.5 14.5q-38 0 -38 -87h-60q0 68 24.5 110t73.5 42q31 0 53.5 -14.5t39 -33t31 -33t29.5 -14.5q38 0 38 82z" />
    <glyph glyph-name="hungarumlaut" unicode="&#x2dd;" horiz-adv-x="460" 
d="M115 615h-70l66 160h125zM284 615h-70l66 160h125z" />
    <glyph glyph-name="gravecomb" unicode="&#x300;" 
d="M185 615l-121 160h125l66 -160h-70z" />
    <glyph glyph-name="acutecomb" unicode="&#x301;" 
d="M135 615h-70l66 160h125z" />
    <glyph glyph-name="uni0302" unicode="&#x302;" 
d="M140 615h-90l126 160h93l126 -160h-90l-82 119z" />
    <glyph glyph-name="tildecomb" unicode="&#x303;" 
d="M344 762h60q0 -68 -24.5 -107.5t-73.5 -39.5q-31 0 -53.5 14.5t-39 33t-31 33t-29.5 14.5q-38 0 -38 -87h-60q0 68 24.5 110t73.5 42q31 0 53.5 -14.5t39 -33t31 -33t29.5 -14.5q38 0 38 82z" />
    <glyph glyph-name="uni0304" unicode="&#x304;" 
d="M50 739h274v-65h-274v65z" />
    <glyph glyph-name="uni0306" unicode="&#x306;" 
d="M182 615q-48 0 -77 24t-42 60.5t-13 75.5h60q0 -20 5 -42t20.5 -37.5t46.5 -15.5q32 0 47 15.5t20 37.5t5 42h60q0 -39 -13 -75.5t-42 -60.5t-77 -24z" />
    <glyph glyph-name="uni0307" unicode="&#x307;" 
d="M130 615q-33 0 -56.5 23.5t-23.5 56.5t23.5 56.5t56.5 23.5t56.5 -23.5t23.5 -56.5t-23.5 -56.5t-56.5 -23.5z" />
    <glyph glyph-name="uni0308" unicode="&#x308;" 
d="M128 780l78 -78l-78 -78l-78 78zM379 780l78 -78l-78 -78l-78 78z" />
    <glyph glyph-name="uni030A" unicode="&#x30a;" 
d="M143 597q-39 0 -66 28t-27 67t27 66t66 27t66 -27t27 -66t-27 -67t-66 -28zM143 651q17 0 28.5 12t11.5 28q0 17 -11.5 28.5t-28.5 11.5q-16 0 -28 -11.5t-12 -28.5q0 -16 12 -28t28 -12z" />
    <glyph glyph-name="uni030B" unicode="&#x30b;" 
d="M115 615h-70l66 160h125zM284 615h-70l66 160h125z" />
    <glyph glyph-name="uni030C" unicode="&#x30c;" 
d="M140 775l83 -119l82 119h90l-126 -160h-93l-126 160h90z" />
    <glyph glyph-name="uni0312" unicode="&#x312;" 
d="M99 588l-59 61l79 136l24 -7l-30 -83l47 -46z" />
    <glyph glyph-name="uni0326" unicode="&#x326;" 
d="M0 -51l59 -61l-79 -136l-24 7l30 83l-47 46z" />
    <glyph glyph-name="uni0327" unicode="&#x327;" 
d="M157 -112l56 112h55l-37 -68q55 1 91 -26.5t36 -65.5q0 -44 -42.5 -72t-110.5 -28q-102 0 -155 67l38 65h3q34 -83 114 -83q32 0 51 14t19 39q0 23 -28.5 41t-79.5 7z" />
    <glyph glyph-name="uni0328" unicode="&#x328;" 
d="M251 0q-56 -19 -87 -55.5t-31 -82.5q0 -73 70 -73q38 0 68 22t46 61h3l38 -65q-25 -32 -65.5 -49.5t-89.5 -17.5q-68 0 -110.5 33t-42.5 87q0 48 44 85t144 74z" />
    <glyph glyph-name="uni0E3F" unicode="&#xe3f;" horiz-adv-x="650" 
d="M269 775q-2 29 -5.5 57.5t-10.5 56.5h111q-7 -28 -10.5 -57.5t-5.5 -59.5q53 -6 102 -30t80.5 -66.5t31.5 -105.5q0 -55 -22 -94t-57 -64q53 -25 87.5 -73.5t34.5 -118.5q0 -54 -21 -95t-56.5 -69t-79.5 -42t-89 -14h-11q2 -29 5.5 -57.5t10.5 -57.5h-111q7 29 10.5 57.5
t5.5 57.5h-199q13 54 15.5 110t2.5 112v331q0 56 -2.5 112t-15.5 110h199zM188 442h83v258h-83v-258zM346 446q50 8 79 35.5t29 88.5q0 58 -30.5 86.5t-77.5 37.5v-248zM188 75h83v287h-83v-287zM346 75q68 4 110 38t41 107q-1 74 -42 106.5t-109 35.5v-287z" />
    <glyph glyph-name="uni1E20" unicode="&#x1e20;" horiz-adv-x="797" 
d="M727 70q-69 -45 -140 -64.5t-149 -19.5q-89 0 -163 30.5t-127.5 85.5t-83 128t-29.5 158t28.5 158t81 127.5t124 85t158.5 30.5q99 0 161 -19t111 -57l16 -145h-3q-40 61 -107.5 101t-177.5 40q-86 0 -150 -44t-99 -116.5t-35 -160.5q0 -66 22 -124t63 -102.5t97 -70
t124 -25.5q53 0 100 13t78 33v219q-45 -1 -89 -4t-88 -14v99h277v-342zM257 964h274v-65h-274v65z" />
    <glyph glyph-name="uni1E21" unicode="&#x1e21;" horiz-adv-x="582" 
d="M283 108q-71 0 -126 35q-7 -13 -10 -31.5t12 -29.5q17 -13 57 -14.5t106 -6.5q38 -2 81.5 -8t82 -21t62.5 -43.5t24 -76.5q0 -52 -26 -88t-68 -58t-92.5 -32t-99.5 -10q-81 0 -141 21.5t-92.5 60t-32.5 88.5q0 44 25 74t51 47q-16 10 -25.5 25.5t-9.5 38.5q0 36 20.5 60
t36.5 35q-29 29 -45.5 70t-16.5 91q0 70 30.5 121t82.5 79.5t114 28.5q41 0 78 -15q61 0 97 1t60 3.5t47 6.5l-10 -80h-96q23 -28 37.5 -64.5t14.5 -80.5q0 -52 -20 -94t-53 -71.5t-73.5 -45.5t-81.5 -16zM282 188q42 0 71 20.5t44.5 54.5t15.5 72q0 39 -15.5 72.5
t-44.5 54.5t-71 21q-41 0 -70 -21t-43.5 -55t-14.5 -72t14.5 -72t43.5 -54.5t70 -20.5zM118 -101q0 -48 46 -71.5t119 -23.5q50 0 93.5 12.5t70.5 36.5t27 60q0 34 -23.5 48.5t-59.5 18t-74 5.5q-39 2 -78 3.5t-72 5.5q-22 -17 -35.5 -43.5t-13.5 -51.5zM159 739h274v-65
h-274v65z" />
    <glyph glyph-name="Wgrave" unicode="&#x1e80;" horiz-adv-x="1195" 
d="M799 0l-202 600l-201 -600h-100l-200 596q-16 47 -34 90t-47 89h144q6 -32 14.5 -77.5t29.5 -108.5l145 -433l208 619h83l208 -619l145 434q21 62 29.5 107.5t14.5 77.5h144q-28 -46 -46 -89t-35 -90l-200 -596h-100zM588 840l-121 160h125l66 -160h-70z" />
    <glyph glyph-name="wgrave" unicode="&#x1e81;" horiz-adv-x="905" 
d="M890 550q-16 -24 -31 -51t-30 -62.5t-33 -86.5l-124 -350h-90l-131 370l-131 -370h-90l-124 350q-18 51 -32.5 86.5t-28 62.5t-30.5 51h129q4 -24 10 -50t16 -59.5t26 -82.5l83 -245l82 245q25 73 37 114.5t19 77.5h79q4 -24 10 -50t16 -59.5t26 -82.5l83 -245l82 245
q25 73 37 114.5t19 77.5h121zM443 615l-121 160h125l66 -160h-70z" />
    <glyph glyph-name="Wacute" unicode="&#x1e82;" horiz-adv-x="1195" 
d="M799 0l-202 600l-201 -600h-100l-200 596q-16 47 -34 90t-47 89h144q6 -32 14.5 -77.5t29.5 -108.5l145 -433l208 619h83l208 -619l145 434q21 62 29.5 107.5t14.5 77.5h144q-28 -46 -46 -89t-35 -90l-200 -596h-100zM618 840h-70l66 160h125z" />
    <glyph glyph-name="wacute" unicode="&#x1e83;" horiz-adv-x="905" 
d="M890 550q-16 -24 -31 -51t-30 -62.5t-33 -86.5l-124 -350h-90l-131 370l-131 -370h-90l-124 350q-18 51 -32.5 86.5t-28 62.5t-30.5 51h129q4 -24 10 -50t16 -59.5t26 -82.5l83 -245l82 245q25 73 37 114.5t19 77.5h79q4 -24 10 -50t16 -59.5t26 -82.5l83 -245l82 245
q25 73 37 114.5t19 77.5h121zM473 615h-70l66 160h125z" />
    <glyph glyph-name="Wdieresis" unicode="&#x1e84;" horiz-adv-x="1195" 
d="M799 0l-202 600l-201 -600h-100l-200 596q-16 47 -34 90t-47 89h144q6 -32 14.5 -77.5t29.5 -108.5l145 -433l208 619h83l208 -619l145 434q21 62 29.5 107.5t14.5 77.5h144q-28 -46 -46 -89t-35 -90l-200 -596h-100zM472 1005l78 -78l-78 -78l-78 78zM723 1005l78 -78
l-78 -78l-78 78z" />
    <glyph glyph-name="wdieresis" unicode="&#x1e85;" horiz-adv-x="905" 
d="M890 550q-16 -24 -31 -51t-30 -62.5t-33 -86.5l-124 -350h-90l-131 370l-131 -370h-90l-124 350q-18 51 -32.5 86.5t-28 62.5t-30.5 51h129q4 -24 10 -50t16 -59.5t26 -82.5l83 -245l82 245q25 73 37 114.5t19 77.5h79q4 -24 10 -50t16 -59.5t26 -82.5l83 -245l82 245
q25 73 37 114.5t19 77.5h121zM327 780l78 -78l-78 -78l-78 78zM578 780l78 -78l-78 -78l-78 78z" />
    <glyph glyph-name="uni1E9E" unicode="&#x1e9e;" horiz-adv-x="716" 
d="M619 775v-46l-160 -279q65 -8 112.5 -40t73.5 -81.5t26 -111.5q0 -65 -36 -118t-97.5 -83.5t-138.5 -30.5t-148 31l30 98h3q21 -25 52.5 -37t62.5 -12q75 0 122 42t47 109q0 53 -23 92t-61.5 61t-85.5 22q-20 0 -45 -4t-48 -14l-7 6l182 316h-292v-695h-118
q13 54 15.5 110t2.5 112v331q0 56 -2.5 112t-15.5 110h549z" />
    <glyph glyph-name="uni1EBC" unicode="&#x1ebc;" horiz-adv-x="631" 
d="M521 775l24 -118q-27 14 -56.5 22.5t-67.5 12t-93 3.5h-140v-259h85q56 0 112 2.5t110 15.5v-116q-54 13 -110 15.5t-112 2.5h-85v-276h148q82 0 143.5 8.5t101.5 29.5l-24 -118h-487q13 54 15.5 110t2.5 112v331q0 56 -2.5 112t-15.5 110h451zM431 987h60
q0 -68 -24.5 -107.5t-73.5 -39.5q-31 0 -53.5 14.5t-39 33t-31 33t-29.5 14.5q-38 0 -38 -87h-60q0 68 24.5 110t73.5 42q31 0 53.5 -14.5t39 -33t31 -33t29.5 -14.5q38 0 38 82z" />
    <glyph glyph-name="uni1EBD" unicode="&#x1ebd;" horiz-adv-x="559" 
d="M305 -14q-56 0 -105.5 22t-88 61t-60 91.5t-21.5 113.5t21.5 114t59.5 92.5t87.5 61.5t105.5 22q75 0 126 -38.5t77.5 -104t26.5 -147.5h-406q0 -57 26.5 -104.5t72 -75.5t101.5 -28t92.5 20t58.5 53l36 -31q-11 -22 -35.5 -50.5t-67 -50t-107.5 -21.5zM136 349h294
q-11 62 -44 98.5t-92 36.5q-64 0 -104 -36.5t-54 -98.5zM412 762h60q0 -68 -24.5 -107.5t-73.5 -39.5q-31 0 -53.5 14.5t-39 33t-31 33t-29.5 14.5q-38 0 -38 -87h-60q0 68 24.5 110t73.5 42q31 0 53.5 -14.5t39 -33t31 -33t29.5 -14.5q38 0 38 82z" />
    <glyph glyph-name="Ygrave" unicode="&#x1ef2;" horiz-adv-x="725" 
d="M311 222v155l-161 238q-29 43 -61 83t-69 77h150q14 -33 39.5 -74t71.5 -110l83 -119l79 118q31 47 51 79.5t33 57.5t23 48h155q-37 -38 -68.5 -78t-61.5 -82l-164 -242v-151q0 -56 2.5 -112t15.5 -110h-136q13 54 15.5 110t2.5 112zM353 840l-121 160h125l66 -160h-70z
" />
    <glyph glyph-name="ygrave" unicode="&#x1ef3;" horiz-adv-x="610" 
d="M350 0q-37 -88 -58 -151.5t-29 -107.5h-136q30 45 62 109t69 154l-142 346q-31 75 -53.5 119t-47.5 81h134q6 -36 20 -78.5t42 -113.5l95 -246l99 246q29 71 42.5 113.5t20.5 78.5h127q-25 -37 -47 -81t-54 -119zM295 615l-121 160h125l66 -160h-70z" />
    <glyph glyph-name="uni1EF8" unicode="&#x1ef8;" horiz-adv-x="725" 
d="M311 222v155l-161 238q-29 43 -61 83t-69 77h150q14 -33 39.5 -74t71.5 -110l83 -119l79 118q31 47 51 79.5t33 57.5t23 48h155q-37 -38 -68.5 -78t-61.5 -82l-164 -242v-151q0 -56 2.5 -112t15.5 -110h-136q13 54 15.5 110t2.5 112zM478 987h60q0 -68 -24.5 -107.5
t-73.5 -39.5q-31 0 -53.5 14.5t-39 33t-31 33t-29.5 14.5q-38 0 -38 -87h-60q0 68 24.5 110t73.5 42q31 0 53.5 -14.5t39 -33t31 -33t29.5 -14.5q38 0 38 82z" />
    <glyph glyph-name="uni1EF9" unicode="&#x1ef9;" horiz-adv-x="610" 
d="M350 0q-37 -88 -58 -151.5t-29 -107.5h-136q30 45 62 109t69 154l-142 346q-31 75 -53.5 119t-47.5 81h134q6 -36 20 -78.5t42 -113.5l95 -246l99 246q29 71 42.5 113.5t20.5 78.5h127q-25 -37 -47 -81t-54 -119zM420 762h60q0 -68 -24.5 -107.5t-73.5 -39.5
q-31 0 -53.5 14.5t-39 33t-31 33t-29.5 14.5q-38 0 -38 -87h-60q0 68 24.5 110t73.5 42q31 0 53.5 -14.5t39 -33t31 -33t29.5 -14.5q38 0 38 82z" />
    <glyph glyph-name="endash" unicode="&#x2013;" horiz-adv-x="580" 
d="M560 288q-33 7 -57.5 9.5t-50.5 3t-64 0.5h-196q-37 0 -63.5 -0.5t-51 -3t-57.5 -9.5v106q33 -6 57.5 -9t51 -3.5t63.5 -0.5h196q38 0 64 0.5t50.5 3.5t57.5 9v-106z" />
    <glyph glyph-name="emdash" unicode="&#x2014;" horiz-adv-x="1084" 
d="M1064 288q-33 7 -57.5 9.5t-50.5 3t-64 0.5h-700q-37 0 -63.5 -0.5t-51 -3t-57.5 -9.5v106q33 -6 57.5 -9t51 -3.5t63.5 -0.5h700q38 0 64 0.5t50.5 3.5t57.5 9v-106z" />
    <glyph glyph-name="quoteleft" unicode="&#x2018;" horiz-adv-x="236" 
d="M118 524l-78 78l104 178l31 -8l-40 -109l61 -61z" />
    <glyph glyph-name="quoteright" unicode="&#x2019;" horiz-adv-x="236" 
d="M118 780l78 -78l-104 -178l-31 8l40 109l-61 61z" />
    <glyph glyph-name="quotesinglbase" unicode="&#x201a;" horiz-adv-x="236" 
d="M118 142l78 -78l-104 -178l-31 8l40 109l-61 61z" />
    <glyph glyph-name="quotedblleft" unicode="&#x201c;" horiz-adv-x="422" 
d="M304 524l-78 78l104 178l31 -8l-40 -109l61 -61zM118 524l-78 78l104 178l31 -8l-40 -109l61 -61z" />
    <glyph glyph-name="quotedblright" unicode="&#x201d;" horiz-adv-x="422" 
d="M118 780l78 -78l-104 -178l-31 8l40 109l-61 61zM304 780l78 -78l-104 -178l-31 8l40 109l-61 61z" />
    <glyph glyph-name="quotedblbase" unicode="&#x201e;" horiz-adv-x="422" 
d="M118 142l78 -78l-104 -178l-31 8l40 109l-61 61zM304 142l78 -78l-104 -178l-31 8l40 109l-61 61z" />
    <glyph glyph-name="dagger" unicode="&#x2020;" horiz-adv-x="550" 
d="M222 0q7 33 9.5 57.5t3 51t0.5 63.5v298h-43q-37 0 -63.5 -0.5t-51 -3t-57.5 -9.5v106q33 -6 57.5 -9t51 -3.5t63.5 -0.5h43v53q0 38 -0.5 64t-3 50.5t-9.5 57.5h106q-6 -33 -9 -57.5t-3.5 -50.5t-0.5 -64v-53h43q38 0 64 0.5t50.5 3.5t57.5 9v-106q-33 7 -57.5 9.5
t-50.5 3t-64 0.5h-43v-298q0 -37 0.5 -63.5t3.5 -51t9 -57.5h-106z" />
    <glyph glyph-name="daggerdbl" unicode="&#x2021;" horiz-adv-x="600" 
d="M222 0q7 33 9.5 57.5t3 51t0.5 63.5v57h-43q-37 0 -63.5 -0.5t-51 -3t-57.5 -9.5v106q33 -6 57.5 -9t51 -3.5t63.5 -0.5h43v161h-43q-37 0 -63.5 -0.5t-51 -3t-57.5 -9.5v106q33 -6 57.5 -9t51 -3.5t63.5 -0.5h43v53q0 38 -0.5 64t-3 50.5t-9.5 57.5h106q-6 -33 -9 -57.5
t-3.5 -50.5t-0.5 -64v-53h43q38 0 64 0.5t50.5 3.5t57.5 9v-106q-33 7 -57.5 9.5t-50.5 3t-64 0.5h-43v-161h43q38 0 64 0.5t50.5 3.5t57.5 9v-106q-33 7 -57.5 9.5t-50.5 3t-64 0.5h-43v-57q0 -37 0.5 -63.5t3.5 -51t9 -57.5h-106z" />
    <glyph glyph-name="bullet" unicode="&#x2022;" horiz-adv-x="284" 
d="M142 470l102 -102l-102 -102l-102 102z" />
    <glyph glyph-name="ellipsis" unicode="&#x2026;" horiz-adv-x="608" 
d="M118 142l78 -78l-78 -78l-78 78zM304 142l78 -78l-78 -78l-78 78zM490 142l78 -78l-78 -78l-78 78z" />
    <glyph glyph-name="perthousand" unicode="&#x2030;" horiz-adv-x="1100" 
d="M187 438q-48 0 -83 23t-54.5 63t-19.5 89q0 50 19.5 89.5t54.5 63t83 23.5q49 0 84 -23.5t54.5 -63t19.5 -89.5q0 -49 -19.5 -89t-54.5 -63t-84 -23zM655 775q-21 -27 -55 -77t-82 -130l-241 -426q-25 -48 -41 -82t-22 -60h-128q20 25 52.5 72t72.5 115l231 406
q35 70 56.5 110.5t28.5 71.5h128zM187 507q39 0 58.5 28.5t19.5 77.5t-19.5 78.5t-58.5 29.5q-40 0 -58.5 -29.5t-18.5 -78.5t18.5 -77.5t58.5 -28.5zM560 -14q-48 0 -83 23t-54.5 63t-19.5 89q0 50 19.5 89.5t54.5 63t83 23.5q49 0 84 -23.5t54.5 -63t19.5 -89.5
q0 -49 -19.5 -89t-54.5 -63t-84 -23zM912 -14q-48 0 -83 23t-54.5 63t-19.5 89q0 50 19.5 89.5t54.5 63t83 23.5q49 0 84 -23.5t54.5 -63t19.5 -89.5q0 -49 -19.5 -89t-54.5 -63t-84 -23zM560 55q39 0 58.5 28.5t19.5 77.5t-19.5 78.5t-58.5 29.5q-40 0 -58.5 -29.5
t-18.5 -78.5t18.5 -77.5t58.5 -28.5zM912 55q39 0 58.5 28.5t19.5 77.5t-19.5 78.5t-58.5 29.5q-40 0 -58.5 -29.5t-18.5 -78.5t18.5 -77.5t58.5 -28.5z" />
    <glyph glyph-name="guilsinglleft" unicode="&#x2039;" horiz-adv-x="332" 
d="M288 507l24 -19l-153 -213l153 -213l-24 -19l-268 232z" />
    <glyph glyph-name="guilsinglright" unicode="&#x203a;" horiz-adv-x="332" 
d="M44 507l268 -232l-268 -232l-24 19l153 213l-153 213z" />
    <glyph glyph-name="fraction" unicode="&#x2044;" horiz-adv-x="632" 
d="M30 0q20 25 52.5 72t72.5 113l227 397q41 76 62.5 118.5t29.5 74.5h128q-20 -25 -52.5 -72t-77.5 -123l-245 -427q-29 -55 -45.5 -90.5t-23.5 -62.5h-128z" />
    <glyph glyph-name="uni20A9" unicode="&#x20a9;" horiz-adv-x="1257" 
d="M830 0l-202 600l-201 -600h-100l-94 280h-36q-37 0 -63.5 -0.5t-51 -3t-57.5 -9.5v96q33 -6 57.5 -9t51 -3.5t63.5 -0.5h13l-37 109q-43 0 -73.5 -2t-74.5 -11v96q38 -7 64.5 -9.5t59.5 -3.5l-13 39q-20 56 -39.5 105t-51.5 102h145q6 -32 14.5 -77.5t29.5 -108.5
l145 -433l208 619h83l208 -619l145 434q21 62 29.5 107.5t14.5 77.5h145q-32 -53 -51.5 -102t-39.5 -105l-13 -39q33 1 60 3.5t64 9.5v-96q-43 9 -73.5 11t-74.5 2l-37 -109h13q38 0 64 0.5t50.5 3.5t57.5 9v-96q-33 7 -57.5 9.5t-50.5 3t-64 0.5h-36l-94 -280h-100z" />
    <glyph glyph-name="uni20AA" unicode="&#x20aa;" horiz-adv-x="788" 
d="M506 4q-75 0 -131.5 30.5t-87.5 85.5t-31 129v86q0 56 -2.5 112t-15.5 110h136q-13 -54 -15.5 -110t-2.5 -112v-86q0 -81 41 -123t139 -42h64v473q0 56 -2.5 112t-15.5 110h136q-13 -54 -15.5 -110t-2.5 -112v-331q0 -56 2.5 -112t15.5 -110h-212zM282 775
q76 0 132 -30.5t87 -85.5t31 -129v-86q0 -56 2.5 -112t15.5 -110h-136q13 54 15.5 110t2.5 112v86q0 81 -41 123t-139 42h-64v-473q0 -56 2.5 -112t15.5 -110h-136q13 54 15.5 110t2.5 112v331q0 56 -2.5 112t-15.5 110h212z" />
    <glyph glyph-name="Euro" unicode="&#x20ac;" horiz-adv-x="842" 
d="M802 208l-16 -146q-49 -38 -109 -57t-155 -19q-90 0 -165 34t-128 94.5t-79 139.5q-35 -1 -63 -3t-67 -10v96q35 -7 60 -9.5t54 -3.5q-1 16 -2.5 32t-1.5 32l2 45q-28 -1 -53 -3.5t-59 -9.5v96q38 -7 64.5 -9.5t60.5 -3.5q23 84 76.5 148.5t130.5 101t170 36.5
q92 0 152.5 -19t109.5 -57l16 -145h-4q-40 61 -106 101t-168 40q-65 0 -118 -26.5t-91 -73t-57 -106.5h122q38 0 64 0.5t50.5 3.5t57.5 9v-96q-33 7 -57.5 9.5t-50.5 3t-64 0.5h-137q-3 -22 -3 -45q0 -16 1.5 -32t3.5 -32h135q38 0 64 0.5t50.5 3.5t57.5 9v-96
q-33 7 -57.5 9.5t-50.5 3t-64 0.5h-116q32 -82 100 -135t160 -53q107 0 171.5 40.5t104.5 101.5h4z" />
    <glyph glyph-name="uni20B4" unicode="&#x20b4;" horiz-adv-x="660" 
d="M549 505q17 2 35.5 4.5t40.5 6.5v-96q-33 7 -57.5 9.5t-50.5 3t-64 0.5h-246q-37 0 -63.5 -0.5t-51 -3t-57.5 -9.5v96q33 -6 57.5 -9t51 -3.5t63.5 -0.5h212q24 17 38 38t14 50q0 53 -40.5 85t-103.5 32q-48 0 -82 -18.5t-54 -46.5t-28 -56h-3l-55 108q3 4 16.5 18.5
t39.5 32t66.5 30t97.5 12.5q76 0 132.5 -25.5t87.5 -69t30 -99.5q-1 -51 -26 -89zM453 324q38 0 64 0.5t50.5 3.5t57.5 9v-96q-33 7 -57.5 9.5t-50.5 3t-64 0.5h-253q-6 -13 -9.5 -26.5t-3.5 -29.5q0 -58 41.5 -95.5t106.5 -37.5q53 0 90 21.5t61.5 53.5t37.5 65h3l67 -109
q-6 -8 -24 -26t-49.5 -37.5t-77.5 -33.5t-108 -14q-78 0 -135 27t-87.5 75t-30.5 111q0 30 7 52l-54 -9v96q33 -6 57.5 -9t51 -3.5t63.5 -0.5h246z" />
    <glyph glyph-name="uni20B9" unicode="&#x20b9;" horiz-adv-x="631" 
d="M70 775h497l24 -118q-36 19 -76.5 27.5t-104.5 10.5q32 -16 50.5 -44.5t24.5 -65.5q23 1 45 3.5t50 8.5v-96q-28 6 -50 8.5t-45 3.5q-10 -58 -50 -101.5t-98.5 -67t-127.5 -23.5v-5l130 -122q61 -53 118.5 -105.5t108.5 -88.5h-175q-19 24 -46 54t-67 70l-208 197v80h108
q174 0 198 113h-134q-37 0 -63.5 -0.5t-51 -3t-57.5 -9.5v96q33 -6 57.5 -9t51 -3.5t63.5 -0.5h135q-11 56 -60.5 83t-132.5 28q-33 0 -52.5 -2.5t-32.5 -6.5t-29 -9v98z" />
    <glyph glyph-name="uni20BD" unicode="&#x20bd;" horiz-adv-x="670" 
d="M355 775q78 0 141.5 -30t101 -84t37.5 -126q0 -71 -37.5 -125.5t-101 -85t-141.5 -30.5h-94v-81h27q38 0 64 0.5t50.5 3.5t57.5 9v-96q-33 7 -57.5 9.5t-50.5 3t-64 0.5h-26q2 -36 5.5 -72t11.5 -71h-136q8 35 12 70.5t5 72.5q-28 -1 -52.5 -3.5t-57.5 -9.5v96
q34 -7 58.5 -9.5t52.5 -3.5v340q0 56 -2.5 112t-15.5 110h212zM261 374h64q102 0 152 42t50 119t-50 118.5t-152 41.5h-64v-321z" />
    <glyph glyph-name="trademark" unicode="&#x2122;" horiz-adv-x="944" 
d="M384 775l17 -83q-28 15 -61.5 21t-91.5 6h-2v-194q0 -40 1.5 -79t10.5 -77h-95q9 38 10.5 77t1.5 79v194h-2q-58 0 -91 -6t-62 -21l17 83h347zM514 775l134 -297l134 297h92q-9 -38 -11 -77.5t-2 -79.5v-93q0 -40 2 -79t11 -77h-96q9 38 11 77t2 79v108l-2 -5l-119 -259
h-46l-117 259l-1 2v-105q0 -40 1.5 -79t10.5 -77h-96q9 38 11 77t2 79v93q0 40 -2 79.5t-11 77.5h92z" />
    <glyph glyph-name="oneeighth" unicode="&#x215b;" horiz-adv-x="793" 
d="M77 454v175q0 49 -9.5 61.5t-37.5 12.5v8l114 78v-335q0 -34 1.5 -67.5t9.5 -65.5h-89q8 32 9.5 65.5t1.5 67.5zM622 775q-20 -25 -52.5 -72t-77.5 -123l-245 -427q-29 -55 -45.5 -90.5t-23.5 -62.5h-128q20 25 52.5 72t72.5 113l227 397q41 76 62.5 118.5t29.5 74.5h128
zM596 -14q-69 0 -115 38t-46 101q0 38 17.5 68t47.5 49q-44 36 -44 93q0 34 18 63t49.5 47t72.5 18q42 0 74 -17.5t49.5 -46.5t17.5 -64q0 -57 -44 -93q31 -19 48 -49t17 -68q0 -62 -45.5 -100.5t-116.5 -38.5zM596 267q34 0 53.5 21t19.5 47t-19.5 48t-53.5 22
q-33 0 -52 -22t-19 -48t18.5 -47t52.5 -21zM596 44q39 0 64.5 22t25.5 59q0 36 -24.5 60.5t-65.5 24.5q-40 0 -64.5 -24.5t-24.5 -60.5q0 -37 25.5 -59t63.5 -22z" />
    <glyph glyph-name="threeeighths" unicode="&#x215c;" horiz-adv-x="923" 
d="M180 0q20 25 52.5 72t72.5 113l227 397q41 76 62.5 118.5t29.5 74.5h128q-20 -25 -52.5 -72t-77.5 -123l-245 -427q-29 -55 -45.5 -90.5t-23.5 -62.5h-128zM196 300q-41 0 -86.5 18t-69.5 48l44 76h2q16 -39 46.5 -61.5t63.5 -22.5q41 0 66.5 22.5t25.5 58.5
q0 44 -26.5 69.5t-66.5 25.5q-12 0 -29 -2.5t-31 -8.5l-12 4l127 190h-74q-49 0 -74.5 -5t-50.5 -18l9 81h286v-28l-114 -168q59 -7 93 -47t34 -93q0 -36 -22.5 -68t-59.5 -51.5t-81 -19.5zM726 -14q-69 0 -115 38t-46 101q0 38 17.5 68t47.5 49q-44 36 -44 93q0 34 18 63
t49.5 47t72.5 18q42 0 74 -17.5t49.5 -46.5t17.5 -64q0 -57 -44 -93q31 -19 48 -49t17 -68q0 -62 -45.5 -100.5t-116.5 -38.5zM726 267q34 0 53.5 21t19.5 47t-19.5 48t-53.5 22q-33 0 -52 -22t-19 -48t18.5 -47t52.5 -21zM726 44q39 0 64.5 22t25.5 59q0 36 -24.5 60.5
t-65.5 24.5q-40 0 -64.5 -24.5t-24.5 -60.5q0 -37 25.5 -59t63.5 -22z" />
    <glyph glyph-name="fiveeighths" unicode="&#x215d;" horiz-adv-x="932" 
d="M189 0q20 25 52.5 72t72.5 113l227 397q41 76 62.5 118.5t29.5 74.5h128q-20 -25 -52.5 -72t-77.5 -123l-245 -427q-29 -55 -45.5 -90.5t-23.5 -62.5h-128zM216 301q-46 0 -89 18t-67 48l43 76h2q16 -40 44 -62t67 -22q38 0 64.5 23.5t26.5 64.5q0 38 -23 65.5t-70 27.5
q-29 0 -51.5 -12t-28.5 -18h-65l28 265h240l12 -81q-26 15 -52.5 18.5t-76.5 3.5h-65l-14 -138q14 8 34.5 14t45.5 6q48 0 83.5 -20.5t55 -55t19.5 -75.5q0 -43 -22 -76t-58.5 -51.5t-82.5 -18.5zM735 -14q-69 0 -115 38t-46 101q0 38 17.5 68t47.5 49q-44 36 -44 93
q0 34 18 63t49.5 47t72.5 18q42 0 74 -17.5t49.5 -46.5t17.5 -64q0 -57 -44 -93q31 -19 48 -49t17 -68q0 -62 -45.5 -100.5t-116.5 -38.5zM735 267q34 0 53.5 21t19.5 47t-19.5 48t-53.5 22q-33 0 -52 -22t-19 -48t18.5 -47t52.5 -21zM735 44q39 0 64.5 22t25.5 59
q0 36 -24.5 60.5t-65.5 24.5q-40 0 -64.5 -24.5t-24.5 -60.5q0 -37 25.5 -59t63.5 -22z" />
    <glyph glyph-name="seveneighths" unicode="&#x215e;" horiz-adv-x="885" 
d="M142 0q20 25 52.5 72t72.5 113l227 397q41 76 62.5 118.5t29.5 74.5h128q-20 -25 -52.5 -72t-77.5 -123l-245 -427q-29 -55 -45.5 -90.5t-23.5 -62.5h-128zM108 310q15 21 27 44.5t23 46.5l140 316h-124q-49 0 -74.5 -5t-49.5 -18l8 81h320v-28l-132 -314
q-13 -30 -24.5 -60.5t-16.5 -62.5h-97zM688 -14q-69 0 -115 38t-46 101q0 38 17.5 68t47.5 49q-44 36 -44 93q0 34 18 63t49.5 47t72.5 18q42 0 74 -17.5t49.5 -46.5t17.5 -64q0 -57 -44 -93q31 -19 48 -49t17 -68q0 -62 -45.5 -100.5t-116.5 -38.5zM688 267q34 0 53.5 21
t19.5 47t-19.5 48t-53.5 22q-33 0 -52 -22t-19 -48t18.5 -47t52.5 -21zM688 44q39 0 64.5 22t25.5 59q0 36 -24.5 60.5t-65.5 24.5q-40 0 -64.5 -24.5t-24.5 -60.5q0 -37 25.5 -59t63.5 -22z" />
    <glyph glyph-name="partialdiff" unicode="&#x2202;" horiz-adv-x="627" 
d="M274 -14q-70 0 -117 23.5t-74.5 62t-39.5 84t-12 88.5q0 87 39 149.5t102.5 96.5t138.5 34q56 0 94 -17.5t61.5 -44t34.5 -55.5q0 90 -31.5 158t-90.5 106t-142 38v80q95 0 162.5 -31.5t109.5 -87.5t61.5 -131t19.5 -161q0 -85 -23.5 -157t-66 -124.5t-100 -81.5
t-126.5 -29zM129 244q0 -76 37.5 -127t107.5 -51q43 0 87 19.5t73.5 61t29.5 107.5q0 101 -43.5 145.5t-113.5 44.5q-46 0 -87 -22.5t-66 -66.5t-25 -111z" />
    <glyph glyph-name="product" unicode="&#x220f;" horiz-adv-x="651" 
d="M88 222v331q0 56 -2.5 112t-15.5 110h511q-13 -54 -15.5 -110t-2.5 -112v-331q0 -56 2.5 -112t15.5 -110h-131q13 54 15.5 110t2.5 112v473h-285v-473q0 -56 2.5 -112t15.5 -110h-131q13 54 15.5 110t2.5 112z" />
    <glyph glyph-name="summation" unicode="&#x2211;" horiz-adv-x="680" 
d="M596 775l24 -118q-27 14 -56.5 22.5t-67.5 12t-93 3.5h-206l197 -306l-33 -53l-9 -15l-15 -23l-140 -218h206q55 0 93 3.5t67.5 12t56.5 22.5l-24 -118h-536v46l220 341l-220 342v46h536z" />
    <glyph glyph-name="minus" unicode="&#x2212;" horiz-adv-x="610" 
d="M30 328q33 -6 57.5 -9t51 -3.5t63.5 -0.5h206q38 0 64 0.5t50.5 3.5t57.5 9v-106q-33 7 -57.5 9.5t-50.5 3t-64 0.5h-206q-37 0 -63.5 -0.5t-51 -3t-57.5 -9.5v106z" />
    <glyph glyph-name="radical" unicode="&#x221a;" horiz-adv-x="723" 
d="M684 775l19 -105q-16 11 -50.5 18t-92.5 7h-25l-215 -695h-90l-126 350q-18 52 -32 87.5t-27 62t-30 50.5h134q4 -24 9.5 -50t15 -59.5t25.5 -82.5l77 -230l187 647h221z" />
    <glyph glyph-name="infinity" unicode="&#x221e;" horiz-adv-x="815" 
d="M30 275q0 58 25.5 103t70.5 71t104 26q65 0 111 -33t69 -86q24 49 65.5 84t110.5 35q60 0 104.5 -26t69.5 -71t25 -103q0 -57 -25 -102t-69.5 -71t-104.5 -26q-67 0 -112.5 31t-67.5 88q-26 -52 -70.5 -85.5t-105.5 -33.5q-59 0 -104 26t-70.5 71t-25.5 102zM112 274
q0 -32 11 -61.5t37 -48t70 -18.5q56 0 89.5 36t58.5 97q-10 29 -31 58t-51 48.5t-66 19.5q-45 0 -70.5 -19t-36.5 -49t-11 -63zM442 279q9 -30 28 -60.5t48 -51.5t68 -21q45 0 70.5 18.5t36 48t10.5 61.5q0 33 -10.5 63t-36 49t-70.5 19q-53 0 -86 -35t-58 -91z" />
    <glyph glyph-name="integral" unicode="&#x222b;" horiz-adv-x="541" 
d="M158 -133q-33 0 -58 14.5t-41.5 35t-23.5 36.5l14 111h4q2 -12 8 -31.5t18.5 -39t31.5 -33t47 -13.5q38 0 54 29t16 76l-1 634q0 85 46.5 126.5t116.5 41.5q37 0 59 -10t35 -23t22 -24l-12 -101h-4q-16 37 -39.5 57.5t-61.5 20.5q-35 0 -55.5 -23t-20.5 -65
q0 -85 0.5 -159.5t0.5 -147t0.5 -152.5t0.5 -178q0 -85 -44.5 -133.5t-112.5 -48.5z" />
    <glyph glyph-name="approxequal" unicode="&#x2248;" horiz-adv-x="519" 
d="M404 411h85q0 -68 -27 -114t-91 -46q-40 0 -69 15t-51.5 35t-45 35t-51.5 15q-20 0 -29.5 -19t-9.5 -61h-85q0 68 27 114t91 46q41 0 69.5 -15t51 -35t45.5 -35t51 -15q20 0 29.5 19t9.5 61zM404 199h85q0 -68 -27 -114t-91 -46q-40 0 -69 15t-51.5 35t-45 35t-51.5 15
q-20 0 -29.5 -19t-9.5 -61h-85q0 68 27 114t91 46q41 0 69.5 -15t51 -35t45.5 -35t51 -15q20 0 29.5 19t9.5 61z" />
    <glyph glyph-name="notequal" unicode="&#x2260;" horiz-adv-x="610" 
d="M30 454q33 -6 57.5 -9t51 -3.5t63.5 -0.5h159q19 36 31 61.5t17 47.5h128q-13 -17 -33 -44t-45 -65q32 1 58 3.5t63 9.5v-106q-32 7 -56.5 9.5t-50.5 3t-63 0.5l-10 -18l-87 -154h95q38 0 64 0.5t50.5 3.5t57.5 9v-106q-33 7 -57.5 9.5t-50.5 3t-64 0.5h-139
q-19 -34 -29.5 -61t-15.5 -48h-128q14 17 33.5 44.5t44.5 64.5q-42 0 -71.5 -2.5t-72.5 -10.5v106q33 -6 57.5 -9t51 -3.5t63.5 -0.5h20l98 172h-118q-37 0 -63.5 -0.5t-51 -3t-57.5 -9.5v106z" />
    <glyph glyph-name="lessequal" unicode="&#x2264;" horiz-adv-x="558" 
d="M528 465l-403 -136l402 -137v-97l-497 190v90l498 186v-96zM527 0h-497v80h497v-80z" />
    <glyph glyph-name="greaterequal" unicode="&#x2265;" horiz-adv-x="558" 
d="M30 465v96l498 -186v-90l-497 -190v97l402 137zM31 0v80h497v-80h-497z" />
    <glyph glyph-name="uniA78B" unicode="&#xa78b;" horiz-adv-x="160" 
d="M30 775h100l-20 -275h-60z" />
    <glyph glyph-name="uniA78C" unicode="&#xa78c;" horiz-adv-x="160" 
d="M30 775h100l-20 -225h-60z" />
    <glyph glyph-name="uni004A0301" horiz-adv-x="282" 
d="M212 775q-13 -54 -15.5 -110t-2.5 -112v-533q0 -124 -46 -180t-155 -56q-12 0 -32.5 2t-32.5 4l-18 114l3 1q15 -14 36 -27t51 -13q58 0 76 41.5t18 135.5v511q0 56 -2.5 112t-15.5 110h136zM162 840h-70l66 160h125z" />
    <glyph glyph-name="uni013B.loclMAH" horiz-adv-x="575" 
d="M70 0q13 54 15.5 110t2.5 112v331q0 56 -2.5 112t-15.5 110h136q-13 -54 -15.5 -110t-2.5 -112v-473h140q55 0 93 3.5t67.5 12t56.5 22.5l-24 -118h-451zM305 -51l59 -61l-79 -136l-24 7l30 83l-47 46z" />
    <glyph glyph-name="uni0145.loclMAH" horiz-adv-x="810" 
d="M211 775l416 -645v424q0 56 -2.5 112t-15.5 110h131q-13 -54 -15.5 -110t-2.5 -112v-331q0 -56 2.5 -112.5t15.5 -110.5h-144l-413 640v-418q0 -56 2.5 -112t15.5 -110h-131q13 54 15.5 110t2.5 112v331q0 56 -2.5 112t-15.5 110h141zM403 -51l59 -61l-79 -136l-24 7
l30 83l-47 46z" />
    <glyph glyph-name="i.loclTRK" horiz-adv-x="250" 
d="M122 788l83 -82l-83 -83l-82 83zM85 222v108q0 54 -4 88.5t-12 58.5t-22 46v6l133 28v-335q0 -56 2.5 -112t15.5 -110h-131q13 54 15.5 110t2.5 112z" />
    <glyph glyph-name="uni006A0301" horiz-adv-x="315" 
d="M169 615h-70l66 160h125zM205 -28q0 -72 -20 -127.5t-64 -87t-117 -31.5q-3 0 -15.5 0.5t-27 1.5t-22.5 2l-19 120l3 1q10 -9 29.5 -17t42.5 -12t42 -1q41 6 57.5 46.5t16.5 120.5v342q0 54 -4 88.5t-12 58.5t-22 46v6l133 28l-1 -227v-358z" />
    <glyph glyph-name="uni013C.loclMAH" horiz-adv-x="241" 
d="M78 222v331q0 54 -4 88.5t-12 58.5t-22 46v6l133 28v-558q0 -56 2.5 -112t15.5 -110h-131q13 54 15.5 110t2.5 112zM123 -51l59 -61l-79 -136l-24 7l30 83l-47 46z" />
    <glyph glyph-name="uni0146.loclMAH" horiz-adv-x="584" 
d="M431 299q0 32 -3 64.5t-13 59.5t-32 44t-60 17q-59 0 -90.5 -28t-44 -71t-15.5 -90v-73q0 -56 2.5 -112t15.5 -110h-131q13 54 15.5 110t2.5 112v108q0 54 -4 88.5t-12 58.5t-22 46v6l133 28v-81h7q15 25 32.5 44.5t46.5 31.5t78 12q60 0 97.5 -22.5t57 -60.5t27 -85
t7.5 -97v-77q0 -56 2.5 -112t15.5 -110h-131q13 54 15.5 110t2.5 112v77zM290 -51l59 -61l-79 -136l-24 7l30 83l-47 46z" />
    <glyph glyph-name="zero.tf" horiz-adv-x="700" 
d="M349 -14q-75 0 -133.5 31t-100 86.5t-63 128.5t-21.5 156t21.5 155.5t63 128t100 86.5t133.5 31t134 -31t100.5 -86t63 -128t21.5 -156t-22 -156t-63 -128.5t-100 -86.5t-134 -31zM348 66q69 0 117.5 43t74 116.5t25.5 162.5q0 90 -25.5 162.5t-74 115.5t-117.5 43
q-68 0 -116 -43t-73 -115.5t-25 -162.5t25 -163t73 -116t116 -43zM349 466l78 -78l-78 -78l-78 78z" />
    <glyph glyph-name="one.tf" horiz-adv-x="700" 
d="M301 222v291q0 54 -6.5 80.5t-23.5 34.5t-48 8v6l173 138v-558q0 -56 2.5 -112t15.5 -110h-131q13 54 15.5 110t2.5 112z" />
    <glyph glyph-name="two.tf" horiz-adv-x="700" 
d="M97 684q12 15 41.5 40t80 45t122.5 20q79 0 135 -30t85.5 -81t29.5 -114q0 -53 -26.5 -105.5t-74.5 -109.5t-113 -123t-141 -146h169q55 0 93 3.5t67.5 12t56.5 22.5l-24 -118h-509v46l179 204q13 15 38 41t54 59.5t56 70.5t44 73t17 67q0 70 -37.5 109t-106.5 39
q-52 0 -102.5 -34.5t-88.5 -102.5h-3z" />
    <glyph glyph-name="three.tf" horiz-adv-x="700" 
d="M419 450q65 -8 112.5 -40t73.5 -81.5t26 -111.5q0 -65 -36 -117.5t-97.5 -83t-138.5 -30.5q-51 0 -100 13.5t-90.5 38.5t-68.5 58l67 109h3q26 -65 76.5 -102t112.5 -37q75 0 122 41.5t47 108.5q0 53 -23 92t-61.5 61t-85.5 22q-20 0 -45 -4t-48 -14l-7 6l212 316h-144
q-54 0 -90 -3.5t-63 -12t-54 -22.5l14 118h476v-46z" />
    <glyph glyph-name="four.tf" horiz-adv-x="700" 
d="M675 196q-34 8 -69.5 12t-71.5 5q0 -54 3 -107.5t15 -105.5h-151q19 28 26.5 55.5t9.5 65.5t2 94h-360v46l455 519v-486q36 2 71.5 6t69.5 12v-116zM221 292h218v253z" />
    <glyph glyph-name="five.tf" horiz-adv-x="700" 
d="M626 229q0 -72 -36 -127t-97.5 -85.5t-138.5 -30.5q-50 0 -99.5 13.5t-91 38.5t-68.5 58l67 109h3q26 -65 72.5 -102t116.5 -37q45 0 83.5 19.5t62 56t23.5 86.5q0 47 -19.5 85.5t-57.5 62t-94 23.5q-38 0 -69.5 -9.5t-52.5 -21t-28 -18.5h-92l47 425h400l19 -118
q-29 17 -57.5 24.5t-65 10t-91.5 2.5h-124l-27 -259q24 16 62 30t90 14q78 0 137 -32.5t92.5 -88.5t33.5 -129z" />
    <glyph glyph-name="six.tf" horiz-adv-x="700" 
d="M349 -14q-86 0 -145 35t-89 98t-30 145q0 95 30 176t78.5 147.5t101.5 116.5q35 35 46.5 49t16.5 22h158v-4q-36 -19 -61.5 -39t-48.5 -40q-40 -36 -79.5 -79t-71 -91t-48.5 -98q28 26 66 41t76 15q85 0 144 -32.5t90.5 -87t31.5 -121.5q0 -78 -35.5 -135t-95.5 -87.5
t-135 -30.5zM348 66q47 0 86.5 17.5t63.5 56t24 99.5q0 47 -22 83.5t-61 57t-91 20.5q-51 0 -89.5 -21t-60 -57t-21.5 -83q0 -56 23.5 -95t62.5 -58.5t85 -19.5z" />
    <glyph glyph-name="seven.tf" horiz-adv-x="700" 
d="M629 775v-47l-221 -526q-18 -50 -38.5 -99.5t-28.5 -102.5h-146q26 38 48 80t43 85l232 530h-212q-54 0 -90 -3.5t-63 -12t-54 -22.5l14 118h516z" />
    <glyph glyph-name="eight.tf" horiz-adv-x="700" 
d="M349 -14q-78 0 -139 29t-96 81.5t-35 122.5q0 65 31 113.5t86 75.5q-39 29 -60.5 72.5t-21.5 92.5q0 58 30 107t83 79t122 30q70 0 123 -30t83 -79t30 -107q0 -49 -21.5 -92.5t-60.5 -72.5q55 -27 86 -75.5t31 -113.5q0 -70 -35 -122.5t-96 -81.5t-140 -29zM348 440
q66 0 102.5 39.5t36.5 93.5q0 37 -16.5 67.5t-47.5 49.5t-75 19q-43 0 -73.5 -19t-46.5 -49.5t-16 -67.5q0 -54 35.5 -93.5t100.5 -39.5zM348 66q77 0 123 39.5t46 113.5q0 72 -44.5 106.5t-124.5 34.5q-79 0 -122.5 -34.5t-43.5 -106.5q0 -75 45 -114t121 -39z" />
    <glyph glyph-name="nine.tf" horiz-adv-x="700" 
d="M344 789q86 0 145 -35t89 -97.5t30 -145.5q0 -94 -30 -175.5t-78 -148t-102 -116.5q-34 -34 -46 -48.5t-17 -22.5h-158v4q36 19 62 39t48 40q40 36 79 79t71 90.5t48 96.5q-25 -25 -60 -39.5t-81 -14.5q-79 0 -139 32.5t-93.5 87.5t-33.5 121q0 78 35.5 135t96 87.5
t134.5 30.5zM345 709q-46 0 -86 -17.5t-64 -55.5t-24 -100q0 -47 22 -83.5t61.5 -57t90.5 -20.5q52 0 90 21t59.5 57.5t21.5 82.5q0 57 -23.5 95.5t-62 58t-85.5 19.5z" />
    <glyph glyph-name="periodcentered.loclCAT" horiz-adv-x="116" 
d="M58 446l78 -78l-78 -78l-78 78z" />
    <glyph glyph-name="periodcentered.loclCAT.case" 
d="M-132 446l78 -78l-78 -78l-78 78z" />
    <glyph glyph-name="uni030C.alt" 
d="M111 780l59 -61l-79 -136l-24 7l30 83l-47 46z" />
    </font>
</defs>
</svg>
