<?xml version="1.0" standalone="no"?>
<!DOCTYPE svg PUBLIC "-//W3C//DTD SVG 1.1//EN" "http://www.w3.org/Graphics/SVG/1.1/DTD/svg11.dtd" >
<svg xmlns="http://www.w3.org/2000/svg" xmlns:xlink="http://www.w3.org/1999/xlink" version="1.1">
<metadata>
Created by FontForge 20201107 at Thu Sep  2 18:52:27 2021
 By 
Copyright 2016 The Dancing Script Project Authors (https://github.com/googlefonts/DancingScript), with Reserved Font Name "Dancing Script".
</metadata>
<defs>
<font id="DancingScript-Regular" horiz-adv-x="0" >
  <font-face 
    font-family="Dancing Script"
    font-weight="400"
    font-stretch="normal"
    units-per-em="1000"
    panose-1="0 0 0 0 0 0 0 0 0 0"
    ascent="800"
    descent="-200"
    x-height="298"
    cap-height="718"
    bbox="-239 -284 1298 1095"
    underline-thickness="50"
    underline-position="-125"
    unicode-range="U+000D-FB02"
  />
<missing-glyph horiz-adv-x="428" 
d="M0 0v720h428v-720h-428zM80 70h268v580h-268v-580z" />
    <glyph glyph-name="fi" unicode="fi" horiz-adv-x="555" 
d="M-13 -280q-10 0 -23 6.5t-22.5 25.5t-9.5 56q0 44 15 114.5t41 155.5t60 174.5t73.5 173t81 150t81.5 105.5t76 39q21 0 27.5 -13t6.5 -30q0 -43 -23.5 -94t-62 -103t-86 -98t-95.5 -80q-4 -10 -8.5 -21.5t-8.5 -22.5q16 -6 23 -25q14 -46 38 -65.5t52 -19.5
q32 0 65.5 19.5t59.5 45.5q14 33 31 62t36 46.5t37 17.5q9 0 15.5 -5.5t6.5 -16.5q0 -12 -15.5 -39t-36.5 -62t-36.5 -73.5t-15.5 -73.5q0 -36 12 -48t37 -12q34 0 72.5 34t81.5 119l9 -10q-29 -86 -83.5 -132t-113.5 -46q-39 0 -58 24.5t-19 59.5q0 20 6.5 50.5t17.5 63.5
q-28 -23 -61 -36.5t-65 -13.5q-15 0 -33 4t-36 12q2 -16 3 -32.5t1 -31.5q0 -63 -13 -125.5t-35 -114.5t-49.5 -83t-56.5 -31zM13 -232q14 0 31.5 29.5t33.5 76.5t26.5 101t10.5 102q0 16 -1 37t-7.5 41.5t-21.5 32.5q-27 -76 -47.5 -148.5t-32 -130.5t-11.5 -93
q0 -48 19 -48zM143 343q65 60 112.5 120.5t73.5 108t26 67.5q0 14 -14 14q-26 0 -59 -42.5t-69 -112.5t-70 -155zM505 432q-16 0 -28.5 8t-12.5 25q0 14 11.5 26t28.5 19t33 7q15 0 24 -7t9 -24q0 -19 -20.5 -36.5t-44.5 -17.5z" />
    <glyph glyph-name="fl" unicode="fl" horiz-adv-x="549" 
d="M-13 -280q-10 0 -23 6.5t-22.5 25.5t-9.5 56q0 44 15 114.5t41 155.5t60 174.5t73.5 173t81 150t81.5 105.5t76 39q21 0 27.5 -13t6.5 -30q0 -43 -23.5 -94t-62 -103t-86 -98t-95.5 -80q-4 -10 -8.5 -21.5t-8.5 -22.5q10 -3 16 -11.5t7 -19.5q7 -56 33 -78.5t59 -22.5
q25 0 51.5 9.5t50.5 23.5q12 54 34.5 116t51.5 125t60 120.5t61 102.5t54 71t39 26q11 0 18 -12.5t11 -30t4 -31.5q0 -27 -13.5 -70.5t-38 -97t-58 -108t-73 -104.5t-83.5 -86q-6 -27 -9.5 -52.5t-3.5 -48.5q0 -39 11 -58t33 -19q27 0 53 24t49.5 60.5t40.5 75.5l16 -8
q-40 -85 -87 -134.5t-101 -49.5q-43 0 -61.5 29.5t-18.5 73.5q0 27 6 60q-56 -31 -111 -31q-17 0 -36 4.5t-36 14.5q1 -12 1.5 -24t0.5 -23q0 -63 -13 -125.5t-35 -114.5t-49.5 -83t-56.5 -31zM13 -232q14 0 31.5 29.5t33.5 76t26.5 99.5t10.5 99q0 26 -5 58t-26 54
q-26 -76 -46.5 -147.5t-32 -128.5t-11.5 -92q0 -48 19 -48zM143 343q65 60 112.5 120.5t73.5 108t26 67.5q0 14 -14 14q-26 0 -59 -42.5t-69 -112.5t-70 -155zM403 214q35 35 68 80.5t61.5 94.5t50.5 95t34 82.5t12 56.5q0 10 -2.5 13t-4.5 3q-8 0 -27.5 -25.5t-45.5 -68.5
t-53 -98t-51.5 -115t-41.5 -118z" />
    <glyph glyph-name="b_r" unicode="br" horiz-adv-x="742" 
d="M93 -73q-52 0 -77.5 34t-25.5 92q0 50 17 118t45 142.5t62.5 145.5t69.5 128.5t66 92t51 34.5q17 0 24.5 -21t7.5 -42q0 -28 -12 -68t-34 -85.5t-51 -89.5t-62.5 -80.5t-68.5 -57.5q-6 -11 -17.5 -45.5t-21 -79t-9.5 -86.5q0 -41 12.5 -67.5t42.5 -26.5q29 0 60 23.5
t50 60.5q-37 19 -55 55.5t-18 73.5q0 48 25 77t59 29q29 0 46 -23.5t17 -68.5q0 -33 -8 -66.5t-25 -66.5q5 -1 10.5 -1.5t10.5 -0.5q40 0 71 27t54 68.5t39.5 86t28.5 78.5q-4 5 -7 10.5t-3 15.5q0 26 16.5 46t27.5 20q8 0 10 -10t2 -13q0 -9 -5.5 -20.5t-5.5 -19.5
q0 -12 15.5 -23t35.5 -25.5t35.5 -36t15.5 -53.5q0 -30 -12.5 -60.5t-25 -58.5t-12.5 -50q0 -17 9 -23t21 -6q24 0 49.5 15t49.5 38t43 48.5t28 47.5l13 -10q-19 -42 -52 -82.5t-73.5 -66.5t-83.5 -26q-34 0 -53.5 17.5t-19.5 48.5q0 29 14 61.5t27.5 65.5t13.5 60
q0 31 -18.5 46.5t-37.5 28.5q-12 -38 -28.5 -84t-41 -87.5t-59.5 -68.5t-84 -27q-7 0 -14 1t-15 2q-27 -46 -66.5 -78.5t-92.5 -32.5zM232 69q11 23 17 48.5t6 52.5q0 35 -9.5 55t-23.5 20q-15 0 -26.5 -20.5t-11.5 -51.5q0 -27 11 -57t37 -47zM116 309q28 22 54.5 56
t49.5 72.5t41 75.5t28 67t10 45q0 5 -1 6.5t-3 1.5q-8 0 -30.5 -28.5t-50 -76t-54.5 -105t-44 -114.5z" />
    <glyph glyph-name="e_e" unicode="ee" horiz-adv-x="668" 
d="M440 -49q-61 0 -90.5 37t-29.5 89q-43 -57 -99 -89t-113 -32q-61 0 -91.5 33.5t-30.5 82.5q0 45 22.5 95t60 94t82.5 71.5t89 27.5q23 0 42.5 -12t19.5 -49q0 -38 -22.5 -71.5t-59 -59.5t-80 -42.5t-86.5 -20.5q-2 -10 -3 -19t-1 -17q0 -20 7 -39.5t24 -32t48 -12.5
q53 0 105 37.5t91 92.5q9 41 32 82t55.5 74.5t70.5 54t77 20.5q23 0 42.5 -12t19.5 -49q0 -51 -34.5 -89.5t-88.5 -61.5t-111 -29q-2 -10 -3 -19t-1 -17q0 -20 6.5 -41t23 -34.5t47.5 -13.5q43 0 86 25.5t80 67t62 89.5l12 -9q-27 -60 -69.5 -105.5t-92 -71t-99.5 -25.5z
M59 124q27 9 61 26.5t65.5 41.5t52 53t20.5 61q0 11 -4 17t-17 6q-24 0 -51 -18.5t-52 -48.5t-45 -66t-30 -72zM393 124q27 9 59 24t61 35.5t48 47t19 58.5q0 11 -5 18.5t-18 7.5q-32 0 -64.5 -28t-59 -71.5t-40.5 -91.5z" />
    <glyph glyph-name="l_l" unicode="ll" horiz-adv-x="473" 
d="M83 -30q-43 0 -61.5 29.5t-18.5 73.5q0 48 18 114t47.5 139t64.5 142.5t70 126.5t64.5 91t46.5 34q11 0 18 -12.5t11 -30t4 -31.5q0 -27 -13.5 -70.5t-38 -97t-58 -108t-73 -104.5t-83.5 -86q-6 -27 -9.5 -52.5t-3.5 -48.5q0 -77 44 -77q24 0 48.5 20.5t47 52.5t39.5 68
q10 52 30 111.5t46 119.5t55 115t57 98t52 68t39 25q11 0 18 -12.5t11 -30t4 -31.5q0 -33 -17 -86.5t-48.5 -114.5t-76 -120.5t-99.5 -104.5q-6 -27 -9.5 -52.5t-3.5 -48.5q0 -77 44 -77q27 0 53.5 24t50 60.5t40.5 75.5l15 -8q-40 -85 -87 -134.5t-101 -49.5q-48 0 -66 36
t-13 90q-35 -59 -74.5 -92.5t-83.5 -33.5zM90 214q35 35 68 80.5t61.5 94.5t50.5 95t34 82.5t12 56.5q0 10 -2.5 13t-4.5 3q-8 0 -27.5 -25.5t-45.5 -68.5t-53 -98t-51.5 -115t-41.5 -118zM327 214q44 44 80.5 97t63.5 106t42 97t15 69q0 10 -2.5 13t-4.5 3
q-10 0 -33.5 -32.5t-53 -87.5t-58 -124t-49.5 -141z" />
    <glyph glyph-name="o_r" unicode="or" horiz-adv-x="753" 
d="M68 -32q-38 0 -59 24.5t-21 62.5q0 32 13.5 71.5t37.5 79t54.5 72.5t65.5 53.5t71 20.5q19 0 29 -6t14 -15q2 1 3.5 1h3.5q19 0 26.5 -15t7.5 -24q0 -12 -10 -31.5t-19.5 -43.5t-9.5 -51q0 -28 14 -41.5t45 -13.5q20 0 42.5 19.5t44.5 50t39.5 66.5t26.5 69
q-10 10 -10 24q0 20 8 35.5t18.5 24t15.5 8.5q11 0 12.5 -9.5t1.5 -14.5t-5.5 -19.5t-5.5 -17.5q0 -14 15.5 -25.5t35.5 -26t35.5 -35t15.5 -52.5q0 -30 -12.5 -61t-25 -59t-12.5 -49q0 -18 9 -24t21 -6q24 0 49.5 15t49.5 38t43 48.5t28 47.5l13 -10q-19 -42 -52 -82.5
t-73.5 -66.5t-83.5 -26q-34 0 -53.5 18t-19.5 47q0 30 14 63t27.5 65.5t13.5 58.5q0 32 -18.5 47.5t-37.5 28.5q-11 -34 -29.5 -71.5t-41.5 -70t-49.5 -52.5t-55.5 -20q-28 0 -50.5 11.5t-34.5 34.5q-31 -73 -76.5 -119.5t-98.5 -46.5zM90 11q23 0 49 20.5t51 55.5t43 78
q-6 24 -6 57q0 23 2.5 40t7 30t9.5 21q-34 0 -63.5 -18.5t-53.5 -48t-41 -63.5t-26.5 -66t-9.5 -55t10 -37t28 -14z" />
    <glyph glyph-name="t_h" unicode="th" horiz-adv-x="762" 
d="M85 -46q-43 0 -66 25t-23 74q0 30 8.5 72t23 89.5t31.5 92.5q-10 2 -19 6.5t-17 7.5v18q8 -1 19 -5t25 -5q28 72 59.5 133t60.5 98t49 37q8 0 14.5 -5.5t6.5 -16.5q0 -10 -8 -28.5t-22 -43.5t-31 -55t-36 -64t-36 -71q25 -4 48.5 -7t48.5 -3q27 0 58 4t71 12
q26 71 58.5 141t66 127.5t64 92t52.5 34.5q18 0 25.5 -21.5t7.5 -41.5q0 -35 -17.5 -82.5t-47.5 -98t-69.5 -94t-83.5 -70.5q-16 -38 -28.5 -88t-17.5 -98.5t-1 -80.5q24 69 54 128t67.5 95t81.5 36q41 0 58.5 -28.5t17.5 -61.5q0 -31 -10.5 -60t-21.5 -56t-11 -52
q0 -20 8.5 -29t21.5 -9q23 0 51.5 22t56.5 58.5t48 79.5l13 -12q-21 -49 -51 -88.5t-66 -62.5t-75 -23q-34 0 -51.5 18t-17.5 45q0 21 8 47t15.5 53t7.5 51q0 26 -11 37t-27 11q-25 0 -45 -20t-36.5 -51.5t-31 -66.5t-27.5 -66.5t-26 -51.5t-27 -20q-11 0 -20 11t-14.5 31
t-6.5 46.5t3 56.5q-38 -67 -93.5 -110t-116.5 -43zM114 -9q52 0 102 46t88 125q7 33 14.5 63t20.5 67q-34 -8 -64.5 -11t-58.5 -3t-53 3.5t-50 7.5q-23 -53 -39 -109t-16 -109q0 -43 13 -61.5t43 -18.5zM419 345q35 28 65.5 67.5t54.5 81t37.5 77t13.5 54.5q0 8 -4 8
q-7 0 -27 -22t-45.5 -61t-50.5 -91.5t-44 -113.5z" />
    <glyph glyph-name="v_r" unicode="vr" horiz-adv-x="756" 
d="M65 -39q-31 0 -43 30.5t-12 79.5q0 2 1 31.5t5 99.5q2 27 6 37t26 10q17 0 21.5 -6.5t4.5 -25.5q0 -22 -2.5 -49.5t-4.5 -56.5t-2 -55q0 -29 5 -42.5t18 -13.5q18 0 40 20.5t45 54t43.5 71.5t36.5 73q2 68 14.5 90.5t31.5 22.5t27.5 -13.5t8.5 -24.5q0 -2 -7 -21.5
t-14.5 -47t-7.5 -53.5q0 -23 10 -39.5t36 -16.5t47.5 21t38.5 53.5t30 66.5t22 60q-4 5 -7 11t-3 13q0 30 17 49t25 19q11 0 12.5 -9.5t1.5 -14.5t-5.5 -19.5t-5.5 -17.5q0 -14 15.5 -25.5t35.5 -26t35.5 -35t15.5 -52.5q0 -30 -12.5 -61t-25 -59t-12.5 -49q0 -18 9 -24
t21 -6q24 0 49.5 15t49.5 38t43 48.5t28 47.5l13 -10q-19 -42 -52 -82.5t-73.5 -66.5t-83.5 -26q-34 0 -53.5 18t-19.5 47q0 30 14 63t27.5 65.5t13.5 58.5q0 32 -18.5 47.5t-37.5 28.5q-11 -31 -25.5 -67.5t-34 -69t-45 -53t-59.5 -20.5q-33 0 -57.5 19.5t-29.5 49.5
q-24 -49 -56.5 -94.5t-67.5 -75.5t-67 -30z" />
    <glyph glyph-name="w_r" unicode="wr" horiz-adv-x="966" 
d="M282 -39q-31 0 -42.5 28.5t-11.5 68.5q0 20 2 43.5t5 46.5q-22 -44 -47.5 -85t-53.5 -67t-59 -26q-33 0 -54 30t-21 71q0 29 9.5 67t23.5 75t29 61t26 24q4 0 12.5 -2.5t16.5 -7t8 -10.5q-11 -17 -27 -52t-28 -75.5t-12 -73.5q0 -8 2 -24.5t9.5 -29.5t23.5 -13
q23 0 49 29t52 73t49 89q8 41 13.5 60t11.5 24.5t15 5.5q13 0 22.5 -5.5t6.5 -16.5q-10 -42 -20 -101t-10 -119q0 -23 5 -36t17 -13q15 0 36 21.5t44 56t45 73.5t38 74q0 52 5.5 74.5t15 27.5t21.5 5q19 0 27.5 -13.5t8.5 -24.5q-7 -19 -17.5 -44.5t-10.5 -66.5
q0 -23 11 -39.5t39 -16.5q24 0 44.5 19.5t37 49.5t29.5 62.5t22 58.5q-4 5 -7 11t-3 13q0 30 17 49t25 19q11 0 12.5 -9.5t1.5 -14.5t-5.5 -19.5t-5.5 -17.5q0 -14 15.5 -25.5t35.5 -26t35.5 -35t15.5 -52.5q0 -30 -12.5 -61t-25 -59t-12.5 -49q0 -18 9 -24t21 -6
q24 0 49.5 15t49.5 38t43 48.5t28 47.5l13 -10q-19 -42 -52 -82.5t-73.5 -66.5t-83.5 -26q-34 0 -53.5 18t-19.5 47q0 30 14 63t27.5 65.5t13.5 58.5q0 32 -18.5 47.5t-37.5 28.5q-10 -30 -25 -65t-34.5 -66t-44.5 -51t-55 -20q-31 0 -52.5 18t-31.5 50q-19 -35 -42.5 -71.5
t-49.5 -67t-51.5 -49.5t-48.5 -19z" />
    <glyph glyph-name=".notdef" horiz-adv-x="428" 
d="M0 0v720h428v-720h-428zM80 70h268v580h-268v-580z" />
    <glyph glyph-name=".null" 
 />
    <glyph glyph-name="nonmarkingreturn" horiz-adv-x="333" 
 />
    <glyph glyph-name="NULL" 
 />
    <glyph glyph-name="NULL" 
 />
    <glyph glyph-name="CR" unicode="&#xd;" horiz-adv-x="260" 
 />
    <glyph glyph-name="space" unicode=" " horiz-adv-x="260" 
 />
    <glyph glyph-name="exclam" unicode="!" horiz-adv-x="260" 
d="M93 291q17 42 38 97.5t45 113.5t48.5 107.5t47.5 80t42 30.5q8 0 14 -6.5t6 -16.5q0 -14 -14.5 -51.5t-39 -91t-55 -114.5t-63.5 -123.5t-64.5 -118t-57.5 -96.5l-1.5 1.5l-1.5 1.5q10 45 20.5 82t20.5 63.5t15 40.5zM11 -10q-13 0 -22.5 6.5t-9.5 20.5q0 17 19.5 29
t38.5 12q12 0 19 -5t7 -19q0 -15 -16 -29.5t-36 -14.5z" />
    <glyph glyph-name="quotedbl" unicode="&#x22;" horiz-adv-x="245" 
d="M268 576q-9 5 -13 15t-4 22q0 21 9 46t23 43t29 18q10 0 17.5 -8.5t7.5 -19.5q-28 -29 -41.5 -58t-27.5 -58zM148 576q-9 5 -13 15t-4 22q0 21 9 46t23 43t29 18q10 0 17.5 -8.5t7.5 -19.5q-28 -29 -41.5 -58t-27.5 -58z" />
    <glyph glyph-name="numbersign" unicode="#" horiz-adv-x="668" 
d="M102 -162q17 21 35.5 70t37.5 117t37 145q-34 -1 -68.5 -3.5t-78.5 -6.5l-56 -5q2 26 31 40.5t77.5 21.5t107.5 8q2 11 6.5 32t7.5 32q-31 -2 -63.5 -4t-72.5 -6l-57 -5q2 25 29.5 39.5t73.5 21.5t102 8q23 106 39 191.5t28 140.5q3 14 10 26t35 19q-3 -17 -13.5 -73
t-25.5 -135.5t-32 -167.5q35 0 66.5 -1t61.5 -3q23 107 39.5 193t28.5 142q3 14 10 26t35 19q-3 -13 -9.5 -49t-16.5 -88t-22 -115t-25 -130q57 -3 108 -7t94 -4q-27 -23 -52.5 -27.5t-48.5 -4.5q-31 0 -58 -0.5t-51 -0.5q-3 -15 -8 -38.5t-7 -37.5q53 -3 100 -6.5t87 -3.5
q-27 -23 -52 -27.5t-48 -4.5h-50.5t-45.5 -1q-22 -111 -42.5 -186t-46.5 -113t-67 -38q18 22 36.5 71.5t37.5 118t37 144.5h-126q-23 -110 -42.5 -184.5t-45.5 -112t-67 -37.5zM394 221l16 72q-39 0 -70 -0.5t-59 -1.5l-13 -66q32 0 64 -1t62 -3z" />
    <glyph glyph-name="dollar" unicode="$" horiz-adv-x="531" 
d="M135 -162q11 14 23.5 41.5t25.5 64.5q-49 3 -90.5 20.5t-67 50t-25.5 80.5q0 45 20.5 74t50.5 43t57 14q-27 -29 -41 -64t-14 -69q0 -51 31 -81t89 -36q18 60 36.5 134.5t35.5 152.5q-33 20 -64.5 41.5t-52 52.5t-20.5 76q0 55 30 101.5t79.5 77.5t107.5 40q3 12 6 25.5
t12.5 25t31.5 17.5q-1 -7 -4.5 -24.5t-7.5 -40.5q67 0 90 -29t23 -75q0 -39 -12.5 -81t-35.5 -80q-18 4 -26.5 16.5t-8.5 25.5q0 17 9.5 44t18.5 56t9 50q0 23 -16 36t-56 13q-15 -78 -29.5 -156t-29.5 -156q35 -18 67 -40.5t53 -54.5t21 -81q0 -60 -32 -102.5t-83.5 -67
t-110.5 -29.5q-19 -52 -43.5 -79t-56.5 -27zM245 -24q68 7 107.5 44.5t39.5 92.5q0 47 -25.5 76.5t-62.5 51.5q-20 -102 -34.5 -169t-24.5 -96zM283 339q17 82 32 157.5t26 130.5q-45 -9 -78.5 -36t-52 -62.5t-18.5 -70.5q0 -44 27 -71t64 -48z" />
    <glyph glyph-name="percent" unicode="%" horiz-adv-x="698" 
d="M78 -87q23 23 58.5 75t78 122.5t86.5 149.5t84.5 157t72.5 145t50 113q4 10 18 20t32 17.5t34 7.5q-5 -14 -25.5 -55.5t-50.5 -100.5t-64.5 -125.5t-70 -132t-66 -120t-52.5 -89.5q-52 -82 -97 -133t-88 -51zM180 347q-43 0 -62.5 32.5t-19.5 75.5q0 33 10.5 70.5t30 70
t46 53t58.5 20.5q38 0 61 -28.5t23 -75.5q0 -32 -11 -69.5t-30.5 -71.5t-46.5 -55.5t-59 -21.5zM186 385q18 0 34 18.5t28.5 47t19.5 61.5t7 61q0 26 -7.5 43t-24.5 17q-22 0 -39 -19.5t-28 -49.5t-17 -61.5t-6 -55.5q0 -28 8.5 -45t24.5 -17zM503 0q-43 0 -62.5 32.5
t-19.5 75.5q0 33 10.5 70.5t30 70t46 53t58.5 20.5q38 0 61 -28.5t23 -75.5q0 -31 -11 -69t-30.5 -71.5t-46.5 -55.5t-59 -22zM509 38q18 0 34 18.5t28.5 47t19.5 61.5t7 61q0 26 -7.5 43t-24.5 17q-22 0 -39 -19.5t-28 -49.5t-17 -61.5t-6 -54.5q0 -28 8.5 -45.5
t24.5 -17.5z" />
    <glyph glyph-name="ampersand" unicode="&#x26;" horiz-adv-x="616" 
d="M192 -87q-60 0 -104 25t-67.5 66.5t-23.5 90.5q0 46 20 90t55.5 80.5t82.5 60t101 28.5q-39 32 -57.5 74t-18.5 84q0 53 27 100.5t73.5 77t106.5 29.5q54 0 81.5 -27t27.5 -79q0 -37 -12 -72.5t-29.5 -58t-34.5 -22.5q-11 0 -21 9.5t-16 22.5q35 31 58.5 64.5t23.5 72.5
q0 31 -16.5 50.5t-51.5 19.5q-47 0 -79 -28.5t-48.5 -75t-16.5 -100.5q0 -24 4.5 -51t17 -53t36.5 -47q-67 -11 -116.5 -51t-77 -94t-27.5 -107q0 -33 12.5 -66.5t40.5 -56t75 -22.5q53 0 102.5 27t90 72t66.5 101.5t33 116.5q-21 -1 -38.5 -3t-38.5 -5.5t-54 -10.5
q2 42 32 56t72 14q30 0 57 -4t51.5 -8t44.5 -5q-11 -23 -21.5 -27.5t-20.5 -4.5q-17 0 -31.5 -0.5t-26.5 -0.5q-7 -69 -37.5 -132t-78 -112.5t-106 -78.5t-122.5 -29z" />
    <glyph glyph-name="quotesingle" unicode="'" horiz-adv-x="125" 
d="M148 576q-9 5 -13 15t-4 22q0 21 9 46t23 43t29 18q10 0 17.5 -8.5t7.5 -19.5q-28 -29 -43.5 -59.5t-25.5 -56.5z" />
    <glyph glyph-name="parenleft" unicode="(" horiz-adv-x="258" 
d="M142 -87q-24 15 -43.5 55.5t-30.5 98t-11 122.5q0 96 23 177.5t59.5 147t78.5 111.5t80.5 70.5t65.5 24.5q-66 -47 -113.5 -111.5t-77.5 -139.5t-44 -153.5t-14 -153.5t12.5 -133.5t34.5 -94.5q-4 -8 -9 -13t-11 -8z" />
    <glyph glyph-name="parenright" unicode=")" horiz-adv-x="268" 
d="M-39 -87q-7 2 -12.5 9t-9.5 15q70 49 128 127t93.5 181.5t35.5 229.5q0 62 -13.5 123.5t-57.5 121.5q27 -7 55.5 -42.5t47.5 -96.5t19 -146q0 -90 -22.5 -169.5t-58 -144t-75 -111.5t-74.5 -72t-56 -25z" />
    <glyph glyph-name="asterisk" unicode="*" horiz-adv-x="391" 
d="M355 404q-13 15 -38 52.5t-51 75.5q-25 -49 -51 -86.5t-52 -37.5q17 25 27.5 44.5t19.5 40t21 46.5q-45 0 -77.5 5.5t-37.5 27.5q25 2 52 3t65 2q-21 35 -34.5 65.5t-13.5 49.5q0 9 5 15t9 11q18 -38 32.5 -68t35.5 -62q23 49 42 85.5t53 44.5q-9 -25 -28.5 -62.5
t-38.5 -78.5q20 1 46 2t50.5 -4.5t41.5 -23.5l-130 -12q12 -18 24 -35.5t20 -41t8 -58.5z" />
    <glyph glyph-name="plus" unicode="+" horiz-adv-x="408" 
d="M151 -11q5 32 7.5 57t3 50.5t0.5 58.5q-31 0 -55.5 -0.5t-48.5 -3t-55 -7.5q10 27 54 37.5t105 11.5v50q0 21 5.5 49.5t23.5 53.5q2 -20 5 -62t4 -91q51 -1 95 -4t65 -5q-25 -18 -53.5 -23.5t-49.5 -5.5h-57q-1 -43 -5.5 -78t-14.5 -58t-29 -30z" />
    <glyph glyph-name="comma" unicode="," horiz-adv-x="196" 
d="M7 -88q-9 5 -13 15t-4 22q0 20 9 45.5t23 43.5t29 18q10 0 17.5 -8.5t7.5 -19.5q-28 -29 -41.5 -58t-27.5 -58z" />
    <glyph glyph-name="hyphen" unicode="-" horiz-adv-x="484" 
d="M36 144q6 15 22.5 24.5t41.5 15t57 7.5t68 2q27 0 52 -1t47.5 -2.5t40 -3t28.5 -2.5q-39 -25 -73.5 -27t-69.5 -2h-53.5h-47.5q-17 0 -35 -1.5t-37 -3.5t-41 -6z" />
    <glyph glyph-name="period" unicode="." horiz-adv-x="214" 
d="M40 -10q-13 0 -22.5 6.5t-9.5 20.5q0 11 9 20.5t22.5 15t26.5 5.5q12 0 19 -5t7 -19q0 -10 -7.5 -20t-19.5 -17t-25 -7z" />
    <glyph glyph-name="slash" unicode="/" horiz-adv-x="330" 
d="M-68 -162q20 20 46.5 65.5t57 108.5t62.5 136.5t63.5 149.5t60 147.5t52 131t38.5 98.5q4 10 18 20t32 17.5t34 7.5q-5 -12 -20 -49t-37 -90t-48 -116t-53 -128.5t-52.5 -126t-46 -109.5t-32.5 -79q-37 -89 -84.5 -136.5t-90.5 -47.5z" />
    <glyph glyph-name="zero" unicode="0" horiz-adv-x="630" 
d="M244 -87q-66 0 -108 36.5t-62.5 96t-20.5 128.5q0 68 17 143.5t49 147t76.5 129t100 92t119.5 34.5q61 0 105 -30.5t68.5 -85.5t24.5 -130q0 -81 -18 -162t-51.5 -152.5t-79 -127t-101.5 -87.5t-119 -32zM258 -53q45 0 86.5 35t76.5 94t61 131t40.5 147t14.5 141
q0 57 -12 101.5t-38.5 70.5t-70.5 26q-45 0 -83.5 -27t-69.5 -72.5t-54.5 -102t-39.5 -117.5t-24 -118t-8 -103q0 -93 32.5 -149.5t88.5 -56.5z" />
    <glyph glyph-name="one" unicode="1" horiz-adv-x="365" 
d="M30 -87q-18 0 -40 10.5t-36 30.5q8 -1 16 -1.5t16 -0.5q26 0 54 3.5t54 7.5q18 42 34.5 103.5t31.5 132.5t28.5 142.5t26 134.5t23.5 108q-57 -40 -81.5 -53t-33.5 -13q-12 0 -18.5 5.5t-6.5 23.5q19 10 54.5 36t77.5 62t78 75q5 -4 7 -13.5t2 -17.5q0 -25 -9 -53.5
t-14 -58.5q-10 -69 -25 -151t-34.5 -165.5t-42.5 -159t-50 -131.5q11 2 21 2.5t19 0.5q38 0 64 -10.5t33 -45.5q-20 2 -39.5 3.5t-39.5 1.5q-31 0 -60 -2t-56 -4.5t-54 -2.5z" />
    <glyph glyph-name="two" unicode="2" horiz-adv-x="559" 
d="M398 -87q-29 0 -67 11t-80.5 28.5t-87.5 36.5q-31 -20 -59.5 -31.5t-54.5 -11.5q-30 0 -49 15t-19 39q0 23 18 35.5t57 12.5q22 0 48.5 -4t56.5 -10q46 41 93 101t86.5 131.5t64 145t24.5 139.5q0 75 -30 108.5t-76 33.5q-44 0 -74.5 -26.5t-46.5 -72.5t-16 -103
q0 -20 2.5 -34.5t9.5 -33.5h-2h-3q-34 9 -52 28.5t-18 60.5q0 54 27.5 101.5t76 77t112.5 29.5q50 0 85.5 -24.5t55 -65.5t19.5 -92q0 -50 -13 -100t-34 -97q-26 -58 -65 -116.5t-84.5 -110.5t-93.5 -91q74 -16 126.5 -26.5t88.5 -10.5q19 0 35.5 5.5t40.5 19.5
q-13 -51 -37.5 -74.5t-64.5 -23.5zM48 -27q16 0 35 8.5t40 22.5q-23 8 -42.5 13t-33.5 5q-20 0 -27.5 -8.5t-7.5 -15.5q0 -11 11.5 -18t24.5 -7z" />
    <glyph glyph-name="three" unicode="3" horiz-adv-x="510" 
d="M170 -87q-61 0 -97 22.5t-51.5 55.5t-15.5 64q0 26 9 50.5t27 41t45 16.5h9.5t8.5 -1q-14 -12 -23 -39.5t-9 -53.5q0 -31 13 -59.5t37 -46.5t56 -18q40 0 77 28t61 78.5t24 116.5q0 39 -10.5 77t-34.5 66.5t-66 39.5q49 22 85.5 63.5t56.5 90.5t20 91q0 53 -27.5 75
t-62.5 22q-28 0 -54 -12.5t-43 -36.5t-17 -59q0 -15 4 -32.5t12 -34.5q-5 -10 -17 -19t-23 -9q-12 0 -20.5 12.5t-12.5 31t-4 35.5q0 49 28 82.5t71 51t88 17.5q40 0 75 -14t57 -42.5t22 -72.5q0 -33 -13.5 -69t-37.5 -69t-55.5 -57.5t-68.5 -34.5q58 -14 90.5 -47t46 -72
t13.5 -74q0 -47 -20.5 -92.5t-57.5 -82t-86.5 -58.5t-108.5 -22z" />
    <glyph glyph-name="four" unicode="4" horiz-adv-x="478" 
d="M297 -87q-34 3 -55.5 14t-21.5 33l2 15t8 52t18 103q1 6 7 35t15 71q-22 0 -44 0.5t-39 0.5q-26 0 -49 -0.5t-43.5 -2t-38.5 -3.5t-34 -4.5t-30 -5.5q0 14 4.5 24.5t13.5 17.5q40 47 97 101t119 113t116.5 120.5t89.5 122.5q4 -1 7.5 -7.5t3.5 -18.5q0 -23 -19 -55
q-5 -23 -16.5 -74.5t-25.5 -122.5t-30 -154h20.5h21.5q19 0 33 1t27 5q-19 -26 -45 -42.5t-45 -16.5h-11h-11l-6 -30t-5 -30q-4 -23 -10 -60.5t-11.5 -78t-9 -74.5t-3.5 -49zM80 288q22 3 47.5 4t53.5 1q29 0 54 -0.5t47 -1.5q14 64 30.5 133t32.5 121q-37 -37 -80 -76.5
t-84 -78t-74 -73.5q-8 -8 -14.5 -15.5t-12.5 -13.5z" />
    <glyph glyph-name="five" unicode="5" horiz-adv-x="483" 
d="M166 -87q-65 0 -102 22.5t-52 55t-15 63.5q0 26 9 51t27.5 41.5t44.5 16.5h9.5t8.5 -1q-14 -12 -23 -39t-9 -58q0 -30 10 -57.5t32.5 -45t59.5 -17.5q40 0 71 20.5t52.5 54t33 74t11.5 80.5q0 41 -13.5 76.5t-42.5 57.5t-78 22q-17 0 -41.5 -3t-50.5 -8q4 28 14 69.5
t23 89t26.5 94t24.5 83.5t16 58q30 -7 56.5 -10t49.5 -3q41 0 78 6t77 14q2 -8 3 -15t1 -12q0 -29 -19 -45.5t-47 -23t-57 -6.5q-37 0 -63.5 6.5t-45.5 6.5q-9 0 -13 -3.5t-10 -16.5q-8 -19 -18 -50t-19.5 -66t-18 -67.5t-14 -54t-6.5 -25.5q21 5 43 7.5t44 2.5
q68 0 111.5 -24.5t65 -67.5t21.5 -97q0 -72 -34 -130t-94 -92t-137 -34z" />
    <glyph glyph-name="six" unicode="6" horiz-adv-x="561" 
d="M253 -87q-74 0 -119 33t-65 89.5t-20 124.5t17.5 145t51 150.5t81 133.5t106.5 95.5t129 35.5q41 0 67.5 -14t26.5 -44q0 -14 -9 -27t-37 -21q0 8 1 13t1 15q0 22 -10.5 38.5t-44.5 16.5q-48 0 -90 -34.5t-76.5 -91.5t-60.5 -125.5t-42 -136.5q33 31 78 48t91 17
q50 0 91.5 -20.5t66.5 -63t25 -110.5q0 -76 -33 -136t-91.5 -95.5t-134.5 -35.5zM258 -55q38 0 69 21.5t53 56.5t33.5 77.5t11.5 85.5q0 54 -17.5 88t-46 50t-61.5 16q-60 0 -95.5 -28.5t-51 -74t-15.5 -97.5q0 -28 5 -61.5t17.5 -64t36.5 -50t61 -19.5z" />
    <glyph glyph-name="seven" unicode="7" horiz-adv-x="403" 
d="M95 -87q-13 0 -23.5 11.5t-10.5 33.5q0 29 18.5 81t49 119.5t66.5 140.5q-18 0 -43.5 -1.5t-50.5 -3.5t-42 -5q1 30 22.5 43.5t54 17.5t64.5 4h12h12q40 75 85.5 148t79.5 133q-18 0 -47.5 -1.5t-60 -3t-53.5 -1.5q-58 0 -80 13.5t-22 33.5q0 18 13 42q28 -4 52.5 -9
t55 -8t75.5 -3q47 0 92 5t76 15q-7 -12 -23 -35t-31 -40q-37 -55 -78 -129t-82 -163q28 -1 51 -3t48 -2q14 0 20 1l12 2q-16 -24 -35.5 -37.5t-43.5 -13.5h-32.5t-43.5 1q-17 -41 -38 -91.5t-36 -101.5t-15 -95q0 -13 2.5 -23t9.5 -15q-16 -34 -41 -47t-39 -13z" />
    <glyph glyph-name="eight" unicode="8" horiz-adv-x="527" 
d="M204 -87q-51 0 -84.5 15.5t-53.5 41t-28.5 54t-8.5 53.5q0 43 19 78t50.5 65.5t69.5 58.5t77 57q-28 31 -54 64t-42 71t-16 83q0 60 28 96t71 52.5t86 16.5q68 0 109.5 -36.5t41.5 -107.5q0 -49 -19.5 -88.5t-52 -73t-71.5 -64.5q31 -33 60 -68t47.5 -74t18.5 -85
q0 -64 -36 -111t-93 -72.5t-119 -25.5zM214 -48q37 0 72.5 20.5t59.5 58t24 87.5q0 56 -30 101t-69 88q-46 -33 -87.5 -67.5t-67.5 -73t-26 -86.5q0 -39 18 -68t46.5 -44.5t59.5 -15.5zM300 379q47 40 79 87.5t32 109.5q0 59 -27.5 87.5t-64.5 28.5q-22 0 -47.5 -12
t-43 -39.5t-17.5 -73.5q0 -56 26.5 -101.5t62.5 -86.5z" />
    <glyph glyph-name="nine" unicode="9" horiz-adv-x="566" 
d="M183 -87q-41 0 -68.5 14.5t-27.5 45.5q0 14 9 26t35 20q0 -7 -0.5 -12t-0.5 -13q0 -22 11 -40t46 -18q48 0 88.5 34.5t73.5 91.5t56.5 125.5t36.5 136.5q-31 -31 -75.5 -48t-90.5 -17q-51 0 -94.5 21.5t-69.5 66.5t-26 115q0 73 31.5 131.5t88 92.5t130.5 34
q78 0 125 -35.5t67.5 -95t20.5 -131.5q0 -68 -16.5 -143t-47.5 -146.5t-75.5 -129t-101.5 -92t-125 -34.5zM304 293q80 0 116.5 49t36.5 127q0 37 -5.5 75.5t-19 71t-38 52.5t-62.5 20q-37 0 -66.5 -20.5t-50 -54t-31.5 -74.5t-11 -83q0 -57 18.5 -93t48.5 -53t64 -17z" />
    <glyph glyph-name="colon" unicode=":" horiz-adv-x="216" 
d="M102 240q-13 0 -22.5 6.5t-9.5 20.5q0 17 19.5 29t38.5 12q12 0 19 -5t7 -19q0 -15 -16 -29.5t-36 -14.5zM42 -10q-13 0 -22.5 6.5t-9.5 20.5q0 17 19.5 29t38.5 12q12 0 19 -5t7 -19q0 -15 -16 -29.5t-36 -14.5z" />
    <glyph glyph-name="semicolon" unicode=";" horiz-adv-x="213" 
d="M18 -88q-9 5 -13 15t-4 22q0 20 9 45.5t23 43.5t29 18q10 0 17.5 -8.5t7.5 -19.5q-28 -29 -41.5 -58t-27.5 -58zM102 240q-13 0 -22.5 6.5t-9.5 20.5q0 17 19.5 29t38.5 12q12 0 19 -5t7 -19q0 -15 -16 -29.5t-36 -14.5z" />
    <glyph glyph-name="less" unicode="&#x3c;" horiz-adv-x="310" 
d="M180 44q-18 0 -43.5 12t-50.5 30t-43 37.5t-22 34.5q33 15 69 41t68 57t53 60q2 -2 3.5 -9.5t1.5 -12.5q0 -20 -16.5 -40.5t-42.5 -40t-55.5 -36.5t-54.5 -30q23 -16 42.5 -29.5t47 -26.5t72.5 -31q-4 -5 -11.5 -10.5t-17.5 -5.5z" />
    <glyph glyph-name="equal" unicode="=" horiz-adv-x="503" 
d="M52 206q8 20 34.5 30.5t66.5 14.5t88 4q36 0 69 -1.5t59 -3.5t40 -4q-25 -18 -53.5 -23.5t-49.5 -5.5h-101q-30 0 -53 -0.5t-46 -3t-54 -7.5zM52 106q8 20 34.5 30.5t66.5 14.5t88 4q36 0 69 -1.5t59 -3.5t40 -4q-25 -18 -53.5 -23.5t-49.5 -5.5h-101q-30 0 -53 -0.5
t-46 -3t-54 -7.5z" />
    <glyph glyph-name="greater" unicode="&#x3e;" horiz-adv-x="324" 
d="M97 44q-10 0 -17 5.5t-12 10.5q46 18 73 31t47 26.5t42 29.5q-25 13 -54.5 30t-55.5 36.5t-42.5 40t-16.5 40.5q0 5 2 12.5t3 9.5q21 -29 53 -60t68 -57t69 -41q-4 -15 -22 -34.5t-43 -37.5t-50.5 -30t-43.5 -12z" />
    <glyph glyph-name="question" unicode="?" horiz-adv-x="437" 
d="M233 124q-19 10 -25 19t-6 28q0 48 19.5 87t48 74.5t56.5 72t47.5 79t19.5 95.5q0 56 -22.5 84.5t-56.5 28.5q-35 0 -70 -28.5t-58 -76.5t-23 -107q0 -17 2 -30t5 -27q-38 6 -50 26.5t-12 50.5q0 57 26.5 107t74 81.5t109.5 31.5t98.5 -34t36.5 -99q0 -44 -15.5 -78
t-40 -63.5t-52 -60t-51 -66t-36.5 -82.5q-10 -34 -12 -61t-13 -52zM192 -10q-13 0 -22.5 6.5t-9.5 19.5q0 18 19.5 30t38.5 12q12 0 19 -5.5t7 -16.5q0 -17 -16 -31.5t-36 -14.5z" />
    <glyph glyph-name="at" unicode="@" horiz-adv-x="583" 
d="M216 -121q-75 0 -122 30t-69 78t-22 101q0 57 23 112t65.5 99t101 70t129.5 26q73 0 119.5 -26.5t69 -68t22.5 -86.5q0 -37 -13.5 -73t-37.5 -66t-55.5 -48t-67.5 -18q-33 0 -48.5 16t-15.5 43q0 6 0.5 10.5t1.5 9.5q-34 -46 -67.5 -69.5t-63.5 -23.5q-25 0 -42 16.5
t-17 49.5q0 36 19.5 78.5t52.5 80.5t72 62.5t78 24.5q31 0 52 -16.5t21 -43.5q0 -13 -5 -20.5t-14 -10.5t-21 -3q2 6 3 13.5t1 13.5q0 19 -8.5 32t-29.5 13q-28 0 -57.5 -24t-54 -60t-39.5 -74t-15 -67q0 -17 6 -24.5t16 -7.5q19 0 42 18.5t46.5 47t44 58t35.5 50.5
q8 -1 20 -6t12 -14t-11.5 -28t-23 -41.5t-11.5 -43.5q0 -10 6 -21.5t28 -11.5q32 0 61.5 25.5t48.5 65t19 81.5q0 38 -18.5 74t-57.5 59.5t-103 23.5t-116 -24.5t-89.5 -65.5t-57.5 -90.5t-20 -100.5q0 -45 18 -86t58.5 -67.5t106.5 -26.5q53 0 108.5 20.5t105.5 64.5l6 -8
q-38 -43 -95 -72.5t-131 -29.5z" />
    <glyph glyph-name="A" unicode="A" horiz-adv-x="592" 
d="M17 -87q-22 13 -28 27.5t-6 24.5q0 28 20.5 76t55 109.5t76.5 127.5q-37 3 -63 4t-45 1h-35q11 29 38.5 40.5t65.5 11.5q17 0 35 -2t37 -5q51 77 104.5 149.5t100 129t77.5 85.5q29 28 48 28q11 0 24.5 -8.5t28.5 -23.5q-10 -8 -25.5 -42.5t-33 -86.5t-34.5 -114
t-31.5 -126.5t-23 -122.5t-8.5 -102q0 -38 8.5 -59t28.5 -21q26 0 59 36t72 112l10 -10q-30 -80 -76.5 -131t-96.5 -51q-41 0 -59.5 36.5t-18.5 97.5q0 32 4.5 70t12.5 79q-44 7 -80.5 11.5t-67.5 8.5q-47 -87 -91.5 -179t-82.5 -181zM346 288q15 66 35 133.5t42.5 128.5
t42.5 107q-31 -19 -71.5 -67.5t-85.5 -118t-92 -152.5q34 -7 67.5 -15.5t61.5 -15.5z" />
    <glyph glyph-name="B" unicode="B" horiz-adv-x="608" 
d="M130 -87q-55 0 -83 18.5t-28 61.5q0 3 5 3q7 0 25 -5t69 -5q86 0 159 19.5t126.5 53.5t83 76.5t29.5 87.5q0 41 -23 66t-60.5 38t-81.5 17.5t-87 4.5q-19 0 -38.5 -0.5t-36.5 -0.5q-23 -81 -45 -163t-45 -159q-25 0 -42 14t-17 34q0 12 5 28t9 29q6 20 21 67t36.5 110
t47.5 132t53.5 135t53.5 117q-42 -7 -70.5 -20t-44.5 -23.5t-23 -10.5q-5 0 -12.5 4.5t-13.5 11t-6 11.5q50 21 104.5 38t132.5 17q33 0 73 -5.5t76 -22t59 -48t23 -83.5q0 -49 -21 -83.5t-55 -57t-74 -35.5t-79 -19q74 -4 119.5 -21t69 -40.5t31.5 -49.5t8 -50
q0 -58 -30 -105t-79 -82t-107 -58.5t-115 -35t-102 -11.5zM195 371q55 2 109.5 12.5t99.5 33.5t72.5 60t27.5 92q0 52 -24.5 80t-63 39t-81.5 11h-9.5t-9.5 -1q-36 -70 -65.5 -154t-55.5 -173z" />
    <glyph glyph-name="C" unicode="C" horiz-adv-x="534" 
d="M219 -87q-71 0 -114.5 35.5t-63 91.5t-19.5 117q0 79 24 159t65.5 152.5t94.5 129t111.5 89t115.5 32.5q41 0 66.5 -19.5t25.5 -66.5q0 -29 -10 -65.5t-27 -70t-37.5 -55.5t-41.5 -22q-8 0 -16.5 5t-14.5 18q15 17 33.5 42.5t35.5 54t27.5 56t10.5 48.5q0 20 -11.5 32.5
t-37.5 12.5q-43 0 -89.5 -35t-90 -93.5t-78.5 -130.5t-55.5 -147t-20.5 -143q0 -49 14 -93.5t45.5 -72t81.5 -27.5q53 0 105.5 30t96.5 79t70 106l14 -10q-33 -65 -80 -119.5t-105 -87t-125 -32.5z" />
    <glyph glyph-name="D" unicode="D" horiz-adv-x="653" 
d="M163 -87q-31 0 -59 8.5t-48 36.5q10 48 24.5 103.5t31.5 114t34.5 115t33.5 105.5t29 86t20 56q3 8 10 23.5t17 31.5t23 27.5t28 11.5q14 0 28 -10q-31 -72 -62.5 -159t-60.5 -179.5t-53 -180.5t-40 -160q14 -2 23.5 -3t19.5 -1q64 0 123.5 29.5t111 81t90.5 118
t60.5 141t21.5 148.5q0 81 -26 133.5t-72 77.5t-107 25q-65 0 -117 -26t-82 -70t-30 -99q0 -12 1.5 -21t3.5 -16q-33 0 -46.5 16.5t-13.5 39.5q0 35 24.5 70.5t68 65.5t100.5 48.5t121 18.5q90 0 144.5 -36.5t79.5 -98.5t25 -139q0 -87 -27 -166.5t-74.5 -146t-108.5 -116
t-130.5 -77t-139.5 -27.5z" />
    <glyph glyph-name="E" unicode="E" horiz-adv-x="498" 
d="M180 -87q-60 0 -104 25t-67.5 66.5t-23.5 90.5q0 46 20 90t55.5 80.5t82.5 60t101 28.5q-39 32 -57.5 74t-18.5 84q0 53 26.5 100.5t73.5 77t106 29.5q56 0 85 -28t29 -80q0 -37 -13 -72t-31.5 -57t-35.5 -22q-11 0 -21 9.5t-16 22.5q35 31 59.5 65.5t24.5 73.5
q0 31 -18 48t-53 17q-46 0 -78 -27.5t-48.5 -73t-16.5 -100.5q0 -36 11 -78t47 -73q-67 -11 -116.5 -51t-77 -94t-27.5 -107q0 -33 12.5 -66.5t40.5 -56t75 -22.5q53 0 105.5 30t96.5 79t70 106l14 -10q-35 -68 -82 -122t-105 -85.5t-125 -31.5z" />
    <glyph glyph-name="F" unicode="F" horiz-adv-x="482" 
d="M152 -87q-46 4 -57 25t-11 54q0 36 15 88.5t37.5 114.5t45.5 124q-12 -1 -25.5 -2.5t-33.5 -4t-52 -7.5q2 26 19.5 40.5t46.5 21.5t65 8q28 77 57.5 150.5t58.5 134.5q-10 1 -19.5 1.5t-19.5 0.5q-64 0 -99 -13t-48 -40t-13 -69q0 -22 3 -40.5t10 -38.5q-34 6 -50 26.5
t-16 51.5q0 52 37 91.5t99.5 62t138.5 22.5q53 0 102.5 -7.5t96.5 -7.5q21 0 38.5 2.5t35.5 7.5q-37 -42 -62 -56t-51 -14q-23 0 -59.5 6.5t-82.5 10.5q-13 -33 -29 -79.5t-33 -99t-34 -104.5q50 -3 94.5 -9t80.5 -7q-8 -12 -18.5 -18.5t-29.5 -9.5t-52.5 -4.5t-89.5 -2.5
q-6 -21 -15 -50t-16 -55t-11 -38q-22 -77 -37.5 -144t-16.5 -123z" />
    <glyph glyph-name="G" unicode="G" horiz-adv-x="554" 
d="M209 -87q-52 0 -94.5 29.5t-67.5 85t-25 133.5q0 77 24 156t65.5 151t94.5 128.5t111.5 89.5t115.5 33q38 0 61 -16t33 -41.5t10 -55.5q0 -35 -12 -68.5t-32 -55.5t-44 -22q-8 0 -16.5 5t-14.5 18q14 10 32.5 36t32 58t13.5 59q0 23 -13.5 38t-46.5 15q-43 0 -89.5 -35
t-90 -93.5t-78.5 -130.5t-55.5 -147t-20.5 -142q0 -91 38 -142.5t96 -51.5q39 0 74 28.5t62 74t43.5 98.5t20.5 102q-37 8 -60 10.5t-43 2.5q-13 0 -27.5 -0.5t-33.5 -0.5q7 29 24.5 40.5t43.5 11.5q28 0 58.5 -9.5t59.5 -20.5t51 -17l-7 -32q-19 -50 -31 -87.5t-18.5 -66
t-9 -50.5t-2.5 -40q0 -20 1.5 -39t2.5 -39q-16 7 -28.5 16.5t-19 23.5t-6.5 32q0 11 1.5 22t5.5 24q-36 -50 -83 -84t-106 -34z" />
    <glyph glyph-name="H" unicode="H" horiz-adv-x="617" 
d="M55 -87q6 35 14 71.5t20.5 82t30.5 105.5t45 142q-16 -1 -32.5 -3t-33.5 -4q1 25 23.5 39.5t59.5 21.5l14.5 43.5t15.5 47t17 50t18.5 53.5t19.5 57q4 11 9 27.5t5 31.5q0 8 -2.5 11t-11.5 3q-24 0 -46.5 -19.5t-40 -49.5t-27.5 -62t-10 -57q0 -9 1.5 -18t3.5 -16
q-33 0 -46.5 16.5t-13.5 40.5q0 34 20 68t51.5 62.5t66 45.5t62.5 17q27 0 36.5 -15t9.5 -33q0 -11 -2.5 -22t-5.5 -21l-78 -254q14 1 28.5 1.5t29.5 0.5q47 0 89.5 -2.5t80.5 -6.5q20 64 39.5 126t36 108.5t25.5 65.5q4 8 11 20t18.5 22t25.5 10q-14 -37 -32 -94.5
t-36.5 -125.5t-36.5 -136q20 -1 38.5 -2.5t36.5 -1.5q-22 -23 -43 -27.5t-41 -4.5q-9 -37 -17 -71.5t-14 -65.5q-18 -85 -25.5 -145t-7.5 -97q0 -12 0.5 -20.5t1.5 -15.5q-39 4 -54 22t-15 56q0 26 6 65.5t18 85.5q8 30 22 79.5t31 105.5q-61 0 -102 -1t-71 -2t-60 -4
q-18 -58 -36 -115l-33 -104.5t-25 -80.5t-13 -43q-10 -34 -31.5 -49t-37.5 -15z" />
    <glyph glyph-name="I" unicode="I" horiz-adv-x="459" 
d="M-38 -88q4 37 26.5 53.5t58.5 21.5t78 5q18 39 36 95.5t34.5 121.5t32.5 132.5t30 129.5t26.5 111.5t22.5 78.5q-52 -1 -88.5 -3t-68 -6t-68.5 -11q7 38 55 57.5t149 19.5q50 0 101.5 -4t94.5 -8.5t66 -8.5q-24 -24 -50.5 -29.5t-46.5 -5.5h-58.5t-50.5 -1
q-4 -21 -12 -65.5t-19 -102t-23 -119t-23.5 -117t-21.5 -95.5q-16 -64 -36 -108t-48 -63q52 -3 111 -10.5t106 -8.5q-29 -29 -60.5 -36t-52.5 -7q-40 0 -78.5 -0.5t-76 -1.5t-74 -4.5t-72.5 -10.5z" />
    <glyph glyph-name="J" unicode="J" horiz-adv-x="411" 
d="M77 -86q-23 0 -48.5 9t-42.5 37t-17 84q0 39 9 77.5t26.5 64.5t40.5 26q12 0 28 -8q-18 -46 -27 -86t-9 -74q0 -45 16 -70t47 -25q26 0 46.5 22t42.5 83q16 44 33.5 106.5t35 134t33.5 142t29 130.5t20 100q-49 0 -82.5 -2t-60.5 -6t-59 -12q5 34 43.5 52.5t119.5 18.5
q40 0 81 -4t75.5 -8.5t52.5 -8.5q-11 -19 -36 -24t-41 -5q-20 0 -37.5 -0.5t-33.5 -0.5q11 -8 16 -22t5 -25q0 -13 -7 -57.5t-20 -107.5t-31 -134t-39 -139t-45 -121q-26 -60 -52.5 -91.5t-54 -43.5t-57.5 -12z" />
    <glyph glyph-name="K" unicode="K" horiz-adv-x="590" 
d="M495 -87q-22 0 -51 26t-61.5 69t-64 93.5t-58 100.5t-44.5 89l-97 -314q-7 -23 -22 -32.5t-32.5 -11.5t-34.5 -2q13 28 26.5 64t32 87t43.5 124t59.5 174.5t81.5 238.5q3 8 8 22.5t5 26.5q0 11 -5 17.5t-19 6.5q-24 0 -46.5 -19.5t-40 -49.5t-27.5 -62t-10 -57
q0 -19 5 -34q-33 0 -46.5 16.5t-13.5 40.5q0 34 20 68t51.5 62.5t66 45.5t62.5 17q27 0 36.5 -15t9.5 -33q0 -11 -2.5 -22t-5.5 -21l-84 -272q14 20 36.5 37t49.5 39q45 36 96.5 84t98.5 101t78 102q5 -6 7 -21t2 -23q0 -31 -25.5 -68t-66.5 -76.5t-90 -78t-96.5 -72.5
t-85.5 -59q30 -51 58.5 -97t62 -90t78.5 -90t109 -99q-7 -13 -22 -23t-32 -10z" />
    <glyph glyph-name="L" unicode="L" horiz-adv-x="570" 
d="M397 -87q-36 0 -79.5 15t-89.5 36.5t-91 41.5q-25 -28 -52 -43.5t-59 -15.5t-54.5 15t-34 35.5t-11.5 36.5q0 18 16.5 31t56.5 13q26 0 57.5 -6t65.5 -15q24 42 44.5 98t40.5 119l40 126q-46 15 -72.5 44t-26.5 63q0 18 7.5 36t21.5 30.5t33 12.5q-7 -10 -10 -29t-3 -33
q0 -38 16 -63.5t41 -39.5q20 60 41.5 113.5t47.5 95.5t57 66t69 24q20 0 42.5 -9t38.5 -31t16 -62q0 -34 -14 -73.5t-43 -75t-74 -58t-106 -23.5h-4.5h-14.5q-20 -61 -42.5 -124t-47.5 -119.5t-54 -100.5q46 -14 93 -28.5t91 -24t81 -9.5q21 0 38 4t33 12
q-16 -46 -42.5 -65.5t-62.5 -19.5zM22 -24q22 0 41.5 12t35.5 34q-31 13 -60.5 21.5t-53.5 8.5q-19 0 -26 -5t-7 -14q0 -17 19.5 -37t50.5 -20zM316 407q45 0 81.5 25.5t62 64t39 78.5t13.5 70q0 29 -11 39.5t-25 10.5q-31 0 -58 -40t-51.5 -105.5t-50.5 -142.5z" />
    <glyph glyph-name="M" unicode="M" horiz-adv-x="763" 
d="M-17 -87q6 14 33 73.5t70.5 155t98 217t115.5 257.5q3 7 6.5 18.5t3.5 22.5t-6.5 18.5t-27.5 7.5q-42 0 -69.5 -28.5t-41 -70.5t-13.5 -83q0 -10 0.5 -17t1.5 -14q-19 0 -30.5 13.5t-17 33t-5.5 35.5q0 33 18 63t46.5 54t63 37.5t67.5 13.5t55.5 -18.5t34 -66.5
t11.5 -139q0 -62 -4.5 -132t-9.5 -138t-7 -124q16 61 45.5 130t65 137.5t70.5 128.5t63 104t41 64q14 20 24 30.5t26 10.5q14 0 32 -7q-7 -18 -19.5 -53.5t-25.5 -86.5q-16 -61 -32 -138.5t-29.5 -157.5t-21.5 -150.5t-8 -118.5q0 -22 2 -34t5.5 -21.5t7.5 -26.5
q-34 0 -52 11t-24 35.5t-6 65.5q0 119 30.5 255.5t69.5 283.5q-29 -37 -60.5 -93.5t-63 -122t-60 -131t-50.5 -121.5t-34 -93q-6 -2 -8 -3t-7 -1q-27 0 -35.5 32t-8.5 90q0 41 2.5 97.5t5.5 116.5t5.5 115.5t2.5 95.5q0 20 -0.5 33t-1.5 23q-80 -186 -134 -317.5
t-90.5 -213.5t-64.5 -120t-55 -38z" />
    <glyph glyph-name="N" unicode="N" horiz-adv-x="640" 
d="M46 -87q12 48 30 107t43.5 140.5t59.5 193.5t79 265q2 5 4.5 17.5t2.5 23.5q0 10 -3.5 16.5t-11.5 6.5q-24 0 -45.5 -18.5t-37 -46.5t-24.5 -58.5t-9 -54.5q0 -20 5 -35q-33 0 -46.5 16.5t-13.5 40.5q0 34 20 68t51 62.5t65.5 45.5t63.5 17q30 0 49.5 -25.5t31.5 -70
t20 -100.5t15 -116q6 -50 12 -99.5t12 -94t11 -81.5t9 -61q7 47 20.5 106.5t30 124t34.5 126t33.5 113t27 86t15.5 43.5q5 13 23 31t40 18q-17 -46 -38.5 -112.5t-43.5 -144t-43 -158t-37.5 -155.5t-26 -136.5t-10.5 -100.5q-31 0 -50.5 18t-27.5 63q-5 26 -12.5 71.5
t-16 101.5t-17.5 116.5t-17.5 118.5t-15.5 106.5t-12 80.5q-48 -173 -82 -292.5t-57.5 -195t-41.5 -116.5t-34 -56.5t-34 -15.5z" />
    <glyph glyph-name="O" unicode="O" horiz-adv-x="623" 
d="M213 -87q-57 0 -100 30.5t-67.5 86.5t-24.5 131q0 77 24.5 156t66.5 151t95 128.5t112 89.5t116 33q19 0 34 -3t26 -9h-9.5h-2.5q-52 0 -105 -34.5t-101 -93t-86 -131t-60 -150.5t-22 -151q0 -53 13.5 -99t43.5 -73.5t77 -27.5q56 0 105 34.5t88.5 93.5t68 131.5t44 150
t15.5 148.5q0 28 -4 60t-14 55t-27 23q-18 0 -39 -22.5t-40.5 -56.5t-34.5 -70.5t-21 -64.5q-25 6 -36.5 19.5t-11.5 29.5q0 27 18.5 59.5t47 63t59.5 50t56 19.5q26 0 42.5 -19t26 -48.5t13 -63t3.5 -62.5q0 -109 -24.5 -198.5t-66 -157.5t-92.5 -114.5t-104.5 -70
t-101.5 -23.5z" />
    <glyph glyph-name="P" unicode="P" horiz-adv-x="527" 
d="M87 -87q-25 0 -47 14t-22 36q0 11 5 26.5t9 28.5q32 98 60 183t56 165t59.5 160t70.5 167q-38 -7 -67.5 -20.5t-47.5 -24t-24 -10.5q-4 0 -11.5 4.5t-13.5 11t-6 11.5q26 11 61.5 24t76.5 22t83 9q44 0 89.5 -12t83.5 -36.5t61 -60.5t23 -84q0 -52 -23 -89.5t-61 -63
t-82 -41t-87.5 -24t-77.5 -11t-50 -2.5h-10q-30 -103 -57.5 -203t-50.5 -180zM199 312q55 3 111.5 18t103.5 43.5t76 71t29 99.5q0 54 -25.5 88t-67 50.5t-88.5 16.5q-37 -73 -72 -175t-67 -212z" />
    <glyph glyph-name="Q" unicode="Q" horiz-adv-x="693" 
d="M516 -119q-46 0 -85 25.5t-75 56.5q-24 -12 -49 -19t-51 -7q-34 0 -56 10.5t-33.5 25.5t-16 29.5t-4.5 22.5q0 17 16.5 34.5t56.5 17.5q41 0 80 -19.5t79 -44.5q45 40 79.5 102t58 133t36 139.5t12.5 121.5q0 82 -31 133t-101 51q-58 0 -108 -34.5t-90.5 -92.5
t-69.5 -129.5t-44.5 -147.5t-15.5 -145q0 -21 2 -42t6 -42q-31 0 -47.5 20t-23 51.5t-6.5 67.5q0 75 20 149.5t56.5 141.5t86 118.5t109 81.5t124.5 30q96 0 149.5 -65.5t53.5 -177.5q0 -63 -17 -131.5t-47.5 -134t-71.5 -121.5t-90 -94q34 -19 70.5 -32.5t77.5 -13.5
q22 0 32.5 4t25.5 8q-10 -35 -27.5 -52.5t-36 -23t-34.5 -5.5zM256 -38q21 0 40.5 5.5t37.5 15.5q-31 27 -61.5 47.5t-63.5 20.5q-23 0 -30 -9.5t-7 -17.5q0 -9 7 -23.5t25 -26.5t52 -12z" />
    <glyph glyph-name="R" unicode="R" horiz-adv-x="577" 
d="M464 -121q-22 0 -51.5 27.5t-61.5 72t-63.5 97.5t-58 106t-44.5 95q-28 -98 -54 -192.5t-49 -171.5q-25 0 -45.5 14t-20.5 36q0 11 5 26.5t9 28.5q25 79 49 149t47 135t47.5 129t51.5 129t58 135q-42 -7 -73 -20.5t-50 -25t-26 -11.5q-4 0 -11.5 4.5t-13.5 11t-6 11.5
q26 11 61 24t77 22t87 9q43 0 87.5 -10.5t82 -33t60.5 -58t23 -85.5q0 -49 -22.5 -84.5t-59 -59.5t-79.5 -38.5t-85 -22t-76 -10t-51 -2.5q31 -53 59 -103t61 -99.5t78 -99.5t109 -102q-6 -13 -21.5 -23t-29.5 -10zM201 332q54 3 109.5 17.5t101.5 41t74 67t28 96.5
q0 55 -26 86.5t-67 45t-86 13.5q-34 -69 -68 -165.5t-66 -201.5z" />
    <glyph glyph-name="S" unicode="S" horiz-adv-x="536" 
d="M203 -87q-54 0 -102 19.5t-77.5 59.5t-29.5 100q0 52 20.5 81t50.5 41t57 12q-27 -29 -41 -64t-14 -70q0 -37 16.5 -69t50.5 -51.5t86 -19.5q45 0 88 16.5t70.5 49t27.5 80.5q0 43 -22 74t-56.5 55t-73.5 46t-73.5 46.5t-56.5 56.5t-22 77q0 42 20 88t57.5 87t90 66.5
t117.5 25.5q59 0 82 -28.5t23 -71.5q0 -36 -12.5 -77.5t-30.5 -79t-34 -63.5q-18 4 -25.5 15.5t-7.5 27.5q0 21 9 48t20.5 56t20.5 56.5t9 49.5q0 20 -12 31.5t-44 11.5q-47 0 -87 -22t-70 -56.5t-46.5 -72.5t-16.5 -69q0 -37 21.5 -63.5t55.5 -48t72.5 -43t72.5 -47.5
t55.5 -61.5t21.5 -86.5q0 -52 -23 -91.5t-61.5 -66.5t-84.5 -41t-92 -14z" />
    <glyph glyph-name="T" unicode="T" horiz-adv-x="490" 
d="M187 -87q-45 0 -62 20t-17 51q0 29 12 69t25 77q17 49 41 115t51.5 138t56 142t55.5 127q-69 -1 -115.5 -3t-83.5 -5.5t-81 -11.5q3 34 35 53t86 27t123 8t123.5 -5.5t102.5 -10.5t96 -6q-34 -31 -78 -39t-93 -8q-11 0 -23 0.5t-24 0.5h-24q-32 -80 -73.5 -202
t-83.5 -275q-14 -53 -25.5 -95t-18 -77t-6.5 -68v-11t1 -11z" />
    <glyph glyph-name="U" unicode="U" horiz-adv-x="706" 
d="M541 -99q-37 0 -59 31.5t-22 74.5q0 14 2.5 37.5t6.5 53.5q-37 -82 -90 -133.5t-126 -51.5q-64 0 -97 39t-33 97q0 39 12.5 92.5t31.5 115t37.5 124.5t31 120.5t12.5 102.5q0 88 -56 88q-27 0 -47 -17.5t-33 -44.5t-19.5 -57t-6.5 -54q0 -14 2 -27t6 -22
q-38 0 -53.5 20.5t-15.5 48.5q0 31 15 63t41.5 58.5t61 43t73.5 16.5q55 0 79 -33t24 -88q0 -37 -9 -81.5t-23 -93t-30 -97.5q-23 -73 -42 -141.5t-19 -120.5q0 -46 19.5 -79t64.5 -33q41 0 75 26.5t60 68.5t44 89t28 87q14 60 31 127.5t35.5 133t37 118.5t36.5 85t34 32
q8 0 22 -8.5t28 -23.5q-8 -6 -25 -42.5t-38 -93.5t-42 -125.5t-39 -139t-29 -134.5t-11 -111q0 -69 18.5 -93t61.5 -24q-19 -13 -35.5 -18.5t-30.5 -5.5z" />
    <glyph glyph-name="V" unicode="V" horiz-adv-x="632" 
d="M210 -87q-14 0 -34.5 6.5t-36 23.5t-15.5 50q0 29 12.5 76t31.5 105.5t38 123t31.5 129.5t12.5 125q0 37 -2.5 69t-15 51.5t-42.5 19.5q-28 0 -47.5 -16.5t-32 -42.5t-18 -55t-5.5 -54q0 -16 2.5 -29.5t6.5 -24.5q-39 0 -55 21.5t-16 50.5q0 31 14.5 62t40 57.5
t58.5 42.5t70 16q62 0 92.5 -48.5t30.5 -129.5q0 -58 -13 -121.5t-32 -126.5t-38.5 -121t-32.5 -107t-13 -83q0 -17 5.5 -28t22.5 -11q28 0 65 28.5t76.5 78t77 111.5t67.5 129.5t48 132.5t18 120q0 50 -15 73.5t-40 30.5q14 24 29.5 35t28.5 11q21 0 41 -27t20 -84
q0 -55 -20.5 -125t-55.5 -145.5t-80 -146.5t-94 -128t-97 -91t-89 -34z" />
    <glyph glyph-name="W" unicode="W" horiz-adv-x="906" 
d="M210 -87q-11 0 -25.5 3.5t-28.5 12t-23 24t-9 40.5q0 35 17 92.5t39 127.5q17 54 33 112t26.5 116t10.5 111q0 37 -2.5 69t-15 51.5t-42.5 19.5q-28 0 -47.5 -16.5t-32 -42.5t-18 -55t-5.5 -54q0 -33 9 -54q-39 0 -55 21.5t-16 50.5q0 31 14.5 62t40 57.5t58.5 42.5
t70 16q62 0 92.5 -48.5t30.5 -129.5q0 -73 -20.5 -154.5t-45.5 -158.5q-16 -50 -30.5 -95.5t-23.5 -83.5t-9 -67q0 -19 6 -29t24 -10q25 0 55.5 23.5t62 63.5t61 88.5t54 99.5t41 97t20.5 79q33 0 46.5 -17t13.5 -32q0 -16 -13 -49t-31 -74q-15 -36 -30.5 -77t-26 -82
t-10.5 -78q0 -19 5 -30.5t23 -11.5q28 0 65 28.5t76.5 78t77 111.5t67.5 129.5t48 132.5t18 120q0 50 -15 73.5t-40 30.5q14 24 29.5 35t28.5 11q21 0 41 -27t20 -84q0 -55 -20.5 -125t-55.5 -145.5t-80 -146.5t-94 -128t-97 -91t-89 -34q-19 0 -39 8t-33.5 24.5t-13.5 42.5
q0 15 5.5 38.5t14.5 51.5q-51 -72 -104.5 -118.5t-102.5 -46.5z" />
    <glyph glyph-name="X" unicode="X" horiz-adv-x="662" 
d="M25 -112q3 22 8.5 36t15.5 26.5t25 28.5q32 35 62 69t58.5 67.5t55 66t51.5 64.5q-2 33 -3.5 56.5t-3 45.5t-2 50t-1.5 70q-1 77 -4 126.5t-15 73.5t-40 24q-25 0 -44.5 -17t-32.5 -43.5t-20 -56.5t-7 -56q0 -30 8 -49q-38 0 -53.5 20.5t-15.5 48.5q0 31 15 63t41.5 58.5
t60.5 43t71 16.5q39 0 62.5 -19.5t35.5 -54.5t16 -82t4.5 -103t1.5 -117q80 111 136 207t86 171q8 -5 15.5 -19.5t7.5 -28.5q0 -20 -19.5 -59t-53.5 -91.5t-78 -112.5t-93 -122q2 -64 7.5 -124.5t16 -109t28 -77t42.5 -28.5q30 0 73 58t97 154l12 -10q-38 -77 -70.5 -130.5
t-65.5 -81t-73 -27.5q-42 0 -68 27t-40.5 70t-21 93t-9.5 95q-59 -73 -114.5 -136.5t-99 -109.5t-65.5 -64z" />
    <glyph glyph-name="Y" unicode="Y" horiz-adv-x="666" 
d="M255 -187q-57 0 -97.5 24t-40.5 70q0 26 14.5 45.5t45.5 29.5q-4 -15 -6 -29t-2 -25q0 -41 22 -65.5t65 -24.5q40 0 71.5 20t54.5 52.5t39 70.5t27 75t17 65q8 34 18.5 88.5t23.5 116.5q-40 -76 -92.5 -125.5t-124.5 -49.5q-59 0 -84 33.5t-25 85.5q0 39 10.5 85
t23.5 92.5t23.5 89.5t10.5 77q0 32 -12.5 55t-44.5 23q-28 0 -48 -17.5t-33.5 -44.5t-20 -56.5t-6.5 -54.5q0 -14 2 -27t6 -22q-38 0 -53.5 20.5t-15.5 48.5q0 31 15 63t41.5 58.5t61 43t73.5 16.5q38 0 61 -15.5t33 -38.5t10 -47q0 -28 -10.5 -69.5t-23.5 -87.5
q-13 -45 -23 -90t-10 -85q0 -43 16.5 -69.5t53.5 -26.5q35 0 66 22t58 59t49 81t39 87q13 54 27.5 104.5t29.5 90t31 62.5t32 23q10 0 26 -8.5t30 -23.5q-21 -33 -36 -62.5t-28.5 -64.5t-27.5 -82.5t-31.5 -116.5t-41.5 -168q-13 -51 -28 -105t-36.5 -103t-51.5 -88
t-72.5 -62t-100.5 -23z" />
    <glyph glyph-name="Z" unicode="Z" horiz-adv-x="631" 
d="M447 -87q-35 0 -77 14t-86.5 34.5t-88.5 40.5q-34 -26 -66 -41t-62 -15q-29 0 -49.5 12.5t-31.5 31t-11 36.5q0 21 17.5 36.5t59.5 15.5q29 0 63.5 -7.5t72.5 -18.5q48 50 98.5 121.5t96.5 147.5q-37 -1 -64.5 -3.5t-65.5 -7.5l-34 -5q2 28 22 43t53.5 21t73.5 6
q11 0 22.5 -0.5t22.5 -1.5q39 69 70 131.5t47 105.5q-16 4 -36 11.5t-42 15.5q-48 19 -101.5 37t-98.5 18q-32 0 -57.5 -13t-40.5 -44.5t-15 -86.5q0 -8 0.5 -14t1.5 -11l2 -10q-29 5 -41.5 23.5t-12.5 48.5q0 67 52 101t141 34q53 0 98.5 -9.5t87.5 -22.5t81.5 -22.5
t78.5 -9.5q10 0 17.5 0.5t14.5 1.5q-14 -12 -26.5 -20.5t-23.5 -14.5q-22 -52 -55.5 -118.5t-74.5 -137.5q30 -3 56.5 -6t49.5 -3q-11 -16 -24.5 -23t-38 -9t-69.5 -3q-49 -81 -105.5 -156t-112.5 -129q65 -20 129.5 -38t115.5 -18q21 0 38 4t33 12q-16 -46 -42.5 -65.5
t-62.5 -19.5zM62 -27q20 0 43.5 12.5t48.5 34.5q-33 14 -63 23t-53 9q-22 0 -29.5 -7t-7.5 -17q0 -16 16.5 -35.5t44.5 -19.5z" />
    <glyph glyph-name="bracketleft" unicode="[" horiz-adv-x="393" 
d="M196 -87q-31 0 -64.5 3.5t-60.5 8.5t-42 8q2 4 4.5 10t6.5 23t11 52.5t18.5 96t29 154.5t42.5 229q16 85 38.5 129t46.5 60t45 16q13 0 32 -1.5t40 -1.5q26 0 52.5 4t47.5 16q-2 -36 -17 -53t-38 -22t-50 -5q-26 0 -53 6.5t-54 10.5q-14 -42 -28.5 -101t-28 -127
t-26 -137t-23.5 -132.5t-21 -113t-18 -78.5q54 0 89.5 1t60.5 3t45.5 6t44.5 11q-4 -38 -34.5 -57t-95.5 -19z" />
    <glyph glyph-name="backslash" unicode="\" horiz-adv-x="560" 
d="M435 -162q-43 8 -72 49.5t-55 134.5q-9 35 -22 95t-27.5 134t-28.5 150.5t-27 143.5t-23 114t-16 61q24 0 40 -15.5t21 -29.5q15 -39 31 -101.5t32.5 -138.5t32.5 -156t31.5 -155.5t30 -137.5t28 -101.5t24.5 -46.5z" />
    <glyph glyph-name="bracketright" unicode="]" horiz-adv-x="410" 
d="M-14 -88q2 27 17 42t38 21.5t50 6.5q26 0 59.5 -3t64.5 -5q17 48 34 120.5t34 155.5t32 164.5t28.5 149.5t23.5 110h-63q-49 0 -99 -3.5t-100 -17.5q0 43 34.5 55t94.5 12q37 0 80 -5.5t87 -15.5q-2 -14 -8 -51.5t-14.5 -90t-18 -112t-19.5 -118.5t-19 -109.5t-16 -85.5
q-4 -23 -12.5 -57t-22.5 -67.5t-36.5 -56t-56.5 -22.5q-52 0 -103.5 -2.5t-88.5 -14.5z" />
    <glyph glyph-name="asciicircum" unicode="^" horiz-adv-x="203" 
d="M187 406q-14 29 -32 49.5t-42 42.5q-31 -11 -55.5 -24t-47.5 -33q-6 4 -8 9.5t-2 9.5q0 15 13.5 30t33 28.5t38.5 21.5t29 8q12 0 27.5 -11t29.5 -28.5t23.5 -36.5t9.5 -35q0 -10 -4 -18t-13 -13z" />
    <glyph glyph-name="underscore" unicode="_" horiz-adv-x="845" 
d="M-20 -66q4 34 50 51.5t124.5 24t177.5 6.5q74 0 124.5 -2.5t89.5 -6t78.5 -6.5t91.5 -3q-41 -28 -86 -36.5t-77 -8.5q-98 0 -167 -0.5t-117.5 -0.5t-84.5 -1q-28 -1 -51.5 -2t-46.5 -3t-48.5 -5t-57.5 -7z" />
    <glyph glyph-name="grave" unicode="`" horiz-adv-x="125" 
d="M112 404q-22 29 -49 57t-63 59q2 18 8 24.5t14 6.5q15 0 33 -15t34 -36.5t26.5 -41t10.5 -28.5q0 -4 -3 -13t-11 -13z" />
    <glyph glyph-name="a" unicode="a" horiz-adv-x="436" 
d="M48 -47q-31 0 -52.5 20.5t-21.5 62.5q0 36 16 77.5t44 82t63.5 74t75 53.5t78.5 20t65 -20.5t26 -54.5q0 -25 -13.5 -34t-35.5 -9q2 8 3.5 17.5t1.5 17.5q0 23 -11 39.5t-38 16.5q-28 0 -57 -19.5t-56 -52t-48 -70.5t-33 -75t-12 -66q0 -39 27 -39q23 0 50 21.5t55.5 55
t54.5 69.5t46 66q4 6 5 6q6 -1 15.5 -4t16.5 -8t7 -13q0 -9 -9 -24.5t-20 -35.5t-20 -40.5t-9 -38.5q0 -15 8 -29.5t26 -14.5q27 0 71 39.5t89 118.5l10 -10q-21 -54 -54 -95t-70.5 -64t-73.5 -23q-37 0 -54.5 22t-17.5 48q0 6 1 13.5t2 15.5q-43 -58 -78.5 -87t-72.5 -29z
" />
    <glyph glyph-name="b" unicode="b" horiz-adv-x="394" 
d="M93 -73q-52 0 -77.5 34t-25.5 92q0 50 17 118t45 142.5t62.5 145.5t69.5 128.5t66 92t51 34.5q17 0 24.5 -21t7.5 -42q0 -28 -12 -68t-34 -85.5t-51 -89.5t-62.5 -80.5t-68.5 -57.5q-6 -11 -17.5 -45.5t-21 -79t-9.5 -86.5q0 -41 12.5 -67.5t42.5 -26.5q29 0 60 23.5
t50 60.5q-37 19 -55 55.5t-18 73.5q0 48 25 77t59 29q29 0 46 -23.5t17 -68.5q0 -33 -9 -68t-26 -68q6 -1 12.5 -2t13.5 -1q36 0 60 17.5t40.5 43t27.5 48.5l12 -13q-28 -69 -66.5 -91.5t-76.5 -22.5q-8 0 -16 1l-16 2q-27 -46 -66.5 -78.5t-92.5 -32.5zM232 69
q11 23 17 48.5t6 52.5q0 35 -9.5 55t-23.5 20q-15 0 -26.5 -20.5t-11.5 -51.5q0 -27 11 -57t37 -47zM116 309q28 22 54.5 56t49.5 72.5t41 75.5t28 67t10 45q0 5 -1 6.5t-3 1.5q-8 0 -30.5 -28.5t-50 -76t-54.5 -105t-44 -114.5z" />
    <glyph glyph-name="c" unicode="c" horiz-adv-x="323" 
d="M107 -56q-48 0 -80 32t-32 96q0 50 19.5 97.5t51.5 85.5t71 60.5t77 22.5q41 0 56 -24t15 -50q0 -29 -13.5 -51t-36.5 -22q-17 0 -29 15q15 8 26 32.5t11 46.5q0 12 -4.5 18.5t-17.5 6.5q-27 0 -55.5 -24t-53 -62t-40 -80t-15.5 -79q0 -31 15 -57t58 -26q40 0 80.5 22
t75.5 63t56 96l13 -10q-23 -60 -63 -107.5t-88 -74.5t-97 -27z" />
    <glyph glyph-name="d" unicode="d" horiz-adv-x="473" 
d="M59 -30q-17 0 -34.5 8.5t-29 27.5t-11.5 48q0 33 16 74t43 81.5t62 75t73 55t75 20.5q21 0 32.5 -7.5t11.5 -23.5q0 -4 -0.5 -7t-1.5 -7q-5 8 -14.5 11.5t-23.5 3.5q-32 0 -62.5 -19.5t-56 -51t-44.5 -67.5t-29.5 -69.5t-10.5 -56.5q0 -22 10 -35t26 -13q27 0 65.5 34
t78.5 96t72 145q22 58 45.5 118t47.5 115.5t46.5 99t43 69t36.5 25.5q8 0 14 -6.5t6 -16.5q0 -16 -16.5 -54.5t-43 -92t-55.5 -116.5t-55.5 -128t-43 -125.5t-16.5 -110.5q0 -28 3 -42t20 -14q21 0 49 18t56 51t49 79l12 -9q-19 -51 -52 -91.5t-70.5 -64t-71.5 -23.5
q-37 0 -51.5 24.5t-14.5 50.5q0 17 5 45t14 62q-32 -53 -68 -95.5t-70.5 -66.5t-65.5 -24z" />
    <glyph glyph-name="e" unicode="e" horiz-adv-x="333" 
d="M108 -44q-61 0 -91.5 33.5t-30.5 82.5q0 45 22.5 95t60 94t82.5 71.5t89 27.5q23 0 42.5 -12t19.5 -49q0 -38 -22.5 -71.5t-59 -59.5t-80 -42.5t-86.5 -20.5q-2 -10 -3 -19t-1 -17q0 -15 3.5 -30t12.5 -27.5t24.5 -19.5t38.5 -7q43 0 85 24.5t78 64.5t61 88l12 -9
q-27 -60 -68.5 -104t-90 -68.5t-98.5 -24.5zM59 124q27 9 61 26.5t65.5 41.5t52 53t20.5 61q0 11 -4 17t-17 6q-24 0 -51 -18.5t-52 -48.5t-45 -66t-30 -72z" />
    <glyph glyph-name="f" unicode="f" horiz-adv-x="312" 
d="M-13 -280q-10 0 -23 6.5t-22.5 25.5t-9.5 56q0 44 15 114.5t41 155.5t60 174.5t73.5 173t81 150t81.5 105.5t76 39q21 0 27.5 -13t6.5 -31q0 -43 -23.5 -94t-62.5 -102.5t-86 -98t-95 -79.5q-5 -12 -9.5 -24.5t-9.5 -25.5q11 -2 17.5 -11.5t7.5 -20.5q7 -45 15 -80.5
t24.5 -55.5t47.5 -20q35 0 59 25.5t52 72.5l15 -10q-25 -60 -63.5 -87t-67.5 -27q-18 0 -37.5 9t-36.5 24q0 -63 -13.5 -125t-35.5 -113t-49 -82t-56 -31zM13 -232q11 0 25 20t27.5 52.5t24.5 71.5t18 78t7 70t-8 56.5t-26 60.5q-25 -75 -45 -145t-31 -126t-11 -90
q0 -48 19 -48zM143 343q65 60 112.5 120.5t73.5 108t26 67.5q0 14 -14 14q-26 0 -59 -42.5t-69 -112.5t-70 -155z" />
    <glyph glyph-name="g" unicode="g" horiz-adv-x="389" 
d="M38 -280q-22 0 -40 13.5t-18 44.5q0 30 18.5 55.5t47.5 47t63.5 39.5t65.5 34q14 35 26.5 75.5t24.5 89.5q-38 -55 -79.5 -91.5t-83.5 -36.5q-36 0 -55.5 27t-19.5 70q0 52 25.5 99t66.5 83t87 56.5t86 20.5q29 0 41.5 -9.5t12.5 -22.5q0 -9 -5 -14t-7 -6q-5 8 -15 11.5
t-25 3.5q-39 0 -75.5 -23t-64.5 -59t-44.5 -74.5t-16.5 -70.5q0 -24 9.5 -36.5t25.5 -12.5q29 0 69.5 38.5t78.5 93.5q3 14 5.5 25t6.5 28q3 14 14.5 32.5t36.5 18.5q5 0 10 -0.5t11 -2.5q0 -16 -9.5 -58.5t-27 -99t-40.5 -116.5q33 16 64.5 41t57.5 57.5t41 70.5l13 -10
q-15 -45 -48 -82t-70.5 -64t-68.5 -42q-28 -67 -59 -122.5t-64.5 -88.5t-71.5 -33zM35 -248q20 0 54.5 39.5t74.5 135.5q-40 -20 -74.5 -41.5t-56.5 -45.5t-22 -53q0 -16 7 -25.5t17 -9.5z" />
    <glyph glyph-name="h" unicode="h" horiz-adv-x="476" 
d="M47 -38q-19 0 -30 32t-11 72q0 48 16 114t42 139t58.5 143t66.5 127t64 91t52 34q18 0 25.5 -21.5t7.5 -41.5q0 -28 -12.5 -68t-34.5 -85.5t-51 -89.5t-63 -80.5t-69 -57.5q-12 -29 -20.5 -65t-12.5 -70.5t-4 -61.5q0 -11 0.5 -19t1.5 -15q14 41 30.5 79.5t35.5 71
t40.5 57t45.5 38t51 13.5q28 0 44.5 -13.5t24 -34t7.5 -42.5q0 -31 -10.5 -60t-21.5 -56t-11 -52q0 -20 8.5 -29t21.5 -9q23 0 51.5 22t56.5 58.5t48 79.5l13 -12q-21 -49 -51 -88.5t-66 -62.5t-75 -23q-34 0 -51.5 18t-17.5 45q0 21 8 47t15.5 53t7.5 51q0 26 -11 37
t-27 11q-25 0 -45 -20t-36.5 -51.5t-31 -66.5t-27.5 -66.5t-26 -51.5t-27 -20zM121 309q28 22 54.5 56t49.5 72.5t41 75.5t28 67t10 45q0 5 -1 6.5t-3 1.5q-7 0 -28.5 -27.5t-49.5 -73.5t-55 -104t-46 -119z" />
    <glyph glyph-name="i" unicode="i" horiz-adv-x="241" 
d="M72 -26q-39 0 -58 24.5t-19 59.5q0 23 8.5 58t22.5 73.5t32.5 72.5t39.5 55.5t41 21.5q9 0 15.5 -5.5t6.5 -16.5q0 -12 -15.5 -39t-36.5 -62t-36.5 -73.5t-15.5 -73.5q0 -36 12 -48t37 -12q34 0 72.5 34t81.5 119l9 -10q-29 -86 -83.5 -132t-113.5 -46zM192 432
q-16 0 -28.5 8t-12.5 25q0 21 24.5 36.5t48.5 15.5q15 0 24 -7t9 -24q0 -19 -20.5 -36.5t-44.5 -17.5z" />
    <glyph glyph-name="j" unicode="j" horiz-adv-x="218" 
d="M-140 -280q-25 0 -38.5 14.5t-13.5 36.5q0 37 35.5 81t90.5 75q14 8 29.5 15t34.5 17q20 48 37 109.5t30 136.5q-15 -27 -27.5 -47t-19.5 -32l-9 15q17 31 30.5 66.5t26 67.5t25.5 52t28 20q11 0 17.5 -8.5t6.5 -21.5q0 -11 -5.5 -42.5t-16 -77t-25.5 -98.5t-33 -107
q29 17 58 35t58.5 48t57.5 82l13 -7q-25 -59 -59.5 -93.5t-70.5 -54.5t-67 -38q-22 -62 -51.5 -118t-65 -91t-76.5 -35zM-149 -246q20 0 57.5 43.5t76.5 129.5q-76 -37 -113.5 -77t-37.5 -72q0 -13 5 -18.5t12 -5.5zM135 437q-16 0 -28 8t-12 24q0 15 11.5 27t28.5 19t33 7
q14 0 23.5 -7t9.5 -21q0 -22 -20.5 -39.5t-45.5 -17.5z" />
    <glyph glyph-name="k" unicode="k" horiz-adv-x="446" 
d="M297 -38q-28 0 -48 19t-31.5 48t-17 59.5t-5.5 53.5q11 0 32 5.5t43 17t37.5 30t15.5 43.5q0 21 -15 33t-35 12q-31 0 -58 -21.5t-48.5 -56t-38.5 -73.5t-29 -74t-20 -58q-6 -18 -17 -24.5t-23 -6.5q-17 0 -24.5 14t-9 35.5t-1.5 44.5q0 52 17 120t45.5 141.5t62.5 142.5
t68 125t63 89t47 33q14 0 22.5 -19t8.5 -46q0 -34 -15 -76.5t-42.5 -85.5t-65 -81t-81.5 -65q-33 -81 -49.5 -157.5t-16.5 -128.5q16 40 38.5 88t51.5 92t63 72t71 28t63 -26t26 -63q0 -32 -16.5 -54.5t-40 -36t-47 -20t-38.5 -6.5q1 -8 6 -29t14.5 -44t23.5 -39.5t34 -16.5
q29 0 55 22t49.5 58.5t43.5 82.5l10 -10q-14 -49 -43 -92.5t-64.5 -71t-70.5 -27.5zM151 381q46 37 80.5 84t53.5 90.5t19 68.5q0 5 -0.5 7t-2.5 2q-10 0 -34.5 -35t-55.5 -92.5t-60 -124.5z" />
    <glyph glyph-name="l" unicode="l" horiz-adv-x="236" 
d="M83 -30q-43 0 -61.5 29.5t-18.5 73.5q0 48 18 114t47.5 139t64.5 142.5t70 126.5t64.5 91t46.5 34q11 0 18 -12.5t11 -30t4 -31.5q0 -27 -13.5 -70.5t-38 -97t-58 -108t-73 -104.5t-83.5 -86q-6 -27 -9.5 -52.5t-3.5 -48.5q0 -39 11 -58t33 -19q27 0 53.5 24t50 60.5
t40.5 75.5l15 -8q-40 -85 -87 -134.5t-101 -49.5zM90 214q35 35 68 80.5t61.5 94.5t50.5 95t34 82.5t12 56.5q0 10 -2.5 13t-4.5 3q-8 0 -27.5 -25.5t-45.5 -68.5t-53 -98t-51.5 -115t-41.5 -118z" />
    <glyph glyph-name="m" unicode="m" horiz-adv-x="646" 
d="M504 -31q-35 0 -51 21.5t-16 51.5q0 25 7.5 50t15 49t7.5 43q0 20 -9 28t-20 8q-25 0 -54.5 -39t-76.5 -110q-16 -24 -27 -48.5t-21 -44.5q-8 0 -20 2t-21.5 6.5t-9.5 11.5t9.5 33.5t22 62t22 72t9.5 62.5q0 17 -5.5 27.5t-19.5 10.5q-22 0 -53 -26.5t-64 -69.5
t-62.5 -94.5t-47.5 -102.5q-9 0 -22 3t-22.5 8t-9.5 10q0 6 10.5 35.5t24 71t24 84.5t10.5 76q6 7 19 14t27 7t20.5 -7t6.5 -19q0 -13 -7.5 -44.5t-18.5 -69.5q20 32 45.5 65.5t53.5 61.5t56.5 45.5t55.5 17.5q31 0 42.5 -22.5t11.5 -53.5q0 -25 -5.5 -52.5t-12.5 -51
t-13 -37.5q21 38 46.5 73.5t55.5 58t64 22.5q32 0 44.5 -19t12.5 -45t-9 -57t-18.5 -60t-9.5 -50q0 -13 6.5 -23.5t23.5 -10.5q28 0 52.5 25.5t45.5 62t36 70.5l12 -14q-16 -42 -41 -83.5t-58.5 -68.5t-73.5 -27z" />
    <glyph glyph-name="n" unicode="n" horiz-adv-x="466" 
d="M323 -20q-35 0 -52.5 18t-17.5 46q0 21 7.5 44t14.5 47.5t7 47.5q0 28 -11.5 38.5t-28.5 10.5q-31 0 -63 -25.5t-62 -65t-56 -81.5t-46 -75q-16 0 -30.5 5.5t-22.5 16.5q0 5 10.5 31t24.5 64t25 78t11 73q6 7 19 14t27 7q27 0 27 -26q0 -16 -9 -53.5t-23 -78.5
q27 41 60.5 81.5t71.5 67.5t76 27q39 0 56.5 -28t17.5 -62q0 -31 -10 -57.5t-20.5 -51t-10.5 -49.5q0 -21 8.5 -29.5t21.5 -8.5q25 0 50 23.5t48.5 59.5t41.5 73l11 -13q-21 -49 -47 -87t-57 -60t-69 -22z" />
    <glyph glyph-name="o" unicode="o" horiz-adv-x="365" 
d="M69 -32q-43 0 -61 26.5t-18 64.5q0 31 10 64t26.5 62t37 47t41.5 18q5 0 10.5 -1.5t10.5 -3.5q-9 -8 -21.5 -29.5t-23.5 -49t-18.5 -54.5t-7.5 -46q0 -30 10 -43.5t26 -13.5q21 0 50 22.5t57 57.5q-28 23 -43.5 60.5t-15.5 76.5q0 33 11.5 62t33.5 46.5t53 17.5
q41 0 55 -22t14 -55q0 -39 -19 -86.5t-48 -91.5q18 -10 38 -10q16 0 36 6.5t39.5 22.5t31.5 43l12 -10q-20 -47 -56.5 -66.5t-69.5 -19.5q-13 0 -25 2.5t-23 7.5q-34 -45 -74.5 -75t-78.5 -30zM216 115q25 37 41.5 77.5t16.5 76.5q0 29 -8.5 42.5t-21.5 13.5q-20 0 -41 -29
t-21 -73q0 -29 8.5 -58.5t25.5 -49.5z" />
    <glyph glyph-name="p" unicode="p" horiz-adv-x="391" 
d="M-63 -280q-8 0 -15.5 8.5t-11.5 18t-4 11.5q14 49 27.5 87.5t27 79t26.5 95t27 135.5t28 201q1 9 4 13t15 4q26 0 37 -14.5t11 -31.5q0 -14 -6 -50t-17 -85q17 33 42.5 67t58.5 57t72 23q44 0 72.5 -31.5t28.5 -82.5q0 -39 -17.5 -82.5t-49 -82t-74.5 -62.5t-95 -24
q-26 0 -42 6t-16 12q0 4 7.5 4.5t17.5 0.5q40 0 76.5 19.5t65.5 51.5t45.5 71t16.5 77q0 32 -13.5 54.5t-43.5 22.5q-26 0 -51.5 -16.5t-48 -42t-40 -53t-26.5 -49.5q-18 -75 -36 -144.5t-34.5 -126t-30 -92.5t-22.5 -44q-5 -5 -12 -5z" />
    <glyph glyph-name="q" unicode="q" horiz-adv-x="401" 
d="M194 -280q-14 0 -24.5 15t-10.5 58q0 35 7.5 87t20.5 109.5t31 108.5q-40 -57 -80.5 -92.5t-77.5 -35.5q-17 0 -34.5 8.5t-29 27.5t-11.5 50q0 35 16 75.5t44 80.5t64 72.5t76 52.5t80 20q34 0 56.5 -14t22.5 -35q0 -9 -4.5 -18.5t-13.5 -14.5q-5 -4 -15 -4
q0 22 -13 38.5t-44 16.5q-33 0 -63 -19.5t-54.5 -50t-43 -66t-28.5 -68.5t-10 -56q0 -22 9.5 -35t25.5 -13q20 0 43 19t47.5 50t49 68.5t47.5 74.5q7 11 13.5 17t13.5 10q11 5 19.5 4t12.5 -5q5 -5 5 -13q0 -16 -16.5 -43t-37 -68.5t-34.5 -102.5q43 4 86 31.5t81 100.5
l12 -11q-33 -76 -83.5 -108t-97.5 -37q8 -26 12.5 -54t4.5 -59q0 -47 -9.5 -86t-26.5 -62.5t-38 -23.5zM221 -225q8 0 13.5 19t8.5 48.5t3 58.5q0 20 -1.5 38.5t-5.5 36.5q-13 -53 -19.5 -99.5t-6.5 -73.5q0 -13 2 -20.5t6 -7.5z" />
    <glyph glyph-name="r" unicode="r" horiz-adv-x="348" 
d="M173 -26q-34 0 -53.5 18t-19.5 47q0 30 14 63t27.5 65.5t13.5 58.5q0 32 -18.5 47.5t-37.5 28.5q-23 -59 -48 -112t-41 -80l-9 17q14 26 36.5 76t44.5 114q-10 10 -10 24q0 30 17 49t25 19q11 0 12.5 -9.5t1.5 -14.5t-5.5 -19.5t-5.5 -17.5q0 -14 15.5 -25.5t35.5 -26
t35.5 -35t15.5 -52.5q0 -30 -12.5 -61t-25 -59t-12.5 -49q0 -18 9 -24t21 -6q24 0 49.5 15t49.5 38t43 48.5t28 47.5l13 -10q-19 -42 -52 -82.5t-73.5 -66.5t-83.5 -26z" />
    <glyph glyph-name="s" unicode="s" horiz-adv-x="345" 
d="M105 -51q-47 0 -74.5 20.5t-39 50.5t-11.5 60t8 46t19.5 24t22 12t14.5 8q30 33 55 69t44 76v12q0 37 12.5 52.5t26.5 15.5q8 0 12 -4t4 -9t-3 -16t-3 -28q0 -33 13 -71.5t26 -81t13 -88.5q0 -13 -1.5 -25.5t-4.5 -23.5q35 6 66 31.5t60 81.5l9 -10q-19 -55 -57 -83.5
t-83 -35.5q-16 -43 -50.5 -63t-77.5 -20zM107 -16q12 0 32 8t31 41q-42 8 -74.5 33t-48.5 50q-22 -1 -22 -35q0 -36 21.5 -66.5t60.5 -30.5zM175 49q2 10 3 21t1 26q0 47 -11.5 93.5t-19.5 87.5q-23 -38 -48.5 -72.5t-48.5 -57.5q15 -32 46.5 -60t77.5 -38z" />
    <glyph glyph-name="t" unicode="t" horiz-adv-x="285" 
d="M85 -46q-43 0 -66 25t-23 74q0 44 16.5 108.5t41.5 132.5q-10 2 -19 3.5t-17 4.5v18q8 -1 19 -2t25 -2q21 54 45 104.5t47.5 90t45 63t36.5 23.5q8 0 14.5 -5.5t6.5 -16.5q0 -17 -21 -55.5t-52 -91.5t-60 -115h18.5h18.5q33 0 69.5 1t73.5 5v-18q-55 -6 -98.5 -9
t-77.5 -3h-7.5h-7.5q-23 -53 -39 -109t-16 -109q0 -43 13 -61.5t43 -18.5q52 0 102 46t88 125l13 -10q-24 -56 -60.5 -101t-80.5 -71t-91 -26z" />
    <glyph glyph-name="u" unicode="u" horiz-adv-x="438" 
d="M75 -30q-34 0 -54.5 30.5t-20.5 70.5q0 29 9.5 67t23.5 75t29 61t26 24q5 0 17 -5.5t20 -14.5q-11 -17 -27 -52t-28 -75t-12 -74q0 -8 2 -24.5t10 -29.5t24 -13q19 0 39 19.5t40.5 50.5t39.5 67t35.5 69l27.5 55q6 -1 17.5 -4t21 -8t9.5 -14q0 -4 -10 -26.5t-23.5 -55
t-23.5 -65.5t-10 -58q0 -18 7.5 -29t25.5 -11q21 0 51 19t61 55.5t55 87.5l13 -9q-21 -54 -55 -95.5t-72 -64.5t-74 -23q-26 0 -41.5 10t-22 27t-6.5 37q0 12 2 24.5t5 25.5q-18 -33 -39 -61.5t-44 -45.5t-48 -17z" />
    <glyph glyph-name="v" unicode="v" horiz-adv-x="407" 
d="M65 -39q-31 0 -43 30.5t-12 79.5q0 2 1 31.5t5 99.5q2 27 6 37t26 10q17 0 21.5 -6.5t4.5 -25.5q0 -33 -4.5 -77.5t-4.5 -83.5q0 -29 5 -42.5t18 -13.5q18 0 40 20.5t45 54t43.5 71.5t36.5 73q2 68 14.5 90.5t31.5 22.5t27.5 -13.5t8.5 -24.5q0 -13 -8.5 -27t-17.5 -38
t-9 -69q0 -16 3 -34t13 -30t31 -12t40.5 16.5t38.5 57.5l13 -10q-22 -50 -48.5 -67t-50.5 -17q-33 0 -55 24t-29 73q-24 -49 -56.5 -94.5t-67.5 -75.5t-67 -30z" />
    <glyph glyph-name="w" unicode="w" horiz-adv-x="617" 
d="M282 -39q-31 0 -42.5 28.5t-11.5 68.5q0 20 2 43.5t5 46.5q-22 -44 -47.5 -85t-53.5 -67t-59 -26q-33 0 -54 30t-21 71q0 29 9.5 67t23.5 75t29 61t26 24q5 0 21 -5.5t16 -14.5q-11 -17 -27 -52t-28 -75.5t-12 -73.5q0 -8 2 -24.5t9.5 -29.5t23.5 -13q23 0 49 29t52 73
t49 89q8 41 13.5 60t11.5 24.5t15 5.5q13 0 21 -5.5t8 -16.5q0 -2 -0.5 -5t-1.5 -6q-7 -24 -13.5 -60.5t-10.5 -75.5t-4 -73q0 -23 5 -36t17 -13q15 0 35 18.5t41.5 49t42 66.5t36.5 71q0 52 7.5 79.5t19 37.5t23.5 10q19 0 27.5 -13.5t8.5 -24.5q0 -7 -3 -14.5t-8 -16.5
q-8 -15 -16 -38.5t-8 -64.5q0 -16 3 -34t13 -30t31 -12t40.5 16.5t38.5 57.5l13 -10q-22 -50 -48.5 -67t-50.5 -17q-31 0 -52.5 21t-31.5 63q-25 -46 -56 -89t-64 -70.5t-64 -27.5z" />
    <glyph glyph-name="x" unicode="x" horiz-adv-x="418" 
d="M44 -59q-4 0 -7 4t-3 11q0 12 21 42.5t54.5 72.5t72.5 85q-5 47 -13 81.5t-31 34.5q-24 0 -43 -20.5t-37 -53t-39 -69.5l-9 16q14 27 26.5 56t27.5 54t36.5 40.5t53.5 15.5q39 0 57.5 -27.5t25.5 -67.5q47 49 85 82.5t51 33.5q5 0 15 -3t10 -8q-11 0 -35 -19.5t-55 -52.5
t-65 -72q3 -30 5 -60t6.5 -54t14.5 -38.5t28 -14.5t38.5 15t40 38.5t36 49.5t26.5 48l10 -10q-14 -43 -42.5 -83.5t-63.5 -67t-70 -26.5q-29 0 -46 19.5t-25.5 51t-13.5 66.5q-42 -50 -77.5 -95t-53.5 -68q-6 -7 -12 -7z" />
    <glyph glyph-name="y" unicode="y" horiz-adv-x="389" 
d="M43 -280q-25 0 -44 13.5t-19 39.5q0 32 16 57t43 46t62 40t73 38q14 37 28.5 82.5t27.5 100.5q-32 -52 -68.5 -89.5t-77.5 -37.5q-19 0 -37.5 8.5t-30.5 26.5t-12 46t9.5 65t23.5 72t29 58t26 23q4 0 14.5 -3t20 -8.5t9.5 -11.5q-9 -13 -20 -37t-21.5 -53.5t-17.5 -57.5
t-7 -48q0 -18 8 -29t28 -11q19 0 42.5 18.5t47 47.5t43.5 62q3 11 5.5 22.5t4.5 23.5q3 14 14.5 32.5t36.5 18.5q5 0 10 -0.5t11 -2.5q0 -16 -9.5 -59.5t-27 -101.5t-41.5 -119q47 18 92 59.5t73 110.5l13 -10q-15 -48 -45.5 -83.5t-68.5 -61t-75 -42.5q-26 -64 -56.5 -120
t-64 -90.5t-68.5 -34.5zM38 -248q15 0 50.5 39.5t75.5 138.5q-41 -22 -76 -43.5t-56 -46.5t-21 -58q0 -8 6 -19t21 -11z" />
    <glyph glyph-name="z" unicode="z" horiz-adv-x="317" 
d="M-5 -280q-31 0 -48.5 11.5t-17.5 39.5q0 32 21.5 59.5t57.5 52.5t79.5 50.5t86.5 54.5q0 36 -15 66t-54 61q35 10 59.5 35t37 55.5t12.5 56.5q0 23 -9.5 38t-29.5 15q-33 0 -59 -25t-48 -66t-45 -90l-12 10q22 60 45.5 107t55.5 74.5t77 27.5q34 0 58.5 -22t24.5 -60
q0 -36 -17 -67t-44 -54.5t-57 -38.5q26 -20 43.5 -42.5t26.5 -47.5q38 29 67.5 63.5t43.5 77.5l11 -12q-14 -45 -45 -81.5t-71 -66.5q2 -7 3 -16t1 -17q0 -45 -20 -89.5t-54 -80.5t-76.5 -57.5t-88.5 -21.5zM-12 -251q18 0 47 14.5t59 42t52 67.5t27 92q-40 -25 -78.5 -47.5
t-69.5 -44t-49.5 -44t-18.5 -47.5q0 -17 9 -25t22 -8z" />
    <glyph glyph-name="braceleft" unicode="{" horiz-adv-x="260" 
d="M102 -87q-37 0 -51 20.5t-14 45.5q0 26 11 57.5t26 65.5t26 67.5t11 63.5t-6.5 55t-29.5 43q35 4 52 31.5t24 69t10 86.5q3 38 7 73.5t13 65t26.5 46.5t47.5 17q13 0 24.5 -4.5t20 -16t10.5 -32.5q-8 5 -16.5 9.5t-16.5 4.5q-22 0 -34 -27.5t-18.5 -70t-12.5 -88.5
q-5 -42 -12.5 -80t-21 -62.5t-37.5 -27.5q14 -14 20 -30t6 -39q0 -46 -11.5 -85.5t-26.5 -74t-26.5 -65.5t-11.5 -61q0 -13 7 -22.5t26 -9.5q15 0 25 8q-1 -19 -15.5 -26t-31.5 -7z" />
    <glyph glyph-name="bar" unicode="|" horiz-adv-x="259" 
d="M55 -132q12 33 22 88.5t18.5 125.5t15.5 146t13 150t12 139t11.5 112t11.5 68q12 -5 18 -15.5t8 -21.5t2 -20q0 -35 -2 -93.5t-5.5 -128.5t-8 -140t-9 -129.5t-8.5 -96.5q-9 -86 -31.5 -135t-67.5 -49z" />
    <glyph glyph-name="braceright" unicode="}" horiz-adv-x="256" 
d="M36 -87q-13 0 -25.5 4.5t-21 16.5t-10.5 32q18 -12 34 -12q21 0 33 26t19.5 66t12.5 83q5 44 13 89t23 80t42 49q-14 16 -19.5 34.5t-5.5 37.5q0 32 10.5 67.5t25 70.5t25 64.5t10.5 50.5q0 6 -2 10.5t-10 4.5q-4 0 -13.5 -3.5t-22.5 -13.5q2 21 22 35.5t46 14.5
q20 0 30 -10.5t10 -23.5q0 -17 -11 -45.5t-26 -63.5t-26 -72t-11 -71q0 -26 6 -52.5t29 -42.5q-36 -9 -54.5 -40t-26 -75.5t-11.5 -92.5q-3 -40 -7.5 -79t-13 -70.5t-26.5 -50t-48 -18.5z" />
    <glyph glyph-name="asciitilde" unicode="~" horiz-adv-x="435" 
d="M269 129q-28 0 -58.5 10t-61.5 19.5t-63 9.5q-12 0 -23.5 -1.5t-22.5 -6.5q20 26 40.5 36t42.5 10q21 0 43.5 -6.5t46.5 -15.5t50 -15.5t54 -6.5q8 0 15.5 1t14.5 2q-18 -20 -37.5 -28t-40.5 -8z" />
    <glyph glyph-name="uni00A0" unicode="&#xa0;" horiz-adv-x="260" 
 />
    <glyph glyph-name="exclamdown" unicode="&#xa1;" horiz-adv-x="264" 
d="M-59 -251q-8 0 -14 6.5t-6 16.5q0 14 14.5 51.5t39 91t55 114.5t63.5 123.5t64.5 118t57.5 96.5l1.5 -1.5l1.5 -1.5q-9 -45 -20 -82t-20.5 -63.5t-15.5 -40.5q-16 -42 -37.5 -97.5t-45.5 -113.5t-48.5 -107.5t-47.5 -80t-42 -30.5zM218 412q-12 0 -19 5t-7 18
q0 15 16.5 29.5t35.5 14.5q13 0 22.5 -6.5t9.5 -20.5q0 -16 -19 -28t-39 -12z" />
    <glyph glyph-name="cent" unicode="&#xa2;" horiz-adv-x="403" 
d="M68 -162q12 14 27.5 53.5t33 97t34.5 125.5q-48 0 -79.5 32t-31.5 96q0 44 17.5 86t47 78t64.5 61t71 35q11 53 19.5 97.5t12.5 75.5q2 15 11 27t34 18l-40 -212q43 0 58 -24t15 -50q0 -29 -13.5 -51t-36.5 -22q-17 0 -29 15q15 8 26 32.5t11 46.5q0 16 -10 21.5t-27 2.5
q-15 -80 -31.5 -166t-31.5 -158q31 5 62 19.5t59 39.5l17 -16q-30 -28 -68.5 -48.5t-76.5 -29.5q-19 -87 -38 -150.5t-43.5 -97.5t-63.5 -34zM173 152q20 77 38 158.5t34 154.5q-36 -20 -65.5 -59.5t-47.5 -85t-18 -85.5q0 -28 12.5 -53t46.5 -30z" />
    <glyph glyph-name="sterling" unicode="&#xa3;" horiz-adv-x="650" 
d="M450 -87q-36 0 -79.5 15t-89.5 36.5t-91 41.5q-25 -28 -52 -43.5t-59 -15.5t-54.5 15t-34 35.5t-11.5 36.5q0 18 16.5 31t56.5 13q26 0 57.5 -6t65.5 -15q28 47 56.5 131t68.5 212q-46 15 -72.5 44t-26.5 63q0 18 7.5 36t21.5 30.5t33 12.5q-7 -10 -10 -29t-3 -33
q0 -38 16 -63.5t41 -39.5q26 80 56.5 148t69.5 109.5t89 41.5q20 0 42.5 -9t38.5 -31t16 -62q0 -34 -14 -74.5t-44.5 -76.5t-79.5 -58t-118 -21q-24 -71 -46.5 -134t-46 -115.5t-51.5 -94.5q46 -14 93 -28.5t91 -24t81 -9.5q21 0 38 4t33 12q-16 -46 -42.5 -65.5
t-62.5 -19.5zM75 -24q22 0 41.5 12t35.5 34q-31 13 -60.5 21.5t-53.5 8.5q-19 0 -26 -5t-7 -14q0 -11 9 -24.5t25 -23t36 -9.5zM124 221q6 23 31 37t63 20.5t82 6.5q56 0 106 -7.5t85 -9.5q-12 -17 -33.5 -24t-63.5 -8.5t-117 -1.5q-38 0 -78 -3.5t-75 -9.5zM369 407
q45 0 81.5 25.5t62 64t39 78.5t13.5 70q0 29 -11 39.5t-25 10.5q-31 0 -58 -40t-51.5 -105.5t-50.5 -142.5z" />
    <glyph glyph-name="currency" unicode="&#xa4;" horiz-adv-x="697" 
d="M599 24q-14 26 -53 60.5t-87 84.5q-25 -32 -56.5 -52.5t-67.5 -20.5q-28 0 -48.5 10.5t-34.5 29.5q-46 -51 -89 -72t-80 -21q16 16 39 31.5t51 40t56 65.5q-5 16 -7 32.5t-2 34.5q0 41 12 88t34 89q-34 38 -64.5 68.5t-53.5 51.5q-7 7 -12.5 24t-5.5 36q0 9 1.5 18
t4.5 16q14 -13 57 -59.5t100 -109.5q26 34 59 55.5t71 21.5q36 0 62.5 -18t40.5 -50q27 32 45 60t41 45.5t64 17.5q5 0 9.5 -0.5t8.5 -1.5q-11 -16 -54 -66t-100 -116q0 -4 0.5 -8t0.5 -8q0 -43 -14 -93.5t-40 -95.5q49 -46 81.5 -90t32.5 -80v-8.5t-2 -9.5zM343 149
q26 0 51.5 25.5t46.5 66t34 86t13 85.5q0 37 -20.5 60.5t-44.5 23.5q-31 0 -57.5 -27.5t-46.5 -69.5t-31 -85.5t-11 -76.5q0 -40 22 -64t44 -24z" />
    <glyph glyph-name="yen" unicode="&#xa5;" horiz-adv-x="810" 
d="M342 -187q-38 0 -69.5 11t-50 32t-18.5 51q0 26 14.5 45.5t45.5 29.5q-4 -15 -6 -29t-2 -25q0 -41 22 -65.5t65 -24.5q40 0 70.5 19.5t53.5 51.5t39 68q-36 0 -73 -2t-78 -9q11 28 56.5 38t109.5 11q6 16 11 31.5t9 30.5q-47 -1 -92 -2t-94 -9q8 20 34.5 30.5t68 14.5
t92.5 4q12 37 21.5 93t22.5 118q-26 -51 -58.5 -90.5t-71.5 -62t-87 -22.5q-59 0 -84 33.5t-25 85.5q0 39 10.5 85t23.5 92.5t23.5 89.5t10.5 77q0 32 -12.5 55t-44.5 23q-28 0 -48 -17.5t-33.5 -44.5t-20 -56.5t-6.5 -54.5q0 -30 8 -49q-38 0 -53.5 20.5t-15.5 48.5
q0 31 15 63t41.5 58.5t61 43t73.5 16.5q38 0 61 -15.5t33 -38.5t10 -47q0 -28 -10 -68t-23.5 -86t-23.5 -92t-10 -86q0 -43 16.5 -69.5t53.5 -26.5q35 0 66 22t58 59t49 81t39 87q18 73 37.5 136.5t40.5 103.5t42 40q10 0 26 -8.5t30 -23.5q-21 -33 -36 -62.5t-28.5 -64.5
t-27.5 -82.5t-31.5 -116.5t-41.5 -168q-5 -20 -10 -40.5t-11 -40.5q34 -1 60.5 -3t41.5 -4q-25 -18 -54.5 -23.5t-57.5 -5.5q-5 -16 -10.5 -31.5t-11.5 -31.5q44 -1 80 -3.5t54 -4.5q-25 -18 -53.5 -23.5t-49.5 -5.5h-47q-21 -46 -51 -83.5t-71.5 -59t-97.5 -21.5z" />
    <glyph glyph-name="brokenbar" unicode="&#xa6;" horiz-adv-x="260" 
d="M55 -132q12 31 21 81.5t17 114t15 133.5q7 7 19.5 13.5t26.5 6.5q8 0 10 -8t2 -15q-7 -102 -17 -175t-31 -112t-63 -39zM117 296q8 90 15 172t13.5 143t13.5 86q12 -5 18 -15.5t8 -21.5t2 -20q0 -39 -5 -109t-5 -149q0 -9 -6 -30.5t-26 -35.5z" />
    <glyph glyph-name="section" unicode="&#xa7;" horiz-adv-x="416" 
d="M140 -87q-34 0 -64.5 12.5t-49.5 38t-19 64.5q0 33 13 51.5t32 26t36 7.5q-17 -18 -26 -40.5t-9 -44.5q0 -35 24 -62.5t74 -27.5q29 0 56.5 10.5t45 31t17.5 51.5q0 33 -20 56.5t-49.5 43t-59 41t-49.5 50t-20 68.5q0 45 22.5 79t63.5 50.5t98 9.5q-25 15 -49 31
t-39.5 37.5t-15.5 51.5q0 26 13 55.5t36.5 55.5t56.5 42.5t72 16.5q41 0 56 -17.5t15 -45.5q0 -24 -8 -50.5t-19.5 -50.5t-21.5 -40q-13 2 -17 10t-4 17q0 19 9.5 43t18.5 48.5t9 43.5q0 13 -7.5 20t-27.5 7q-40 0 -72 -24t-50.5 -57t-18.5 -61q0 -29 18 -47.5t44.5 -34
t53.5 -34.5t45 -49t18 -77q0 -43 -20 -72t-51 -43t-66 -14q-16 0 -26 2t-20 5q8 -7 28 -17.5t43 -27t39 -42t16 -61.5q0 -42 -27 -73t-67 -47.5t-80 -16.5zM219 231q47 0 71 22t24 63q0 38 -21 61.5t-66 23.5q-38 0 -68.5 -20.5t-30.5 -70.5q0 -12 5.5 -31t24.5 -33.5
t61 -14.5z" />
    <glyph glyph-name="dieresis" unicode="&#xa8;" horiz-adv-x="239" 
d="M181 409q-15 0 -26 7t-11 23q0 19 22 33t44 14q14 0 22 -6t8 -22q0 -17 -18.5 -33t-40.5 -16zM37 430q-15 0 -26 7t-11 23q0 19 22 33t44 14q14 0 22 -6t8 -22q0 -17 -18.5 -33t-40.5 -16z" />
    <glyph glyph-name="copyright" unicode="&#xa9;" horiz-adv-x="592" 
d="M323 100q-42 0 -85 16t-79 48t-58 80.5t-22 113.5q0 67 22.5 116.5t59.5 81.5t80.5 48t85.5 16t85 -16t79 -48t58 -80.5t22 -113.5q0 -67 -22.5 -116.5t-59.5 -81.5t-80.5 -48t-85.5 -16zM323 128q64 0 113.5 29.5t78 82.5t28.5 122q0 67 -27 118.5t-75.5 81.5t-113.5 30
q-63 0 -113 -29.5t-78.5 -82t-28.5 -122.5q0 -66 27 -118t76 -82t113 -30zM326 209q-34 0 -57.5 20.5t-23.5 69.5v132q0 50 23.5 70.5t57.5 20.5q31 0 49 -13t25.5 -29.5t7.5 -28.5q0 -11 -5 -14t-10 -3q-10 0 -12 4t-3 8q-1 10 -5.5 21t-15 19.5t-30.5 8.5q-24 0 -38 -15.5
t-14 -48.5v-132q0 -33 14 -48.5t40 -15.5q19 0 29.5 10t15 21.5t4.5 17.5q0 7 5 9.5t8 2.5q17 0 17 -14q-1 -30 -22 -51.5t-60 -21.5z" />
    <glyph glyph-name="ordfeminine" unicode="&#xaa;" horiz-adv-x="383" 
d="M157 447q-22 0 -37 14.5t-15 44.5q0 31 17 68t45.5 70t63 54.5t68.5 21.5q27 0 45 -14.5t18 -37.5q0 -17 -9.5 -23.5t-24.5 -6.5q2 6 3 12.5t1 11.5q0 16 -8 28t-27 12q-25 0 -50 -21t-46.5 -53t-34.5 -65.5t-13 -59.5q0 -27 19 -27q16 0 36 16.5t41 41t39 50.5t31 45
q6 -1 17 -5.5t11 -12.5t-10 -24.5t-20.5 -36t-10.5 -36.5q0 -10 5.5 -20.5t18.5 -10.5q19 0 50 28t62 83l7 -7q-22 -57 -61.5 -92.5t-76.5 -35.5q-26 0 -38.5 15.5t-12.5 33.5q0 5 0.5 10t1.5 11q-30 -40 -54.5 -61t-50.5 -21z" />
    <glyph glyph-name="guillemotleft" unicode="&#xab;" horiz-adv-x="436" 
d="M315 44q-18 0 -43.5 12t-50.5 30t-43 37.5t-22 34.5q33 15 69 41t68 57t53 60q2 -2 3.5 -9.5t1.5 -12.5q0 -20 -16.5 -40.5t-42.5 -40t-55.5 -36.5t-54.5 -30q23 -16 42.5 -29.5t47 -26.5t72.5 -31q-4 -5 -11.5 -10.5t-17.5 -5.5zM165 44q-18 0 -43.5 12t-50.5 30
t-43 37.5t-22 34.5q33 15 69 41t68 57t53 60q2 -2 3.5 -9.5t1.5 -12.5q0 -20 -16.5 -40.5t-42.5 -40t-55.5 -36.5t-54.5 -30q23 -16 42.5 -29.5t47 -26.5t72.5 -31q-4 -5 -11.5 -10.5t-17.5 -5.5z" />
    <glyph glyph-name="logicalnot" unicode="&#xac;" horiz-adv-x="667" 
d="M489 33q7 28 9 49t2 47v68q-13 -1 -26 -1.5t-24 -0.5q-67 -1 -115.5 -1h-85t-67.5 -0.5t-63.5 -3t-74.5 -6.5q12 20 54.5 30.5t107 14.5t140.5 4q41 0 81 -0.5t74 -2.5q2 13 8.5 26.5t19.5 25.5q1 -8 3 -22t3 -32q26 -1 46.5 -2t33.5 -2q-18 -8 -38 -13.5t-40 -9.5
q0 -30 -1 -58t-5.5 -51.5t-14 -39t-27.5 -19.5z" />
    <glyph glyph-name="uni00AD" unicode="&#xad;" horiz-adv-x="485" 
d="M35 144q6 15 22.5 24.5t41.5 15t57 7.5t68 2q27 0 52 -1t47.5 -2.5t40 -3t28.5 -2.5q-16 -11 -38 -17.5t-66 -9.5q-29 -1 -73.5 -1t-80.5 -2q-16 0 -31 -1t-31.5 -3t-36.5 -6z" />
    <glyph glyph-name="registered" unicode="&#xae;" horiz-adv-x="592" 
d="M323 100q-42 0 -85 16t-79 48t-58 80.5t-22 113.5q0 67 22.5 116.5t59.5 81.5t80.5 48t85.5 16t85 -16t79 -48t58 -80.5t22 -113.5q0 -67 -22.5 -116.5t-59.5 -81.5t-80.5 -48t-85.5 -16zM323 128q64 0 113.5 29.5t78 82.5t28.5 122q0 67 -27 118.5t-75.5 81.5t-113.5 30
q-63 0 -113 -29.5t-78.5 -82t-28.5 -122.5q0 -66 27 -118t76 -82t113 -30zM267 210q-6 0 -11 3.5t-5 10.5v284q0 5 4 9t11 4h63q23 0 42.5 -7.5t31.5 -26t12 -50.5q0 -38 -17.5 -57.5t-42.5 -24.5q10 -20 19.5 -41t19.5 -41.5t19 -41.5q1 -1 1.5 -3t0.5 -4q0 -6 -3.5 -10
t-10.5 -4q-9 0 -16 12.5t-9 16.5l-53 114h-41v-129q0 -7 -5 -10.5t-10 -3.5zM282 379h47q25 0 40 13.5t15 44.5t-15 44t-40 13h-47v-115z" />
    <glyph glyph-name="macron" unicode="&#xaf;" horiz-adv-x="407" 
d="M309 418q-22 0 -55 5.5t-69.5 13t-69 14t-55.5 8.5q10 26 46 26q37 0 79 -7.5t84.5 -18t77.5 -21.5q-14 -20 -38 -20z" />
    <glyph glyph-name="degree" unicode="&#xb0;" horiz-adv-x="265" 
d="M164 396q-39 0 -55.5 16t-16.5 38q0 24 16.5 50t44 44t61.5 18q41 0 58.5 -15.5t17.5 -38.5q0 -24 -17.5 -50t-46 -44t-62.5 -18zM169 413q22 0 42.5 16t34.5 38.5t14 41.5q0 16 -10.5 26t-35.5 10q-22 0 -43 -15.5t-34 -37.5t-13 -42q0 -16 10.5 -26.5t34.5 -10.5z" />
    <glyph glyph-name="plusminus" unicode="&#xb1;" horiz-adv-x="449" 
d="M187 115q7 37 8.5 65t1.5 67q-29 0 -50.5 -0.5t-43 -2t-49.5 -5.5q8 21 48 29.5t95 9.5v40q0 17 5 40t21 42q2 -16 4.5 -49.5t3.5 -72.5q31 0 59 -1.5t50.5 -3t34.5 -2.5q-22 -15 -47.5 -19.5t-45.5 -4.5h-51q-1 -51 -10 -87.5t-34 -44.5zM54 34q7 16 31 24.5t60 11.5
t79 3q48 0 90 -2.5t61 -4.5q-14 -8 -32 -13.5t-46.5 -7.5t-74.5 -2q-21 0 -41.5 -0.5t-41.5 -1t-42 -2.5t-43 -5z" />
    <glyph glyph-name="uni00B2" unicode="&#xb2;" horiz-adv-x="355" 
d="M282 304q-13 0 -30.5 4.5t-38.5 13t-47 19.5q-31 -21 -56 -21q-16 0 -27 8t-11 21q0 26 41 26q11 0 23.5 -2t27.5 -5q30 27 60 70t50 92t20 93q0 36 -14 52t-35 16q-30 0 -47 -28.5t-17 -69.5q0 -10 1.5 -17.5t5.5 -18.5h-8q-19 5 -28.5 15t-9.5 31q0 27 14 51t39.5 39
t57.5 15q38 0 61 -27t23 -65q0 -44 -20 -91.5t-52.5 -90t-68.5 -72.5q31 -8 56.5 -13t42.5 -5q8 0 18 4t26 14q-7 -30 -20.5 -44t-36.5 -14zM109 338q7 0 14 3.5t17 9.5q-10 4 -18 5.5t-13 1.5q-8 0 -11 -3.5t-3 -6.5q0 -4 4.5 -7t9.5 -3z" />
    <glyph glyph-name="uni00B3" unicode="&#xb3;" horiz-adv-x="295" 
d="M166 314q-47 0 -66 24.5t-19 48.5q0 19 11.5 37t33.5 18h6.5t7.5 -2q-8 -7 -12.5 -20.5t-4.5 -26.5q0 -22 13 -40.5t35 -18.5q28 0 52.5 30t24.5 78q0 29 -13 56t-46 35q26 12 44.5 32.5t29 44.5t10.5 44q0 26 -12.5 36.5t-28.5 10.5q-19 0 -36 -13.5t-17 -38.5
q0 -7 2 -15.5t6 -17.5q-3 -6 -10.5 -11t-13.5 -5q-10 0 -15.5 14t-5.5 27q0 37 30.5 57t65.5 20q31 0 55.5 -16.5t24.5 -49.5q0 -21 -10.5 -44.5t-29 -42.5t-42.5 -27q39 -13 54.5 -42t15.5 -54q0 -31 -18.5 -60.5t-50 -48.5t-71.5 -19z" />
    <glyph glyph-name="acute" unicode="&#xb4;" horiz-adv-x="125" 
d="M102 404q-7 4 -10.5 13t-3.5 13q0 9 10.5 28.5t26.5 41t34 36.5t33 15q8 0 14.5 -6.5t7.5 -24.5q-36 -31 -63 -59t-49 -57z" />
    <glyph glyph-name="uni00B5" unicode="&#xb5;" horiz-adv-x="585" 
d="M-9 -280q-9 0 -16 8.5t-11 18t-4 11.5q14 49 28.5 87.5t29 79t29 95t29.5 135.5t29 201q1 9 4 13t15 4q26 0 37 -14.5t11 -31.5q-22 -97 -35 -163.5t-13 -103.5q0 -50 29 -50q19 0 39 19.5t40.5 50.5t39.5 67t35.5 69l27.5 55q6 -1 17.5 -4t21 -8t9.5 -14q0 -4 -10 -26.5
t-23.5 -55t-23.5 -65.5t-10 -58q0 -18 7.5 -29t25.5 -11q21 0 51 19t61 55.5t55 87.5l13 -9q-22 -54 -55.5 -95.5t-71.5 -64.5t-74 -23q-40 0 -55 21.5t-15 52.5q0 12 2 24.5t5 25.5q-28 -49 -60.5 -86.5t-70.5 -37.5q-12 0 -23 4.5t-19 12.5q-37 -130 -62 -198.5t-39 -68.5
z" />
    <glyph glyph-name="paragraph" unicode="&#xb6;" horiz-adv-x="644" 
d="M329 -87q4 53 10 115t11 128q-24 1 -60.5 6t-76 16.5t-74 31.5t-56.5 51t-22 75q0 56 29 99t75.5 73.5t101 48.5t105.5 22q-2 74 -9 129q9 5 16 6.5t13 1.5q17 0 24.5 -14.5t10 -37t2.5 -45.5t1 -41q11 -1 21.5 -2.5t20.5 -3.5q-1 42 -2.5 77t-3.5 59q7 5 13.5 6.5
t12.5 1.5q12 0 19 -22t11 -58t6 -78q26 -8 47 -16.5t36 -16.5q-2 -5 -10.5 -11.5t-17.5 -11t-13 -4.5t-14.5 6.5t-26.5 14.5q1 -13 1 -26v-25q0 -234 -6 -361.5t-10 -143.5q-8 -23 -27 -36.5t-41 -13.5q1 3 3.5 27.5t5.5 67.5t6 101t5.5 127.5t4 147.5t1.5 161
q-10 3 -20 5.5t-21 4.5q1 -25 1.5 -66t1 -83t0.5 -72q0 -84 -2 -150.5t-4.5 -113.5t-5.5 -74t-5 -33q-5 -14 -19.5 -25.5t-33 -18t-35.5 -6.5z" />
    <glyph glyph-name="periodcentered" unicode="&#xb7;" horiz-adv-x="209" 
d="M70 124q-13 0 -22.5 6.5t-9.5 20.5q0 11 9 20.5t22.5 15t26.5 5.5q12 0 19 -5t7 -19q0 -10 -7.5 -20t-19.5 -17t-25 -7z" />
    <glyph glyph-name="cedilla" unicode="&#xb8;" horiz-adv-x="217" 
d="M81 -211q-29 0 -45 11t-16 25q0 8 5.5 16.5t16.5 16.5q5 -24 17 -34.5t25 -10.5q19 0 38 14.5t32 35t13 37.5q0 8 -3.5 16.5t-13.5 8.5q-13 0 -31 -10t-33 -20.5t-21 -10.5q-7 0 -10.5 6.5t-3.5 11.5q0 2 8.5 14t20.5 28.5t24.5 32t21.5 23.5h13l-53 -81q11 8 27 16t40 8
q23 0 34 -10.5t11 -31.5q0 -28 -16.5 -54t-43 -42t-57.5 -16z" />
    <glyph glyph-name="uni00B9" unicode="&#xb9;" horiz-adv-x="260" 
d="M109 314q-10 0 -22.5 6t-20.5 18q23 0 39.5 0.5t31.5 3.5q12 26 21.5 66.5t17.5 85t15 83.5t14 63q-24 -16 -35 -21t-16 -5q-7 0 -11 4t-4 14q9 4 27 17t39 31t39 37h6q3 -3 4 -7.5t1 -8.5q0 -8 -2 -16.5t-4 -16.5q-4 -15 -10 -45.5t-13 -66t-14 -68.5l-13 -62
q-6 -28 -12 -47.5t-16 -31.5q25 1 43 -3.5t22 -27.5q-10 1 -21.5 1.5t-21.5 0.5q-25 0 -44 -2t-40 -2z" />
    <glyph glyph-name="ordmasculine" unicode="&#xba;" horiz-adv-x="279" 
d="M163 452q-26 0 -41 17t-15 43q0 28 14.5 63.5t39 68.5t55 54.5t61.5 21.5q13 0 20 -4t10 -10q16 0 22.5 -9.5t6.5 -17.5t-7 -22t-14 -30.5t-7 -35.5q0 -10 6 -13t14 -3q7 0 14 1t13 2q-4 -8 -16 -14t-25 -6q-19 0 -26 13q-22 -52 -55 -85.5t-70 -33.5zM179 482
q16 0 34.5 14.5t36 38.5t29.5 54q-2 9 -3 18.5t-1 21.5q0 24 3.5 39.5t9.5 24.5q-30 0 -54.5 -19.5t-43 -48.5t-28.5 -58.5t-10 -49.5q0 -16 7 -25.5t20 -9.5z" />
    <glyph glyph-name="guillemotright" unicode="&#xbb;" horiz-adv-x="455" 
d="M237 44q-10 0 -17 5.5t-12 10.5q46 18 73 31t47 26.5t42 29.5q-25 13 -54.5 30t-55.5 36.5t-42.5 40t-16.5 40.5q0 5 2 12.5t3 9.5q21 -29 53 -60t68 -57t69 -41q-4 -15 -22 -34.5t-43 -37.5t-50.5 -30t-43.5 -12zM87 44q-10 0 -17 5.5t-12 10.5q46 18 73 31t47 26.5
t42 29.5q-25 13 -54.5 30t-55.5 36.5t-42.5 40t-16.5 40.5q0 5 2 12.5t3 9.5q21 -29 53 -60t68 -57t69 -41q-4 -15 -22 -34.5t-43 -37.5t-50.5 -30t-43.5 -12z" />
    <glyph glyph-name="onequarter" unicode="&#xbc;" horiz-adv-x="642" 
d="M45 -87q23 23 58.5 75t78 122.5t86.5 149.5t84.5 157t72.5 145t50 113q4 10 18 20t32 17.5t34 7.5q-5 -14 -25.5 -55.5t-50.5 -100.5t-64.5 -125.5t-70 -132t-66 -120t-52.5 -89.5q-52 -82 -97 -133t-88 -51zM510 -26q-22 2 -35 8t-13 18q0 3 4.5 30.5t20.5 103.5
q-5 0 -12 0.5t-24 0.5q-32 0 -56.5 -2t-44.5 -7q0 9 3 15t7 10q31 27 71.5 64.5t78 79.5t59.5 82q13 -2 13 -14q0 -7 -13 -51t-33 -148h17q8 0 16.5 1.5t19.5 3.5q-11 -16 -25 -26t-33 -9q-1 -7 -4.5 -27t-7.5 -45t-6.5 -49t-2.5 -39zM405 165q14 2 38 1.5t52 -0.5
q6 29 10.5 49t8.5 35t8 29l-44 -43q-11 -11 -24 -23t-25.5 -24t-23.5 -24zM109 314q-10 0 -22.5 6t-20.5 18q23 0 39.5 0.5t31.5 3.5q12 26 21.5 66.5t17.5 85t15 83.5t14 63q-24 -16 -35 -21t-16 -5q-7 0 -11 4t-4 14q9 4 27 17t39 31t39 37h6q3 -3 4 -7.5t1 -8.5
q0 -8 -2 -16.5t-4 -16.5q-6 -23 -18 -85t-32 -157q-6 -28 -12 -47.5t-16 -31.5q24 1 42.5 -3.5t22.5 -27.5q-10 1 -21.5 1.5t-21.5 0.5q-25 0 -44 -2t-40 -2z" />
    <glyph glyph-name="onehalf" unicode="&#xbd;" horiz-adv-x="698" 
d="M51 -87q23 23 58.5 75t78 122.5t86.5 149.5t84.5 157t72.5 145t50 113q4 10 18 20t32 17.5t34 7.5q-5 -14 -25.5 -55.5t-50.5 -100.5t-64.5 -125.5t-70 -132t-66 -120t-52.5 -89.5q-52 -82 -97 -133t-88 -51zM382 8q7 0 14 3.5t17 9.5q-10 4 -18 5.5t-13 1.5
q-8 0 -11 -3.5t-3 -6.5q0 -4 4.5 -7t9.5 -3zM555 -26q-13 0 -30.5 4.5t-38.5 13t-47 19.5q-31 -21 -56 -21q-16 0 -27 8t-11 21q0 26 41 26q11 0 23.5 -2t27.5 -5q30 27 60 70t50 92t20 93q0 36 -14 52t-35 16q-30 0 -47 -28.5t-17 -69.5q0 -10 1.5 -17.5t5.5 -18.5h-8
q-19 5 -28.5 15t-9.5 31q0 27 14 51t39.5 39t57.5 15q38 0 61 -27t23 -65q0 -44 -20 -91.5t-52.5 -90t-68.5 -72.5q31 -8 56.5 -13t42.5 -5q8 0 18 4t26 14q-7 -30 -20.5 -44t-36.5 -14zM115 314q-10 0 -22.5 6t-20.5 18q23 0 39.5 0.5t31.5 3.5q12 26 21.5 66.5t17.5 85
t15 83.5t14 63q-24 -16 -35 -21t-16 -5q-7 0 -11 4t-4 14q9 4 27 17t39 31t39 37h6q3 -3 4 -7.5t1 -8.5q0 -8 -2 -16.5t-4 -16.5q-6 -23 -18 -85t-32 -157q-6 -28 -12 -47.5t-16 -31.5q24 1 42.5 -3.5t22.5 -27.5q-10 1 -21.5 1.5t-21.5 0.5q-25 0 -44 -2t-40 -2z" />
    <glyph glyph-name="threequarters" unicode="&#xbe;" horiz-adv-x="685" 
d="M88 -87q23 23 58.5 75t78 122.5t86.5 149.5t84.5 157t72.5 145t50 113q4 10 18 20t32 17.5t34 7.5q-5 -14 -25.5 -55.5t-50.5 -100.5t-64.5 -125.5t-70 -132t-66 -120t-52.5 -89.5q-52 -82 -97 -133t-88 -51zM168 314q-31 0 -50 11.5t-27 28.5t-8 33q0 19 11.5 37
t33.5 18h6.5t7.5 -2q-8 -7 -12.5 -20.5t-4.5 -26.5q0 -22 13 -40.5t35 -18.5q28 0 52.5 30t24.5 78q0 29 -13 56t-46 35q26 12 44.5 32.5t29 44.5t10.5 44q0 26 -12.5 36.5t-28.5 10.5q-19 0 -36 -13.5t-17 -38.5q0 -7 2 -15.5t6 -17.5q-3 -6 -10.5 -11t-13.5 -5
q-10 0 -15.5 14t-5.5 27q0 25 14 42t36.5 26t45.5 9q31 0 55.5 -16.5t24.5 -49.5q0 -21 -10.5 -44.5t-29 -42.5t-42.5 -27q39 -13 54.5 -42t15.5 -54q0 -31 -18.5 -60.5t-50 -48.5t-71.5 -19zM553 -26q-22 2 -35 8t-13 18q0 3 4.5 30.5t20.5 103.5q-5 0 -12 0.5t-24 0.5
q-32 0 -56.5 -2t-44.5 -7q0 9 3 15t7 10q31 27 71.5 64.5t78 79.5t59.5 82q13 -2 13 -14q0 -7 -13 -51t-33 -148h17q8 0 16.5 1.5t19.5 3.5q-11 -16 -25 -26t-33 -9q-1 -7 -4.5 -27t-7.5 -45t-6.5 -49t-2.5 -39zM448 165q14 2 38 1.5t52 -0.5q6 29 10.5 49t8.5 35t8 29
l-44 -43q-11 -11 -24 -23t-25.5 -24t-23.5 -24z" />
    <glyph glyph-name="questiondown" unicode="&#xbf;" horiz-adv-x="415" 
d="M85 -280q-62 0 -98.5 30.5t-36.5 88.5q0 40 15.5 70.5t40 57.5t52 54t51 59t36.5 74q10 31 12.5 55.5t12.5 46.5q20 -9 25.5 -17t5.5 -25q0 -43 -19.5 -78t-47.5 -67t-56.5 -65t-48 -71t-19.5 -86q0 -51 22.5 -76.5t56.5 -25.5q35 0 70 25.5t58 69t23 96.5q0 15 -2 26.5
t-5 24.5q38 -5 50 -23.5t12 -45.5q0 -51 -26.5 -96t-74 -73.5t-109.5 -28.5zM182 322q-12 0 -19 5.5t-7 16.5q0 17 16.5 31.5t35.5 14.5q13 0 22.5 -6.5t9.5 -19.5q0 -18 -19 -30t-39 -12z" />
    <glyph glyph-name="Agrave" unicode="&#xc0;" horiz-adv-x="592" 
d="M17 -87q-22 13 -28 27.5t-6 24.5q0 28 20.5 76t55 109.5t76.5 127.5q-37 3 -63 4t-45 1h-35q11 29 38.5 40.5t65.5 11.5q17 0 35 -2t37 -5q51 77 104.5 149.5t100 129t77.5 85.5q29 28 48 28q11 0 24.5 -8.5t28.5 -23.5q-10 -8 -25.5 -42.5t-33 -86.5t-34.5 -114
t-31.5 -126.5t-23 -122.5t-8.5 -102q0 -38 8.5 -59t28.5 -21q26 0 59 36t72 112l10 -10q-30 -80 -76.5 -131t-96.5 -51q-41 0 -59.5 36.5t-18.5 97.5q0 32 4.5 70t12.5 79q-44 7 -80.5 11.5t-67.5 8.5q-47 -87 -91.5 -179t-82.5 -181zM346 288q15 66 35 133.5t42.5 128.5
t42.5 107q-31 -19 -71.5 -67.5t-85.5 -118t-92 -152.5q34 -7 67.5 -15.5t61.5 -15.5zM533 748q-22 29 -49 57t-63 59q2 18 8 24.5t14 6.5q15 0 33 -15t34 -36.5t26.5 -41t10.5 -28.5q0 -4 -3 -13t-11 -13z" />
    <glyph glyph-name="Aacute" unicode="&#xc1;" horiz-adv-x="592" 
d="M17 -87q-22 13 -28 27.5t-6 24.5q0 28 20.5 76t55 109.5t76.5 127.5q-37 3 -63 4t-45 1h-35q11 29 38.5 40.5t65.5 11.5q17 0 35 -2t37 -5q51 77 104.5 149.5t100 129t77.5 85.5q29 28 48 28q11 0 24.5 -8.5t28.5 -23.5q-10 -8 -25.5 -42.5t-33 -86.5t-34.5 -114
t-31.5 -126.5t-23 -122.5t-8.5 -102q0 -38 8.5 -59t28.5 -21q26 0 59 36t72 112l10 -10q-30 -80 -76.5 -131t-96.5 -51q-41 0 -59.5 36.5t-18.5 97.5q0 32 4.5 70t12.5 79q-44 7 -80.5 11.5t-67.5 8.5q-47 -87 -91.5 -179t-82.5 -181zM346 288q15 66 35 133.5t42.5 128.5
t42.5 107q-31 -19 -71.5 -67.5t-85.5 -118t-92 -152.5q34 -7 67.5 -15.5t61.5 -15.5zM535 748q-7 4 -10.5 13t-3.5 13q0 9 10.5 28.5t26.5 41t34 36.5t33 15q8 0 14.5 -6.5t7.5 -24.5q-36 -31 -63 -59t-49 -57z" />
    <glyph glyph-name="Acircumflex" unicode="&#xc2;" horiz-adv-x="592" 
d="M17 -87q-22 13 -28 27.5t-6 24.5q0 28 20.5 76t55 109.5t76.5 127.5q-37 3 -63 4t-45 1h-35q11 29 38.5 40.5t65.5 11.5q17 0 35 -2t37 -5q51 77 104.5 149.5t100 129t77.5 85.5q29 28 48 28q11 0 24.5 -8.5t28.5 -23.5q-10 -8 -25.5 -42.5t-33 -86.5t-34.5 -114
t-31.5 -126.5t-23 -122.5t-8.5 -102q0 -38 8.5 -59t28.5 -21q26 0 59 36t72 112l10 -10q-30 -80 -76.5 -131t-96.5 -51q-41 0 -59.5 36.5t-18.5 97.5q0 32 4.5 70t12.5 79q-44 7 -80.5 11.5t-67.5 8.5q-47 -87 -91.5 -179t-82.5 -181zM346 288q15 66 35 133.5t42.5 128.5
t42.5 107q-31 -19 -71.5 -67.5t-85.5 -118t-92 -152.5q34 -7 67.5 -15.5t61.5 -15.5zM627 744q-14 29 -32 49.5t-42 42.5q-31 -11 -55.5 -24t-47.5 -33q-6 4 -8 9.5t-2 9.5q0 15 13.5 30t33 28.5t38.5 21.5t29 8q12 0 27.5 -11t29.5 -28.5t23.5 -36.5t9.5 -35q0 -10 -4 -18
t-13 -13z" />
    <glyph glyph-name="Atilde" unicode="&#xc3;" horiz-adv-x="592" 
d="M17 -87q-22 13 -28 27.5t-6 24.5q0 28 20.5 76t55 109.5t76.5 127.5q-37 3 -63 4t-45 1h-35q11 29 38.5 40.5t65.5 11.5q17 0 35 -2t37 -5q51 77 104.5 149.5t100 129t77.5 85.5q29 28 48 28q11 0 24.5 -8.5t28.5 -23.5q-10 -8 -25.5 -42.5t-33 -86.5t-34.5 -114
t-31.5 -126.5t-23 -122.5t-8.5 -102q0 -38 8.5 -59t28.5 -21q26 0 59 36t72 112l10 -10q-30 -80 -76.5 -131t-96.5 -51q-41 0 -59.5 36.5t-18.5 97.5q0 32 4.5 70t12.5 79q-44 7 -80.5 11.5t-67.5 8.5q-47 -87 -91.5 -179t-82.5 -181zM346 288q15 66 35 133.5t42.5 128.5
t42.5 107q-31 -19 -71.5 -67.5t-85.5 -118t-92 -152.5q34 -7 67.5 -15.5t61.5 -15.5zM621 761q-27 0 -56 11.5t-58.5 23t-60.5 11.5q-13 0 -27 -3.5t-27 -11.5q20 28 42 39t45 11q28 0 58 -12t63 -24t69 -12q16 0 34 8q-19 -23 -39.5 -32t-42.5 -9z" />
    <glyph glyph-name="Adieresis" unicode="&#xc4;" horiz-adv-x="592" 
d="M17 -87q-22 13 -28 27.5t-6 24.5q0 28 20.5 76t55 109.5t76.5 127.5q-37 3 -63 4t-45 1h-35q11 29 38.5 40.5t65.5 11.5q17 0 35 -2t37 -5q51 77 104.5 149.5t100 129t77.5 85.5q29 28 48 28q11 0 24.5 -8.5t28.5 -23.5q-10 -8 -25.5 -42.5t-33 -86.5t-34.5 -114
t-31.5 -126.5t-23 -122.5t-8.5 -102q0 -38 8.5 -59t28.5 -21q26 0 59 36t72 112l10 -10q-30 -80 -76.5 -131t-96.5 -51q-41 0 -59.5 36.5t-18.5 97.5q0 32 4.5 70t12.5 79q-44 7 -80.5 11.5t-67.5 8.5q-47 -87 -91.5 -179t-82.5 -181zM346 288q15 66 35 133.5t42.5 128.5
t42.5 107q-31 -19 -71.5 -67.5t-85.5 -118t-92 -152.5q34 -7 67.5 -15.5t61.5 -15.5zM609 753q-15 0 -26 7t-11 23q0 19 22 33t44 14q14 0 22 -6t8 -22q0 -17 -18.5 -33t-40.5 -16zM465 774q-15 0 -26 7t-11 23q0 19 22 33t44 14q14 0 22 -6t8 -22q0 -17 -18.5 -33
t-40.5 -16z" />
    <glyph glyph-name="Aring" unicode="&#xc5;" horiz-adv-x="592" 
d="M17 -87q-22 13 -28 27.5t-6 24.5q0 28 20.5 76t55 109.5t76.5 127.5q-37 3 -63 4t-45 1h-35q11 29 38.5 40.5t65.5 11.5q17 0 35 -2t37 -5q51 77 104.5 149.5t100 129t77.5 85.5q29 28 48 28q11 0 24.5 -8.5t28.5 -23.5q-10 -8 -25.5 -42.5t-33 -86.5t-34.5 -114
t-31.5 -126.5t-23 -122.5t-8.5 -102q0 -38 8.5 -59t28.5 -21q26 0 59 36t72 112l10 -10q-30 -80 -76.5 -131t-96.5 -51q-41 0 -59.5 36.5t-18.5 97.5q0 32 4.5 70t12.5 79q-44 7 -80.5 11.5t-67.5 8.5q-47 -87 -91.5 -179t-82.5 -181zM346 288q15 66 35 133.5t42.5 128.5
t42.5 107q-31 -19 -71.5 -67.5t-85.5 -118t-92 -152.5q34 -7 67.5 -15.5t61.5 -15.5zM534 754q-39 0 -55.5 16t-16.5 38q0 24 16.5 50t44 44t61.5 18q41 0 58.5 -15.5t17.5 -38.5q0 -24 -17.5 -50t-46 -44t-62.5 -18zM543 774q20 0 38 14t30 34.5t12 37.5q0 14 -10.5 25.5
t-33.5 11.5q-20 0 -38 -13t-29 -32t-11 -37q0 -13 10 -27t32 -14z" />
    <glyph glyph-name="AE" unicode="&#xc6;" horiz-adv-x="747" 
d="M17 -87q-22 13 -28 27.5t-6 24.5q0 28 20.5 76t55 109.5t76.5 127.5q-37 3 -63 4t-45 1h-35q11 29 38.5 40.5t65.5 11.5q17 0 35 -2t37 -5q51 77 102.5 147.5t97 125.5t80 87t50.5 32q40 0 85 -2.5t88.5 -6t79 -7.5t56.5 -7q-5 -15 -30.5 -22.5t-62 -10.5t-77.5 -3
q-27 0 -53.5 0.5t-49.5 1.5q-17 -34 -40 -101t-44 -147q69 -1 121.5 -9.5t86.5 -13.5q-5 -15 -30.5 -22.5t-62 -10.5t-77.5 -3h-29.5t-23.5 1q-17 -73 -28.5 -143t-11.5 -120q0 -12 1 -22.5t2 -18.5q32 -5 71.5 -8.5l79 -7t72 -7t49.5 -7.5q-5 -15 -30.5 -22.5t-62 -10.5
t-77.5 -3t-80.5 0.5t-68.5 3.5q-15 15 -22 45.5t-7 67.5q0 32 4.5 70t12.5 79q-44 7 -80.5 11.5t-67.5 8.5q-47 -87 -91.5 -179t-82.5 -181zM346 288q15 66 35 133.5t42.5 128.5t42.5 107q-31 -19 -71.5 -67.5t-85.5 -118t-92 -152.5q34 -7 67.5 -15.5t61.5 -15.5z" />
    <glyph glyph-name="Ccedilla" unicode="&#xc7;" horiz-adv-x="534" 
d="M219 -87q-71 0 -114.5 35.5t-63 91.5t-19.5 117q0 79 24 159t65.5 152.5t94.5 129t111.5 89t115.5 32.5q41 0 66.5 -19.5t25.5 -66.5q0 -29 -10 -65.5t-27 -70t-37.5 -55.5t-41.5 -22q-8 0 -16.5 5t-14.5 18q15 17 33.5 42.5t35.5 54t27.5 56t10.5 48.5q0 20 -11.5 32.5
t-37.5 12.5q-43 0 -89.5 -35t-90 -93.5t-78.5 -130.5t-55.5 -147t-20.5 -143q0 -49 14 -93.5t45.5 -72t81.5 -27.5q53 0 105.5 30t96.5 79t70 106l14 -10q-33 -65 -80 -119.5t-105 -87t-125 -32.5zM360 -211q-29 0 -45 11t-16 25q0 8 5.5 16.5t16.5 16.5q5 -24 17 -34.5
t25 -10.5q19 0 38 14.5t32 35t13 37.5q0 8 -3.5 16.5t-13.5 8.5q-13 0 -31 -10t-33 -20.5t-21 -10.5q-7 0 -10.5 6.5t-3.5 11.5q0 2 8.5 14t20.5 28.5t24.5 32t21.5 23.5h13l-53 -81q11 8 27 16t40 8q23 0 34 -10.5t11 -31.5q0 -28 -16.5 -54t-43 -42t-57.5 -16z" />
    <glyph glyph-name="Egrave" unicode="&#xc8;" horiz-adv-x="498" 
d="M180 -87q-60 0 -104 25t-67.5 66.5t-23.5 90.5q0 46 20 90t55.5 80.5t82.5 60t101 28.5q-39 32 -57.5 74t-18.5 84q0 53 26.5 100.5t73.5 77t106 29.5q56 0 85 -28t29 -80q0 -37 -13 -72t-31.5 -57t-35.5 -22q-11 0 -21 9.5t-16 22.5q35 31 59.5 65.5t24.5 73.5
q0 31 -18 48t-53 17q-46 0 -78 -27.5t-48.5 -73t-16.5 -100.5q0 -36 11 -78t47 -73q-67 -11 -116.5 -51t-77 -94t-27.5 -107q0 -33 12.5 -66.5t40.5 -56t75 -22.5q53 0 105.5 30t96.5 79t70 106l14 -10q-35 -68 -82 -122t-105 -85.5t-125 -31.5zM420 748q-22 29 -49 57
t-63 59q2 18 8 24.5t14 6.5q15 0 33 -15t34 -36.5t26.5 -41t10.5 -28.5q0 -4 -3 -13t-11 -13z" />
    <glyph glyph-name="Eacute" unicode="&#xc9;" horiz-adv-x="498" 
d="M180 -87q-60 0 -104 25t-67.5 66.5t-23.5 90.5q0 46 20 90t55.5 80.5t82.5 60t101 28.5q-39 32 -57.5 74t-18.5 84q0 53 26.5 100.5t73.5 77t106 29.5q56 0 85 -28t29 -80q0 -37 -13 -72t-31.5 -57t-35.5 -22q-11 0 -21 9.5t-16 22.5q35 31 59.5 65.5t24.5 73.5
q0 31 -18 48t-53 17q-46 0 -78 -27.5t-48.5 -73t-16.5 -100.5q0 -36 11 -78t47 -73q-67 -11 -116.5 -51t-77 -94t-27.5 -107q0 -33 12.5 -66.5t40.5 -56t75 -22.5q53 0 105.5 30t96.5 79t70 106l14 -10q-35 -68 -82 -122t-105 -85.5t-125 -31.5zM422 748q-7 4 -10.5 13
t-3.5 13q0 9 10.5 28.5t26.5 41t34 36.5t33 15q8 0 14.5 -6.5t7.5 -24.5q-36 -31 -63 -59t-49 -57z" />
    <glyph glyph-name="Ecircumflex" unicode="&#xca;" horiz-adv-x="498" 
d="M180 -87q-60 0 -104 25t-67.5 66.5t-23.5 90.5q0 46 20 90t55.5 80.5t82.5 60t101 28.5q-39 32 -57.5 74t-18.5 84q0 53 26.5 100.5t73.5 77t106 29.5q56 0 85 -28t29 -80q0 -37 -13 -72t-31.5 -57t-35.5 -22q-11 0 -21 9.5t-16 22.5q35 31 59.5 65.5t24.5 73.5
q0 31 -18 48t-53 17q-46 0 -78 -27.5t-48.5 -73t-16.5 -100.5q0 -36 11 -78t47 -73q-67 -11 -116.5 -51t-77 -94t-27.5 -107q0 -33 12.5 -66.5t40.5 -56t75 -22.5q53 0 105.5 30t96.5 79t70 106l14 -10q-35 -68 -82 -122t-105 -85.5t-125 -31.5zM514 744q-14 29 -32 49.5
t-42 42.5q-31 -11 -55.5 -24t-47.5 -33q-6 4 -8 9.5t-2 9.5q0 15 13.5 30t33 28.5t38.5 21.5t29 8q12 0 27.5 -11t29.5 -28.5t23.5 -36.5t9.5 -35q0 -10 -4 -18t-13 -13z" />
    <glyph glyph-name="Edieresis" unicode="&#xcb;" horiz-adv-x="498" 
d="M180 -87q-60 0 -104 25t-67.5 66.5t-23.5 90.5q0 46 20 90t55.5 80.5t82.5 60t101 28.5q-39 32 -57.5 74t-18.5 84q0 53 26.5 100.5t73.5 77t106 29.5q56 0 85 -28t29 -80q0 -37 -13 -72t-31.5 -57t-35.5 -22q-11 0 -21 9.5t-16 22.5q35 31 59.5 65.5t24.5 73.5
q0 31 -18 48t-53 17q-46 0 -78 -27.5t-48.5 -73t-16.5 -100.5q0 -36 11 -78t47 -73q-67 -11 -116.5 -51t-77 -94t-27.5 -107q0 -33 12.5 -66.5t40.5 -56t75 -22.5q53 0 105.5 30t96.5 79t70 106l14 -10q-35 -68 -82 -122t-105 -85.5t-125 -31.5zM496 753q-15 0 -26 7t-11 23
q0 19 22 33t44 14q14 0 22 -6t8 -22q0 -17 -18.5 -33t-40.5 -16zM352 774q-15 0 -26 7t-11 23q0 19 22 33t44 14q14 0 22 -6t8 -22q0 -17 -18.5 -33t-40.5 -16z" />
    <glyph glyph-name="Igrave" unicode="&#xcc;" horiz-adv-x="459" 
d="M-38 -88q4 37 26.5 53.5t58.5 21.5t78 5q18 39 36 95.5t34.5 121.5t32.5 132.5t30 129.5t26.5 111.5t22.5 78.5q-52 -1 -88.5 -3t-68 -6t-68.5 -11q7 38 55 57.5t149 19.5q50 0 101.5 -4t94.5 -8.5t66 -8.5q-24 -24 -50.5 -29.5t-46.5 -5.5h-58.5t-50.5 -1
q-4 -21 -12 -65.5t-19 -102t-23 -119t-23.5 -117t-21.5 -95.5q-16 -64 -36 -108t-48 -63q52 -3 111 -10.5t106 -8.5q-29 -29 -60.5 -36t-52.5 -7q-40 0 -78.5 -0.5t-76 -1.5t-74 -4.5t-72.5 -10.5zM346 748q-22 29 -49 57t-63 59q2 18 8 24.5t14 6.5q15 0 33 -15t34 -36.5
t26.5 -41t10.5 -28.5q0 -4 -3 -13t-11 -13z" />
    <glyph glyph-name="Iacute" unicode="&#xcd;" horiz-adv-x="459" 
d="M-38 -88q4 37 26.5 53.5t58.5 21.5t78 5q18 39 36 95.5t34.5 121.5t32.5 132.5t30 129.5t26.5 111.5t22.5 78.5q-52 -1 -88.5 -3t-68 -6t-68.5 -11q7 38 55 57.5t149 19.5q50 0 101.5 -4t94.5 -8.5t66 -8.5q-24 -24 -50.5 -29.5t-46.5 -5.5h-58.5t-50.5 -1
q-4 -21 -12 -65.5t-19 -102t-23 -119t-23.5 -117t-21.5 -95.5q-16 -64 -36 -108t-48 -63q52 -3 111 -10.5t106 -8.5q-29 -29 -60.5 -36t-52.5 -7q-40 0 -78.5 -0.5t-76 -1.5t-74 -4.5t-72.5 -10.5zM348 748q-7 4 -10.5 13t-3.5 13q0 9 10.5 28.5t26.5 41t34 36.5t33 15
q8 0 14.5 -6.5t7.5 -24.5q-36 -31 -63 -59t-49 -57z" />
    <glyph glyph-name="Icircumflex" unicode="&#xce;" horiz-adv-x="459" 
d="M-38 -88q4 37 26.5 53.5t58.5 21.5t78 5q18 39 36 95.5t34.5 121.5t32.5 132.5t30 129.5t26.5 111.5t22.5 78.5q-52 -1 -88.5 -3t-68 -6t-68.5 -11q7 38 55 57.5t149 19.5q50 0 101.5 -4t94.5 -8.5t66 -8.5q-24 -24 -50.5 -29.5t-46.5 -5.5h-58.5t-50.5 -1
q-4 -21 -12 -65.5t-19 -102t-23 -119t-23.5 -117t-21.5 -95.5q-16 -64 -36 -108t-48 -63q52 -3 111 -10.5t106 -8.5q-29 -29 -60.5 -36t-52.5 -7q-40 0 -78.5 -0.5t-76 -1.5t-74 -4.5t-72.5 -10.5zM440 744q-14 29 -32 49.5t-42 42.5q-31 -11 -55.5 -24t-47.5 -33
q-6 4 -8 9.5t-2 9.5q0 15 13.5 30t33 28.5t38.5 21.5t29 8q12 0 27.5 -11t29.5 -28.5t23.5 -36.5t9.5 -35q0 -10 -4 -18t-13 -13z" />
    <glyph glyph-name="Idieresis" unicode="&#xcf;" horiz-adv-x="459" 
d="M-38 -88q4 37 26.5 53.5t58.5 21.5t78 5q18 39 36 95.5t34.5 121.5t32.5 132.5t30 129.5t26.5 111.5t22.5 78.5q-52 -1 -88.5 -3t-68 -6t-68.5 -11q7 38 55 57.5t149 19.5q50 0 101.5 -4t94.5 -8.5t66 -8.5q-24 -24 -50.5 -29.5t-46.5 -5.5h-58.5t-50.5 -1
q-4 -21 -12 -65.5t-19 -102t-23 -119t-23.5 -117t-21.5 -95.5q-16 -64 -36 -108t-48 -63q52 -3 111 -10.5t106 -8.5q-29 -29 -60.5 -36t-52.5 -7q-40 0 -78.5 -0.5t-76 -1.5t-74 -4.5t-72.5 -10.5zM422 753q-15 0 -26 7t-11 23q0 19 22 33t44 14q14 0 22 -6t8 -22
q0 -17 -18.5 -33t-40.5 -16zM278 774q-15 0 -26 7t-11 23q0 19 22 33t44 14q14 0 22 -6t8 -22q0 -17 -18.5 -33t-40.5 -16z" />
    <glyph glyph-name="Eth" unicode="&#xd0;" horiz-adv-x="654" 
d="M164 -87q-31 0 -59 8.5t-48 36.5q14 70 38.5 157t49.5 169q-28 0 -53 -2.5t-60 -7.5q8 23 42 33.5t83 13.5q23 74 43 132.5t30 84.5q3 8 10 23.5t17 31.5t23 27.5t28 11.5q14 0 28 -10q-28 -64 -56.5 -141t-54.5 -158q52 0 97 -3.5t67 -5.5q-25 -18 -53.5 -23.5
t-49.5 -5.5h-73q-29 -92 -53 -180.5t-40 -161.5q14 -2 23.5 -3t19.5 -1q64 0 123.5 29.5t111 81t90.5 118t60.5 141t21.5 148.5q0 122 -57 179t-148 57q-65 0 -117 -26t-82 -70t-30 -99q0 -12 1.5 -21t3.5 -16q-33 0 -46.5 16.5t-13.5 39.5q0 35 24.5 70.5t68 65.5
t100.5 48.5t121 18.5q90 0 144.5 -36.5t79.5 -98.5t25 -139q0 -87 -27 -166.5t-74.5 -146t-108.5 -116t-130.5 -77t-139.5 -27.5z" />
    <glyph glyph-name="Ntilde" unicode="&#xd1;" horiz-adv-x="640" 
d="M46 -87q12 48 30 107t43.5 140.5t59.5 193.5t79 265q2 5 4.5 17.5t2.5 23.5q0 10 -3.5 16.5t-11.5 6.5q-24 0 -45.5 -18.5t-37 -46.5t-24.5 -58.5t-9 -54.5q0 -20 5 -35q-33 0 -46.5 16.5t-13.5 40.5q0 34 20 68t51 62.5t65.5 45.5t63.5 17q30 0 49.5 -25.5t31.5 -70
t20 -100.5t15 -116q6 -50 12 -99.5t12 -94t11 -81.5t9 -61q7 47 20.5 106.5t30 124t34.5 126t33.5 113t27 86t15.5 43.5q5 13 23 31t40 18q-17 -46 -38.5 -112.5t-43.5 -144t-43 -158t-37.5 -155.5t-26 -136.5t-10.5 -100.5q-31 0 -50.5 18t-27.5 63q-5 26 -12.5 71.5
t-16 101.5t-17.5 116.5t-17.5 118.5t-15.5 106.5t-12 80.5q-48 -173 -82 -292.5t-57.5 -195t-41.5 -116.5t-34 -56.5t-34 -15.5zM563 761q-27 0 -56 11.5t-58.5 23t-60.5 11.5q-13 0 -27 -3.5t-27 -11.5q20 28 42 39t45 11q28 0 58 -12t63 -24t69 -12q16 0 34 8
q-19 -23 -39.5 -32t-42.5 -9z" />
    <glyph glyph-name="Ograve" unicode="&#xd2;" horiz-adv-x="623" 
d="M213 -87q-57 0 -100 30.5t-67.5 86.5t-24.5 131q0 77 24.5 156t66.5 151t95 128.5t112 89.5t116 33q19 0 34 -3t26 -9h-9.5h-2.5q-52 0 -105 -34.5t-101 -93t-86 -131t-60 -150.5t-22 -151q0 -53 13.5 -99t43.5 -73.5t77 -27.5q56 0 105 34.5t88.5 93.5t68 131.5t44 150
t15.5 148.5q0 28 -4 60t-14 55t-27 23q-18 0 -39 -22.5t-40.5 -56.5t-34.5 -70.5t-21 -64.5q-25 6 -36.5 19.5t-11.5 29.5q0 27 18.5 59.5t47 63t59.5 50t56 19.5q26 0 42.5 -19t26 -48.5t13 -63t3.5 -62.5q0 -109 -24.5 -198.5t-66 -157.5t-92.5 -114.5t-104.5 -70
t-101.5 -23.5zM512 748q-22 29 -49 57t-63 59q2 18 8 24.5t14 6.5q15 0 33 -15t34 -36.5t26.5 -41t10.5 -28.5q0 -4 -3 -13t-11 -13z" />
    <glyph glyph-name="Oacute" unicode="&#xd3;" horiz-adv-x="623" 
d="M213 -87q-57 0 -100 30.5t-67.5 86.5t-24.5 131q0 77 24.5 156t66.5 151t95 128.5t112 89.5t116 33q19 0 34 -3t26 -9h-9.5h-2.5q-52 0 -105 -34.5t-101 -93t-86 -131t-60 -150.5t-22 -151q0 -53 13.5 -99t43.5 -73.5t77 -27.5q56 0 105 34.5t88.5 93.5t68 131.5t44 150
t15.5 148.5q0 28 -4 60t-14 55t-27 23q-18 0 -39 -22.5t-40.5 -56.5t-34.5 -70.5t-21 -64.5q-25 6 -36.5 19.5t-11.5 29.5q0 27 18.5 59.5t47 63t59.5 50t56 19.5q26 0 42.5 -19t26 -48.5t13 -63t3.5 -62.5q0 -109 -24.5 -198.5t-66 -157.5t-92.5 -114.5t-104.5 -70
t-101.5 -23.5zM514 748q-7 4 -10.5 13t-3.5 13q0 9 10.5 28.5t26.5 41t34 36.5t33 15q8 0 14.5 -6.5t7.5 -24.5q-36 -31 -63 -59t-49 -57z" />
    <glyph glyph-name="Ocircumflex" unicode="&#xd4;" horiz-adv-x="623" 
d="M213 -87q-57 0 -100 30.5t-67.5 86.5t-24.5 131q0 77 24.5 156t66.5 151t95 128.5t112 89.5t116 33q19 0 34 -3t26 -9h-9.5h-2.5q-52 0 -105 -34.5t-101 -93t-86 -131t-60 -150.5t-22 -151q0 -53 13.5 -99t43.5 -73.5t77 -27.5q56 0 105 34.5t88.5 93.5t68 131.5t44 150
t15.5 148.5q0 28 -4 60t-14 55t-27 23q-18 0 -39 -22.5t-40.5 -56.5t-34.5 -70.5t-21 -64.5q-25 6 -36.5 19.5t-11.5 29.5q0 27 18.5 59.5t47 63t59.5 50t56 19.5q26 0 42.5 -19t26 -48.5t13 -63t3.5 -62.5q0 -109 -24.5 -198.5t-66 -157.5t-92.5 -114.5t-104.5 -70
t-101.5 -23.5zM606 744q-14 29 -32 49.5t-42 42.5q-31 -11 -55.5 -24t-47.5 -33q-6 4 -8 9.5t-2 9.5q0 15 13.5 30t33 28.5t38.5 21.5t29 8q12 0 27.5 -11t29.5 -28.5t23.5 -36.5t9.5 -35q0 -10 -4 -18t-13 -13z" />
    <glyph glyph-name="Otilde" unicode="&#xd5;" horiz-adv-x="623" 
d="M213 -87q-57 0 -100 30.5t-67.5 86.5t-24.5 131q0 77 24.5 156t66.5 151t95 128.5t112 89.5t116 33q19 0 34 -3t26 -9h-9.5h-2.5q-52 0 -105 -34.5t-101 -93t-86 -131t-60 -150.5t-22 -151q0 -53 13.5 -99t43.5 -73.5t77 -27.5q56 0 105 34.5t88.5 93.5t68 131.5t44 150
t15.5 148.5q0 28 -4 60t-14 55t-27 23q-18 0 -39 -22.5t-40.5 -56.5t-34.5 -70.5t-21 -64.5q-25 6 -36.5 19.5t-11.5 29.5q0 27 18.5 59.5t47 63t59.5 50t56 19.5q26 0 42.5 -19t26 -48.5t13 -63t3.5 -62.5q0 -109 -24.5 -198.5t-66 -157.5t-92.5 -114.5t-104.5 -70
t-101.5 -23.5zM600 761q-27 0 -56 11.5t-58.5 23t-60.5 11.5q-13 0 -27 -3.5t-27 -11.5q20 28 42 39t45 11q28 0 58 -12t63 -24t69 -12q16 0 34 8q-19 -23 -39.5 -32t-42.5 -9z" />
    <glyph glyph-name="Odieresis" unicode="&#xd6;" horiz-adv-x="623" 
d="M213 -87q-57 0 -100 30.5t-67.5 86.5t-24.5 131q0 77 24.5 156t66.5 151t95 128.5t112 89.5t116 33q19 0 34 -3t26 -9h-9.5h-2.5q-52 0 -105 -34.5t-101 -93t-86 -131t-60 -150.5t-22 -151q0 -53 13.5 -99t43.5 -73.5t77 -27.5q56 0 105 34.5t88.5 93.5t68 131.5t44 150
t15.5 148.5q0 28 -4 60t-14 55t-27 23q-18 0 -39 -22.5t-40.5 -56.5t-34.5 -70.5t-21 -64.5q-25 6 -36.5 19.5t-11.5 29.5q0 27 18.5 59.5t47 63t59.5 50t56 19.5q26 0 42.5 -19t26 -48.5t13 -63t3.5 -62.5q0 -109 -24.5 -198.5t-66 -157.5t-92.5 -114.5t-104.5 -70
t-101.5 -23.5zM588 753q-15 0 -26 7t-11 23q0 19 22 33t44 14q14 0 22 -6t8 -22q0 -17 -18.5 -33t-40.5 -16zM444 774q-15 0 -26 7t-11 23q0 19 22 33t44 14q14 0 22 -6t8 -22q0 -17 -18.5 -33t-40.5 -16z" />
    <glyph glyph-name="multiply" unicode="&#xd7;" horiz-adv-x="377" 
d="M284 20q-17 14 -52 46.5t-81 72.5q-21 -21 -36.5 -37.5t-30 -34t-32.5 -42.5q-4 8 -4 18q0 25 21.5 56t55.5 68q-31 33 -50 62.5t-19 52.5q0 5 1 9.5t3 8.5q25 -34 44 -56t47 -51q38 38 73 68.5t52 43.5q-4 -30 -20.5 -54t-31.5 -39l-45 -46l53 -53q14 -15 30.5 -39.5
t21.5 -53.5z" />
    <glyph glyph-name="Oslash" unicode="&#xd8;" horiz-adv-x="623" 
d="M46 -101q-4 0 -8 0.5t-8 1.5q12 8 27.5 23.5t34.5 36.5q-34 32 -52.5 83t-18.5 117q0 77 24.5 156t66.5 151t95 128.5t112 89.5t116 33q19 0 34 -3t26 -9h-11q-52 0 -105 -34.5t-101.5 -92.5t-86.5 -131t-60 -151t-22 -151q0 -38 6.5 -73t21.5 -62q40 49 84.5 110.5
t91 128.5t90 132.5t81.5 123.5t66 101q-5 15 -12.5 25t-18.5 10q-18 0 -39 -22.5t-40.5 -56.5t-34.5 -70.5t-21 -64.5q-25 6 -36.5 19.5t-11.5 29.5q0 27 18.5 59.5t47 63t59.5 50t56 19.5q17 0 30 -9t22 -23q11 13 34 23t45 10h8.5t7.5 -1q-7 -10 -25 -37.5t-45 -66.5
q5 -22 6.5 -45.5t1.5 -43.5q0 -109 -24.5 -198.5t-66 -157.5t-92.5 -114.5t-104.5 -70t-101.5 -23.5q-22 0 -42.5 5t-38.5 14q-23 -16 -45 -24.5t-41 -8.5zM243 -53q56 0 105 35t88.5 94t68 133.5t44 155t15.5 156.5q-32 -47 -69 -101.5t-75 -110t-72.5 -106t-63 -91.5
t-45.5 -66q-16 -23 -32 -42.5t-33 -35.5q14 -10 31 -15.5t38 -5.5z" />
    <glyph glyph-name="Ugrave" unicode="&#xd9;" horiz-adv-x="706" 
d="M541 -99q-37 0 -59 31.5t-22 74.5q0 14 2.5 37.5t6.5 53.5q-37 -82 -90 -133.5t-126 -51.5q-64 0 -97 39t-33 97q0 39 12.5 92.5t31.5 115t37.5 124.5t31 120.5t12.5 102.5q0 88 -56 88q-27 0 -47 -17.5t-33 -44.5t-19.5 -57t-6.5 -54q0 -14 2 -27t6 -22
q-38 0 -53.5 20.5t-15.5 48.5q0 31 15 63t41.5 58.5t61 43t73.5 16.5q55 0 79 -33t24 -88q0 -37 -9 -81.5t-23 -93t-30 -97.5q-23 -73 -42 -141.5t-19 -120.5q0 -46 19.5 -79t64.5 -33q41 0 75 26.5t60 68.5t44 89t28 87q14 60 31 127.5t35.5 133t37 118.5t36.5 85t34 32
q8 0 22 -8.5t28 -23.5q-8 -6 -25 -42.5t-38 -93.5t-42 -125.5t-39 -139t-29 -134.5t-11 -111q0 -69 18.5 -93t61.5 -24q-19 -13 -35.5 -18.5t-30.5 -5.5zM477 748q-22 29 -49 57t-63 59q2 18 8 24.5t14 6.5q15 0 33 -15t34 -36.5t26.5 -41t10.5 -28.5q0 -4 -3 -13t-11 -13z
" />
    <glyph glyph-name="Uacute" unicode="&#xda;" horiz-adv-x="706" 
d="M541 -99q-37 0 -59 31.5t-22 74.5q0 14 2.5 37.5t6.5 53.5q-37 -82 -90 -133.5t-126 -51.5q-64 0 -97 39t-33 97q0 39 12.5 92.5t31.5 115t37.5 124.5t31 120.5t12.5 102.5q0 88 -56 88q-27 0 -47 -17.5t-33 -44.5t-19.5 -57t-6.5 -54q0 -14 2 -27t6 -22
q-38 0 -53.5 20.5t-15.5 48.5q0 31 15 63t41.5 58.5t61 43t73.5 16.5q55 0 79 -33t24 -88q0 -37 -9 -81.5t-23 -93t-30 -97.5q-23 -73 -42 -141.5t-19 -120.5q0 -46 19.5 -79t64.5 -33q41 0 75 26.5t60 68.5t44 89t28 87q14 60 31 127.5t35.5 133t37 118.5t36.5 85t34 32
q8 0 22 -8.5t28 -23.5q-8 -6 -25 -42.5t-38 -93.5t-42 -125.5t-39 -139t-29 -134.5t-11 -111q0 -69 18.5 -93t61.5 -24q-19 -13 -35.5 -18.5t-30.5 -5.5zM479 748q-7 4 -10.5 13t-3.5 13q0 9 10.5 28.5t26.5 41t34 36.5t33 15q8 0 14.5 -6.5t7.5 -24.5q-36 -31 -63 -59
t-49 -57z" />
    <glyph glyph-name="Ucircumflex" unicode="&#xdb;" horiz-adv-x="706" 
d="M541 -99q-37 0 -59 31.5t-22 74.5q0 14 2.5 37.5t6.5 53.5q-37 -82 -90 -133.5t-126 -51.5q-64 0 -97 39t-33 97q0 39 12.5 92.5t31.5 115t37.5 124.5t31 120.5t12.5 102.5q0 88 -56 88q-27 0 -47 -17.5t-33 -44.5t-19.5 -57t-6.5 -54q0 -14 2 -27t6 -22
q-38 0 -53.5 20.5t-15.5 48.5q0 31 15 63t41.5 58.5t61 43t73.5 16.5q55 0 79 -33t24 -88q0 -37 -9 -81.5t-23 -93t-30 -97.5q-23 -73 -42 -141.5t-19 -120.5q0 -46 19.5 -79t64.5 -33q41 0 75 26.5t60 68.5t44 89t28 87q14 60 31 127.5t35.5 133t37 118.5t36.5 85t34 32
q8 0 22 -8.5t28 -23.5q-8 -6 -25 -42.5t-38 -93.5t-42 -125.5t-39 -139t-29 -134.5t-11 -111q0 -69 18.5 -93t61.5 -24q-19 -13 -35.5 -18.5t-30.5 -5.5zM571 744q-14 29 -32 49.5t-42 42.5q-31 -11 -55.5 -24t-47.5 -33q-6 4 -8 9.5t-2 9.5q0 15 13.5 30t33 28.5t38.5 21.5
t29 8q12 0 27.5 -11t29.5 -28.5t23.5 -36.5t9.5 -35q0 -10 -4 -18t-13 -13z" />
    <glyph glyph-name="Udieresis" unicode="&#xdc;" horiz-adv-x="706" 
d="M541 -99q-37 0 -59 31.5t-22 74.5q0 14 2.5 37.5t6.5 53.5q-37 -82 -90 -133.5t-126 -51.5q-64 0 -97 39t-33 97q0 39 12.5 92.5t31.5 115t37.5 124.5t31 120.5t12.5 102.5q0 88 -56 88q-27 0 -47 -17.5t-33 -44.5t-19.5 -57t-6.5 -54q0 -14 2 -27t6 -22
q-38 0 -53.5 20.5t-15.5 48.5q0 31 15 63t41.5 58.5t61 43t73.5 16.5q55 0 79 -33t24 -88q0 -37 -9 -81.5t-23 -93t-30 -97.5q-23 -73 -42 -141.5t-19 -120.5q0 -46 19.5 -79t64.5 -33q41 0 75 26.5t60 68.5t44 89t28 87q14 60 31 127.5t35.5 133t37 118.5t36.5 85t34 32
q8 0 22 -8.5t28 -23.5q-8 -6 -25 -42.5t-38 -93.5t-42 -125.5t-39 -139t-29 -134.5t-11 -111q0 -69 18.5 -93t61.5 -24q-19 -13 -35.5 -18.5t-30.5 -5.5zM553 753q-15 0 -26 7t-11 23q0 19 22 33t44 14q14 0 22 -6t8 -22q0 -17 -18.5 -33t-40.5 -16zM409 774q-15 0 -26 7
t-11 23q0 19 22 33t44 14q14 0 22 -6t8 -22q0 -17 -18.5 -33t-40.5 -16z" />
    <glyph glyph-name="Yacute" unicode="&#xdd;" horiz-adv-x="666" 
d="M255 -187q-57 0 -97.5 24t-40.5 70q0 26 14.5 45.5t45.5 29.5q-4 -15 -6 -29t-2 -25q0 -41 22 -65.5t65 -24.5q40 0 71.5 20t54.5 52.5t39 70.5t27 75t17 65q8 34 18.5 88.5t23.5 116.5q-40 -76 -92.5 -125.5t-124.5 -49.5q-59 0 -84 33.5t-25 85.5q0 39 10.5 85
t23.5 92.5t23.5 89.5t10.5 77q0 32 -12.5 55t-44.5 23q-28 0 -48 -17.5t-33.5 -44.5t-20 -56.5t-6.5 -54.5q0 -14 2 -27t6 -22q-38 0 -53.5 20.5t-15.5 48.5q0 31 15 63t41.5 58.5t61 43t73.5 16.5q38 0 61 -15.5t33 -38.5t10 -47q0 -28 -10.5 -69.5t-23.5 -87.5
q-13 -45 -23 -90t-10 -85q0 -43 16.5 -69.5t53.5 -26.5q35 0 66 22t58 59t49 81t39 87q13 54 27.5 104.5t29.5 90t31 62.5t32 23q10 0 26 -8.5t30 -23.5q-21 -33 -36 -62.5t-28.5 -64.5t-27.5 -82.5t-31.5 -116.5t-41.5 -168q-13 -51 -28 -105t-36.5 -103t-51.5 -88
t-72.5 -62t-100.5 -23zM466 748q-7 4 -10.5 13t-3.5 13q0 9 10.5 28.5t26.5 41t34 36.5t33 15q8 0 14.5 -6.5t7.5 -24.5q-36 -31 -63 -59t-49 -57z" />
    <glyph glyph-name="Thorn" unicode="&#xde;" horiz-adv-x="508" 
d="M100 -87q-25 0 -47 14t-22 36q0 11 5 26.5t9 28.5q43 134 88 268.5t99 268.5q-41 -6 -73 -20t-51.5 -25.5t-25.5 -11.5q-4 0 -11.5 4.5t-13.5 11t-6 11.5q34 14 84.5 31.5t105.5 21.5q8 18 16.5 41t19 45.5t23.5 37t30 14.5q6 0 12.5 -1.5t13.5 -6.5q-14 -28 -28 -60.5
t-28 -68.5q42 -4 82.5 -17.5t73.5 -37.5t53 -58.5t20 -78.5q0 -58 -28 -98t-72 -65.5t-94 -40t-94.5 -20.5t-72.5 -7q-19 -66 -35.5 -128t-32.5 -115zM173 175q52 6 103.5 22.5t93.5 44.5t67 68.5t25 93.5q0 52 -23.5 85.5t-62.5 50t-84 18.5q-31 -86 -61 -185.5t-58 -197.5
z" />
    <glyph glyph-name="germandbls" unicode="&#xdf;" horiz-adv-x="427" 
d="M-43 -115q11 14 20 57t18 105t20.5 135t27 149t36 145.5t49 124.5t66 87t86.5 32q45 0 75 -29t30 -81q0 -56 -27.5 -99.5t-67 -77.5t-76.5 -62q43 -17 76 -54.5t52 -83.5t19 -86t-16 -81t-43.5 -75.5t-60.5 -56t-68 -21.5q-23 0 -39 19t-23.5 49.5t-7.5 62.5q0 30 7 57.5
t20.5 44.5t33.5 17h8t8 -1q-10 -5 -18.5 -28t-13 -54t-4.5 -61q0 -35 7 -60.5t23 -25.5q20 0 40 20.5t37.5 54t28 73.5t10.5 80q0 55 -21.5 106.5t-56.5 78.5q-9 7 -14.5 13t-5.5 13q0 8 6.5 16t17.5 18q28 26 54 56t43.5 66.5t17.5 82.5q0 20 -5 39t-17.5 31t-36.5 12
q-37 0 -64.5 -32t-48 -87t-35.5 -124t-28 -143.5t-26 -145.5t-28.5 -130.5t-36 -98t-48.5 -47.5z" />
    <glyph glyph-name="agrave" unicode="&#xe0;" horiz-adv-x="436" 
d="M48 -47q-31 0 -52.5 20.5t-21.5 62.5q0 36 16 77.5t44 82t63.5 74t75 53.5t78.5 20t65 -20.5t26 -54.5q0 -25 -13.5 -34t-35.5 -9q2 8 3.5 17.5t1.5 17.5q0 23 -11 39.5t-38 16.5q-28 0 -57 -19.5t-56 -52t-48 -70.5t-33 -75t-12 -66q0 -39 27 -39q23 0 50 21.5t55.5 55
t54.5 69.5t46 66q4 6 5 6q6 -1 15.5 -4t16.5 -8t7 -13q0 -9 -9 -24.5t-20 -35.5t-20 -40.5t-9 -38.5q0 -15 8 -29.5t26 -14.5q27 0 71 39.5t89 118.5l10 -10q-21 -54 -54 -95t-70.5 -64t-73.5 -23q-37 0 -54.5 22t-17.5 48q0 6 1 13.5t2 15.5q-43 -58 -78.5 -87t-72.5 -29z
M325 410q-22 29 -49 57t-63 59q2 18 8 24.5t14 6.5q15 0 33 -15t34 -36.5t26.5 -41t10.5 -28.5q0 -4 -3 -13t-11 -13z" />
    <glyph glyph-name="aacute" unicode="&#xe1;" horiz-adv-x="436" 
d="M48 -47q-31 0 -52.5 20.5t-21.5 62.5q0 36 16 77.5t44 82t63.5 74t75 53.5t78.5 20t65 -20.5t26 -54.5q0 -25 -13.5 -34t-35.5 -9q2 8 3.5 17.5t1.5 17.5q0 23 -11 39.5t-38 16.5q-28 0 -57 -19.5t-56 -52t-48 -70.5t-33 -75t-12 -66q0 -39 27 -39q23 0 50 21.5t55.5 55
t54.5 69.5t46 66q4 6 5 6q6 -1 15.5 -4t16.5 -8t7 -13q0 -9 -9 -24.5t-20 -35.5t-20 -40.5t-9 -38.5q0 -15 8 -29.5t26 -14.5q27 0 71 39.5t89 118.5l10 -10q-21 -54 -54 -95t-70.5 -64t-73.5 -23q-37 0 -54.5 22t-17.5 48q0 6 1 13.5t2 15.5q-43 -58 -78.5 -87t-72.5 -29z
M294 410q-7 4 -10.5 13t-3.5 13q0 9 10.5 28.5t26.5 41t34 36.5t33 15q8 0 14.5 -6.5t7.5 -24.5q-36 -31 -63 -59t-49 -57z" />
    <glyph glyph-name="acircumflex" unicode="&#xe2;" horiz-adv-x="436" 
d="M48 -47q-31 0 -52.5 20.5t-21.5 62.5q0 36 16 77.5t44 82t63.5 74t75 53.5t78.5 20t65 -20.5t26 -54.5q0 -25 -13.5 -34t-35.5 -9q2 8 3.5 17.5t1.5 17.5q0 23 -11 39.5t-38 16.5q-28 0 -57 -19.5t-56 -52t-48 -70.5t-33 -75t-12 -66q0 -39 27 -39q23 0 50 21.5t55.5 55
t54.5 69.5t46 66q4 6 5 6q6 -1 15.5 -4t16.5 -8t7 -13q0 -9 -9 -24.5t-20 -35.5t-20 -40.5t-9 -38.5q0 -15 8 -29.5t26 -14.5q27 0 71 39.5t89 118.5l10 -10q-21 -54 -54 -95t-70.5 -64t-73.5 -23q-37 0 -54.5 22t-17.5 48q0 6 1 13.5t2 15.5q-43 -58 -78.5 -87t-72.5 -29z
M391 402q-14 29 -32 49.5t-42 42.5q-31 -11 -55.5 -24t-47.5 -33q-6 4 -8 9.5t-2 9.5q0 15 13.5 30t33 28.5t38.5 21.5t29 8q12 0 27.5 -11t29.5 -28.5t23.5 -36.5t9.5 -35q0 -10 -4 -18t-13 -13z" />
    <glyph glyph-name="atilde" unicode="&#xe3;" horiz-adv-x="436" 
d="M48 -47q-31 0 -52.5 20.5t-21.5 62.5q0 36 16 77.5t44 82t63.5 74t75 53.5t78.5 20t65 -20.5t26 -54.5q0 -25 -13.5 -34t-35.5 -9q2 8 3.5 17.5t1.5 17.5q0 23 -11 39.5t-38 16.5q-28 0 -57 -19.5t-56 -52t-48 -70.5t-33 -75t-12 -66q0 -39 27 -39q23 0 50 21.5t55.5 55
t54.5 69.5t46 66q4 6 5 6q6 -1 15.5 -4t16.5 -8t7 -13q0 -9 -9 -24.5t-20 -35.5t-20 -40.5t-9 -38.5q0 -15 8 -29.5t26 -14.5q27 0 71 39.5t89 118.5l10 -10q-21 -54 -54 -95t-70.5 -64t-73.5 -23q-37 0 -54.5 22t-17.5 48q0 6 1 13.5t2 15.5q-43 -58 -78.5 -87t-72.5 -29z
M389 402q-27 0 -56 11.5t-58.5 23t-60.5 11.5q-13 0 -27 -3.5t-27 -11.5q20 28 42 39t45 11q28 0 58 -12t63 -24t69 -12q16 0 34 8q-19 -23 -39.5 -32t-42.5 -9z" />
    <glyph glyph-name="adieresis" unicode="&#xe4;" horiz-adv-x="436" 
d="M48 -47q-31 0 -52.5 20.5t-21.5 62.5q0 36 16 77.5t44 82t63.5 74t75 53.5t78.5 20t65 -20.5t26 -54.5q0 -25 -13.5 -34t-35.5 -9q2 8 3.5 17.5t1.5 17.5q0 23 -11 39.5t-38 16.5q-28 0 -57 -19.5t-56 -52t-48 -70.5t-33 -75t-12 -66q0 -39 27 -39q23 0 50 21.5t55.5 55
t54.5 69.5t46 66q4 6 5 6q6 -1 15.5 -4t16.5 -8t7 -13q0 -9 -9 -24.5t-20 -35.5t-20 -40.5t-9 -38.5q0 -15 8 -29.5t26 -14.5q27 0 71 39.5t89 118.5l10 -10q-21 -54 -54 -95t-70.5 -64t-73.5 -23q-37 0 -54.5 22t-17.5 48q0 6 1 13.5t2 15.5q-43 -58 -78.5 -87t-72.5 -29z
M365 415q-15 0 -26 7t-11 23q0 19 22 33t44 14q14 0 22 -6t8 -22q0 -17 -18.5 -33t-40.5 -16zM221 436q-15 0 -26 7t-11 23q0 19 22 33t44 14q14 0 22 -6t8 -22q0 -17 -18.5 -33t-40.5 -16z" />
    <glyph glyph-name="aring" unicode="&#xe5;" horiz-adv-x="436" 
d="M48 -47q-31 0 -52.5 20.5t-21.5 62.5q0 36 16 77.5t44 82t63.5 74t75 53.5t78.5 20t65 -20.5t26 -54.5q0 -25 -13.5 -34t-35.5 -9q2 8 3.5 17.5t1.5 17.5q0 23 -11 39.5t-38 16.5q-28 0 -57 -19.5t-56 -52t-48 -70.5t-33 -75t-12 -66q0 -39 27 -39q23 0 50 21.5t55.5 55
t54.5 69.5t46 66q4 6 5 6q6 -1 15.5 -4t16.5 -8t7 -13q0 -9 -9 -24.5t-20 -35.5t-20 -40.5t-9 -38.5q0 -15 8 -29.5t26 -14.5q27 0 71 39.5t89 118.5l10 -10q-21 -54 -54 -95t-70.5 -64t-73.5 -23q-37 0 -54.5 22t-17.5 48q0 6 1 13.5t2 15.5q-43 -58 -78.5 -87t-72.5 -29z
M298 397q-39 0 -55.5 16t-16.5 38q0 24 16.5 50t44 44t61.5 18q41 0 58.5 -15.5t17.5 -38.5q0 -24 -17.5 -50t-46 -44t-62.5 -18zM307 417q20 0 38 14t30 34.5t12 37.5q0 14 -10.5 25.5t-33.5 11.5q-20 0 -38 -13t-29 -32t-11 -37q0 -13 10 -27t32 -14z" />
    <glyph glyph-name="ae" unicode="&#xe6;" horiz-adv-x="543" 
d="M48 -47q-31 0 -52.5 20.5t-21.5 62.5q0 36 16 77.5t44 82t63.5 74t75 53.5t78.5 20q28 0 45 -11t24 -31q31 27 64.5 43t66.5 16q23 0 42.5 -12t19.5 -49q0 -38 -22.5 -71.5t-59 -59.5t-80 -42.5t-86.5 -20.5q-2 -10 -3 -19t-1 -17q0 -31 16.5 -57.5t62.5 -26.5
q43 0 85 24.5t78 64.5t61 88l12 -9q-27 -60 -68.5 -104t-90 -68.5t-98.5 -24.5q-59 0 -89.5 32t-32.5 78q-43 -56 -78 -84.5t-71 -28.5zM70 -6q27 0 61.5 31.5t67.5 73.5q7 45 33.5 93t63.5 86q-4 17 -15 27.5t-32 10.5q-28 0 -57 -19.5t-56 -52t-48 -70.5t-33 -75t-12 -66
q0 -39 27 -39zM270 124q27 9 61 26.5t65.5 41.5t52 53t20.5 61q0 11 -4 17t-17 6q-24 0 -51 -18.5t-52 -48.5t-45 -66t-30 -72z" />
    <glyph glyph-name="ccedilla" unicode="&#xe7;" horiz-adv-x="323" 
d="M107 -56q-48 0 -80 32t-32 96q0 50 19.5 97.5t51.5 85.5t71 60.5t77 22.5q41 0 56 -24t15 -50q0 -29 -13.5 -51t-36.5 -22q-17 0 -29 15q15 8 26 32.5t11 46.5q0 12 -4.5 18.5t-17.5 6.5q-27 0 -55.5 -24t-53 -62t-40 -80t-15.5 -79q0 -31 15 -57t58 -26q40 0 80.5 22
t75.5 63t56 96l13 -10q-23 -60 -63 -107.5t-88 -74.5t-97 -27zM188 -211q-29 0 -45 11t-16 25q0 8 5.5 16.5t16.5 16.5q5 -24 17 -34.5t25 -10.5q19 0 38 14.5t32 35t13 37.5q0 8 -3.5 16.5t-13.5 8.5q-13 0 -31 -10t-33 -20.5t-21 -10.5q-7 0 -10.5 6.5t-3.5 11.5
q0 2 8.5 14t20.5 28.5t24.5 32t21.5 23.5h13l-53 -81q11 8 27 16t40 8q23 0 34 -10.5t11 -31.5q0 -28 -16.5 -54t-43 -42t-57.5 -16z" />
    <glyph glyph-name="egrave" unicode="&#xe8;" horiz-adv-x="333" 
d="M108 -44q-61 0 -91.5 33.5t-30.5 82.5q0 45 22.5 95t60 94t82.5 71.5t89 27.5q23 0 42.5 -12t19.5 -49q0 -38 -22.5 -71.5t-59 -59.5t-80 -42.5t-86.5 -20.5q-2 -10 -3 -19t-1 -17q0 -15 3.5 -30t12.5 -27.5t24.5 -19.5t38.5 -7q43 0 85 24.5t78 64.5t61 88l12 -9
q-27 -60 -68.5 -104t-90 -68.5t-98.5 -24.5zM59 124q27 9 61 26.5t65.5 41.5t52 53t20.5 61q0 11 -4 17t-17 6q-24 0 -51 -18.5t-52 -48.5t-45 -66t-30 -72zM294 418q-22 29 -49 57t-63 59q2 18 8 24.5t14 6.5q15 0 33 -15t34 -36.5t26.5 -41t10.5 -28.5q0 -4 -3 -13
t-11 -13z" />
    <glyph glyph-name="eacute" unicode="&#xe9;" horiz-adv-x="333" 
d="M108 -44q-61 0 -91.5 33.5t-30.5 82.5q0 45 22.5 95t60 94t82.5 71.5t89 27.5q23 0 42.5 -12t19.5 -49q0 -38 -22.5 -71.5t-59 -59.5t-80 -42.5t-86.5 -20.5q-2 -10 -3 -19t-1 -17q0 -15 3.5 -30t12.5 -27.5t24.5 -19.5t38.5 -7q43 0 85 24.5t78 64.5t61 88l12 -9
q-27 -60 -68.5 -104t-90 -68.5t-98.5 -24.5zM59 124q27 9 61 26.5t65.5 41.5t52 53t20.5 61q0 11 -4 17t-17 6q-24 0 -51 -18.5t-52 -48.5t-45 -66t-30 -72zM263 418q-7 4 -10.5 13t-3.5 13q0 9 10.5 28.5t26.5 41t34 36.5t33 15q8 0 14.5 -6.5t7.5 -24.5q-36 -31 -63 -59
t-49 -57z" />
    <glyph glyph-name="ecircumflex" unicode="&#xea;" horiz-adv-x="333" 
d="M108 -44q-61 0 -91.5 33.5t-30.5 82.5q0 45 22.5 95t60 94t82.5 71.5t89 27.5q23 0 42.5 -12t19.5 -49q0 -38 -22.5 -71.5t-59 -59.5t-80 -42.5t-86.5 -20.5q-2 -10 -3 -19t-1 -17q0 -15 3.5 -30t12.5 -27.5t24.5 -19.5t38.5 -7q43 0 85 24.5t78 64.5t61 88l12 -9
q-27 -60 -68.5 -104t-90 -68.5t-98.5 -24.5zM59 124q27 9 61 26.5t65.5 41.5t52 53t20.5 61q0 11 -4 17t-17 6q-24 0 -51 -18.5t-52 -48.5t-45 -66t-30 -72zM360 410q-14 29 -32 49.5t-42 42.5q-31 -11 -55.5 -24t-47.5 -33q-6 4 -8 9.5t-2 9.5q0 15 13.5 30t33 28.5
t38.5 21.5t29 8q12 0 27.5 -11t29.5 -28.5t23.5 -36.5t9.5 -35q0 -10 -4 -18t-13 -13z" />
    <glyph glyph-name="edieresis" unicode="&#xeb;" horiz-adv-x="333" 
d="M108 -44q-61 0 -91.5 33.5t-30.5 82.5q0 45 22.5 95t60 94t82.5 71.5t89 27.5q23 0 42.5 -12t19.5 -49q0 -38 -22.5 -71.5t-59 -59.5t-80 -42.5t-86.5 -20.5q-2 -10 -3 -19t-1 -17q0 -15 3.5 -30t12.5 -27.5t24.5 -19.5t38.5 -7q43 0 85 24.5t78 64.5t61 88l12 -9
q-27 -60 -68.5 -104t-90 -68.5t-98.5 -24.5zM59 124q27 9 61 26.5t65.5 41.5t52 53t20.5 61q0 11 -4 17t-17 6q-24 0 -51 -18.5t-52 -48.5t-45 -66t-30 -72zM334 423q-15 0 -26 7t-11 23q0 19 22 33t44 14q14 0 22 -6t8 -22q0 -17 -18.5 -33t-40.5 -16zM190 444q-15 0 -26 7
t-11 23q0 19 22 33t44 14q14 0 22 -6t8 -22q0 -17 -18.5 -33t-40.5 -16z" />
    <glyph glyph-name="igrave" unicode="&#xec;" horiz-adv-x="241" 
d="M72 -26q-39 0 -58 24.5t-19 59.5q0 23 8.5 58t22.5 73.5t32.5 72.5t39.5 55.5t41 21.5q9 0 15.5 -5.5t6.5 -16.5q0 -12 -15.5 -39t-36.5 -62t-36.5 -73.5t-15.5 -73.5q0 -36 12 -48t37 -12q34 0 72.5 34t81.5 119l9 -10q-29 -86 -83.5 -132t-113.5 -46zM202 411
q-22 29 -49 57t-63 59q2 18 8 24.5t14 6.5q15 0 33 -15t34 -36.5t26.5 -41t10.5 -28.5q0 -4 -3 -13t-11 -13z" />
    <glyph glyph-name="iacute" unicode="&#xed;" horiz-adv-x="241" 
d="M72 -26q-39 0 -58 24.5t-19 59.5q0 23 8.5 58t22.5 73.5t32.5 72.5t39.5 55.5t41 21.5q9 0 15.5 -5.5t6.5 -16.5q0 -12 -15.5 -39t-36.5 -62t-36.5 -73.5t-15.5 -73.5q0 -36 12 -48t37 -12q34 0 72.5 34t81.5 119l9 -10q-29 -86 -83.5 -132t-113.5 -46zM178 411
q-7 4 -10.5 13t-3.5 13q0 9 10.5 28.5t26.5 41t34 36.5t33 15q8 0 14.5 -6.5t7.5 -24.5q-36 -31 -63 -59t-49 -57z" />
    <glyph glyph-name="icircumflex" unicode="&#xee;" horiz-adv-x="240" 
d="M72 -26q-39 0 -58 24.5t-19 59.5q0 23 8.5 58t22.5 73.5t32.5 72.5t39.5 55.5t41 21.5q9 0 15.5 -5.5t6.5 -16.5q0 -12 -15.5 -39t-36.5 -62t-36.5 -73.5t-15.5 -73.5q0 -36 12 -48t37 -12q34 0 72.5 34t81.5 119l9 -10q-29 -86 -83.5 -132t-113.5 -46zM286 403
q-14 29 -32 49.5t-42 42.5q-31 -11 -55.5 -24t-47.5 -33q-6 4 -8 9.5t-2 9.5q0 15 13.5 30t33 28.5t38.5 21.5t29 8q12 0 27.5 -11t29.5 -28.5t23.5 -36.5t9.5 -35q0 -10 -4 -18t-13 -13z" />
    <glyph glyph-name="idieresis" unicode="&#xef;" horiz-adv-x="242" 
d="M72 -26q-39 0 -58 24.5t-19 59.5q0 23 8.5 58t22.5 73.5t32.5 72.5t39.5 55.5t41 21.5q9 0 15.5 -5.5t6.5 -16.5q0 -12 -15.5 -39t-36.5 -62t-36.5 -73.5t-15.5 -73.5q0 -36 12 -48t37 -12q34 0 72.5 34t81.5 119l9 -10q-29 -86 -83.5 -132t-113.5 -46zM241 416
q-15 0 -26 7t-11 23q0 19 22 33t44 14q14 0 22 -6t8 -22q0 -17 -18.5 -33t-40.5 -16zM97 437q-15 0 -26 7t-11 23q0 19 22 33t44 14q14 0 22 -6t8 -22q0 -17 -18.5 -33t-40.5 -16z" />
    <glyph glyph-name="eth" unicode="&#xf0;" horiz-adv-x="473" 
d="M59 -30q-25 0 -50 20t-25 64q0 33 16 74t43 81.5t62 75t73 55t75 20.5q21 0 32.5 -7.5t11.5 -23.5q0 -4 -0.5 -7t-1.5 -7q-10 15 -38 15q-32 0 -62.5 -19.5t-56 -51t-44.5 -67.5t-29.5 -69.5t-10.5 -56.5q0 -22 10 -35t26 -13q22 0 50.5 21.5t58.5 60t58.5 88t49.5 105.5
q15 39 30 91.5t15 104.5q0 11 -1 21.5t-3 21.5q-14 -2 -36 -6t-43.5 -8.5t-35.5 -8.5q0 20 15.5 31t40 16.5t52.5 9.5q-10 36 -31 70t-56 64q15 19 39 19q31 0 54 -21t39.5 -54.5t25.5 -69.5q23 2 51 5t40 7q-10 -17 -21 -25.5t-26 -12t-38 -6.5q2 -13 3 -24.5t1 -22.5
q0 -51 -17 -110t-39 -119t-39 -114t-17 -95q0 -20 6 -31.5t22 -11.5q21 0 49 18t56 51t49 79l12 -9q-19 -51 -52 -91.5t-70.5 -64t-71.5 -23.5q-37 0 -51.5 24.5t-14.5 50.5q0 17 5 45t14 62q-32 -53 -68 -95.5t-70.5 -66.5t-65.5 -24z" />
    <glyph glyph-name="ntilde" unicode="&#xf1;" horiz-adv-x="466" 
d="M323 -20q-35 0 -52.5 18t-17.5 46q0 21 7.5 44t14.5 47.5t7 47.5q0 28 -11.5 38.5t-28.5 10.5q-31 0 -63 -25.5t-62 -65t-56 -81.5t-46 -75q-16 0 -30.5 5.5t-22.5 16.5q0 5 10.5 31t24.5 64t25 78t11 73q6 7 19 14t27 7q27 0 27 -26q0 -16 -9 -53.5t-23 -78.5
q27 41 60.5 81.5t71.5 67.5t76 27q39 0 56.5 -28t17.5 -62q0 -31 -10 -57.5t-20.5 -51t-10.5 -49.5q0 -21 8.5 -29.5t21.5 -8.5q25 0 50 23.5t48.5 59.5t41.5 73l11 -13q-21 -49 -47 -87t-57 -60t-69 -22zM354 356q-27 0 -56 11.5t-58.5 23t-60.5 11.5q-13 0 -27 -3.5
t-27 -11.5q20 28 42 39t45 11q28 0 58 -12t63 -24t69 -12q16 0 34 8q-19 -23 -39.5 -32t-42.5 -9z" />
    <glyph glyph-name="ograve" unicode="&#xf2;" horiz-adv-x="365" 
d="M69 -32q-43 0 -61 26.5t-18 64.5q0 31 10 64t26.5 62t37 47t41.5 18q5 0 10.5 -1.5t10.5 -3.5q-9 -8 -21.5 -29.5t-23.5 -49t-18.5 -54.5t-7.5 -46q0 -30 10 -43.5t26 -13.5q21 0 50 22.5t57 57.5q-28 23 -43.5 60.5t-15.5 76.5q0 33 11.5 62t33.5 46.5t53 17.5
q41 0 55 -22t14 -55q0 -39 -19 -86.5t-48 -91.5q18 -10 38 -10q16 0 36 6.5t39.5 22.5t31.5 43l12 -10q-20 -47 -56.5 -66.5t-69.5 -19.5q-13 0 -25 2.5t-23 7.5q-34 -45 -74.5 -75t-78.5 -30zM216 115q25 37 41.5 77.5t16.5 76.5q0 29 -8.5 42.5t-21.5 13.5q-20 0 -41 -29
t-21 -73q0 -29 8.5 -58.5t25.5 -49.5zM302 424q-22 29 -49 57t-63 59q2 18 8 24.5t14 6.5q15 0 33 -15t34 -36.5t26.5 -41t10.5 -28.5q0 -4 -3 -13t-11 -13z" />
    <glyph glyph-name="oacute" unicode="&#xf3;" horiz-adv-x="365" 
d="M69 -32q-43 0 -61 26.5t-18 64.5q0 31 10 64t26.5 62t37 47t41.5 18q5 0 10.5 -1.5t10.5 -3.5q-9 -8 -21.5 -29.5t-23.5 -49t-18.5 -54.5t-7.5 -46q0 -30 10 -43.5t26 -13.5q21 0 50 22.5t57 57.5q-28 23 -43.5 60.5t-15.5 76.5q0 33 11.5 62t33.5 46.5t53 17.5
q41 0 55 -22t14 -55q0 -39 -19 -86.5t-48 -91.5q18 -10 38 -10q16 0 36 6.5t39.5 22.5t31.5 43l12 -10q-20 -47 -56.5 -66.5t-69.5 -19.5q-13 0 -25 2.5t-23 7.5q-34 -45 -74.5 -75t-78.5 -30zM216 115q25 37 41.5 77.5t16.5 76.5q0 29 -8.5 42.5t-21.5 13.5q-20 0 -41 -29
t-21 -73q0 -29 8.5 -58.5t25.5 -49.5zM271 424q-7 4 -10.5 13t-3.5 13q0 9 10.5 28.5t26.5 41t34 36.5t33 15q8 0 14.5 -6.5t7.5 -24.5q-36 -31 -63 -59t-49 -57z" />
    <glyph glyph-name="ocircumflex" unicode="&#xf4;" horiz-adv-x="365" 
d="M69 -32q-43 0 -61 26.5t-18 64.5q0 31 10 64t26.5 62t37 47t41.5 18q5 0 10.5 -1.5t10.5 -3.5q-9 -8 -21.5 -29.5t-23.5 -49t-18.5 -54.5t-7.5 -46q0 -30 10 -43.5t26 -13.5q21 0 50 22.5t57 57.5q-28 23 -43.5 60.5t-15.5 76.5q0 33 11.5 62t33.5 46.5t53 17.5
q41 0 55 -22t14 -55q0 -39 -19 -86.5t-48 -91.5q18 -10 38 -10q16 0 36 6.5t39.5 22.5t31.5 43l12 -10q-20 -47 -56.5 -66.5t-69.5 -19.5q-13 0 -25 2.5t-23 7.5q-34 -45 -74.5 -75t-78.5 -30zM216 115q25 37 41.5 77.5t16.5 76.5q0 29 -8.5 42.5t-21.5 13.5q-20 0 -41 -29
t-21 -73q0 -29 8.5 -58.5t25.5 -49.5zM368 416q-14 29 -32 49.5t-42 42.5q-31 -11 -55.5 -24t-47.5 -33q-6 4 -8 9.5t-2 9.5q0 15 13.5 30t33 28.5t38.5 21.5t29 8q12 0 27.5 -11t29.5 -28.5t23.5 -36.5t9.5 -35q0 -10 -4 -18t-13 -13z" />
    <glyph glyph-name="otilde" unicode="&#xf5;" horiz-adv-x="365" 
d="M69 -32q-43 0 -61 26.5t-18 64.5q0 31 10 64t26.5 62t37 47t41.5 18q5 0 10.5 -1.5t10.5 -3.5q-9 -8 -21.5 -29.5t-23.5 -49t-18.5 -54.5t-7.5 -46q0 -30 10 -43.5t26 -13.5q21 0 50 22.5t57 57.5q-28 23 -43.5 60.5t-15.5 76.5q0 33 11.5 62t33.5 46.5t53 17.5
q41 0 55 -22t14 -55q0 -39 -19 -86.5t-48 -91.5q18 -10 38 -10q16 0 36 6.5t39.5 22.5t31.5 43l12 -10q-20 -47 -56.5 -66.5t-69.5 -19.5q-13 0 -25 2.5t-23 7.5q-34 -45 -74.5 -75t-78.5 -30zM216 115q25 37 41.5 77.5t16.5 76.5q0 29 -8.5 42.5t-21.5 13.5q-20 0 -41 -29
t-21 -73q0 -29 8.5 -58.5t25.5 -49.5zM366 416q-27 0 -56 11.5t-58.5 23t-60.5 11.5q-13 0 -27 -3.5t-27 -11.5q20 28 42 39t45 11q28 0 58 -12t63 -24t69 -12q16 0 34 8q-19 -23 -39.5 -32t-42.5 -9z" />
    <glyph glyph-name="odieresis" unicode="&#xf6;" horiz-adv-x="369" 
d="M69 -32q-43 0 -61 26.5t-18 64.5q0 31 10 64t26.5 62t37 47t41.5 18q5 0 10.5 -1.5t10.5 -3.5q-9 -8 -21.5 -29.5t-23.5 -49t-18.5 -54.5t-7.5 -46q0 -30 10 -43.5t26 -13.5q21 0 50 22.5t57 57.5q-28 23 -43.5 60.5t-15.5 76.5q0 33 11.5 62t33.5 46.5t53 17.5
q41 0 55 -22t14 -55q0 -39 -19 -86.5t-48 -91.5q18 -10 38 -10q16 0 36 6.5t39.5 22.5t31.5 43l12 -10q-20 -47 -56.5 -66.5t-69.5 -19.5q-13 0 -25 2.5t-23 7.5q-34 -45 -74.5 -75t-78.5 -30zM216 115q25 37 41.5 77.5t16.5 76.5q0 29 -8.5 42.5t-21.5 13.5q-20 0 -41 -29
t-21 -73q0 -29 8.5 -58.5t25.5 -49.5zM341 414q-15 0 -26 7t-11 23q0 19 22 33t44 14q14 0 22 -6t8 -22q0 -17 -18.5 -33t-40.5 -16zM197 435q-15 0 -26 7t-11 23q0 19 22 33t44 14q14 0 22 -6t8 -22q0 -17 -18.5 -33t-40.5 -16z" />
    <glyph glyph-name="divide" unicode="&#xf7;" horiz-adv-x="460" 
d="M25 124q8 20 34.5 30.5t66.5 14.5t88 4q36 0 69 -1.5t59 -3.5t40 -4q-15 -10 -35 -16.5t-53 -9.5t-88 -3q-43 0 -87.5 -1.5t-93.5 -9.5zM171 -10q-13 0 -22.5 6.5t-9.5 20.5q0 17 19.5 29t38.5 12q12 0 19 -5t7 -19q0 -15 -16 -29.5t-36 -14.5zM231 240q-13 0 -22.5 6.5
t-9.5 20.5q0 17 19.5 29t38.5 12q12 0 19 -5t7 -19q0 -15 -16 -29.5t-36 -14.5z" />
    <glyph glyph-name="oslash" unicode="&#xf8;" horiz-adv-x="363" 
d="M69 -32q-21 0 -37 8q-22 -19 -43 -29.5t-41 -10.5h-6.5t-6.5 1q14 8 32.5 23.5t38.5 37.5q-8 12 -12 27.5t-4 33.5q0 31 10 64t26.5 62t37 47t41.5 18q5 0 10.5 -1.5t10.5 -3.5q-10 -9 -22.5 -30.5t-24 -50t-18.5 -57.5t-6 -52q29 35 55 69t36 50q-4 13 -5.5 26t-1.5 26
q0 33 11.5 62t33.5 46.5t53 17.5q15 0 25 -3q3 5 6.5 11t7.5 12t18 10.5t27 4.5q3 0 6.5 -0.5t6.5 -0.5l-11 -17.5t-28 -43.5q11 -18 11 -50q0 -39 -19 -86.5t-48 -91.5q18 -10 38 -10q23 0 56 15.5t51 56.5l12 -10q-20 -47 -56.5 -66.5t-69.5 -19.5q-13 0 -25 2.5t-23 7.5
q-34 -45 -74.5 -75t-78.5 -30zM198 89q-10 8 -18 18t-15 21q-20 -29 -43.5 -58.5t-48.5 -55.5q8 -5 18 -5q21 0 50 22.5t57 57.5zM216 115q29 43 46 91.5t10 83.5q-22 -34 -45 -69t-37 -57q5 -13 11.5 -26t14.5 -23zM246 325h-1h-1q-13 0 -27.5 -13.5t-24.5 -35.5t-10 -50
q15 23 31 47t33 52z" />
    <glyph glyph-name="ugrave" unicode="&#xf9;" horiz-adv-x="438" 
d="M75 -30q-34 0 -54.5 30.5t-20.5 70.5q0 29 9.5 67t23.5 75t29 61t26 24q5 0 17 -5.5t20 -14.5q-11 -17 -27 -52t-28 -75t-12 -74q0 -8 2 -24.5t10 -29.5t24 -13q19 0 39 19.5t40.5 50.5t39.5 67t35.5 69l27.5 55q6 -1 17.5 -4t21 -8t9.5 -14q0 -4 -10 -26.5t-23.5 -55
t-23.5 -65.5t-10 -58q0 -18 7.5 -29t25.5 -11q21 0 51 19t61 55.5t55 87.5l13 -9q-21 -54 -55 -95.5t-72 -64.5t-74 -23q-26 0 -41.5 10t-22 27t-6.5 37q0 12 2 24.5t5 25.5q-18 -33 -39 -61.5t-44 -45.5t-48 -17zM255 370q-22 29 -49 57t-63 59q2 18 8 24.5t14 6.5
q15 0 33 -15t34 -36.5t26.5 -41t10.5 -28.5q0 -4 -3 -13t-11 -13z" />
    <glyph glyph-name="uacute" unicode="&#xfa;" horiz-adv-x="438" 
d="M75 -30q-34 0 -54.5 30.5t-20.5 70.5q0 29 9.5 67t23.5 75t29 61t26 24q5 0 17 -5.5t20 -14.5q-11 -17 -27 -52t-28 -75t-12 -74q0 -8 2 -24.5t10 -29.5t24 -13q19 0 39 19.5t40.5 50.5t39.5 67t35.5 69l27.5 55q6 -1 17.5 -4t21 -8t9.5 -14q0 -4 -10 -26.5t-23.5 -55
t-23.5 -65.5t-10 -58q0 -18 7.5 -29t25.5 -11q21 0 51 19t61 55.5t55 87.5l13 -9q-21 -54 -55 -95.5t-72 -64.5t-74 -23q-26 0 -41.5 10t-22 27t-6.5 37q0 12 2 24.5t5 25.5q-18 -33 -39 -61.5t-44 -45.5t-48 -17zM224 370q-7 4 -10.5 13t-3.5 13q0 9 10.5 28.5t26.5 41
t34 36.5t33 15q8 0 14.5 -6.5t7.5 -24.5q-36 -31 -63 -59t-49 -57z" />
    <glyph glyph-name="ucircumflex" unicode="&#xfb;" horiz-adv-x="438" 
d="M75 -30q-34 0 -54.5 30.5t-20.5 70.5q0 29 9.5 67t23.5 75t29 61t26 24q5 0 17 -5.5t20 -14.5q-11 -17 -27 -52t-28 -75t-12 -74q0 -8 2 -24.5t10 -29.5t24 -13q19 0 39 19.5t40.5 50.5t39.5 67t35.5 69l27.5 55q6 -1 17.5 -4t21 -8t9.5 -14q0 -4 -10 -26.5t-23.5 -55
t-23.5 -65.5t-10 -58q0 -18 7.5 -29t25.5 -11q21 0 51 19t61 55.5t55 87.5l13 -9q-21 -54 -55 -95.5t-72 -64.5t-74 -23q-26 0 -41.5 10t-22 27t-6.5 37q0 12 2 24.5t5 25.5q-18 -33 -39 -61.5t-44 -45.5t-48 -17zM321 362q-14 29 -32 49.5t-42 42.5q-31 -11 -55.5 -24
t-47.5 -33q-6 4 -8 9.5t-2 9.5q0 15 13.5 30t33 28.5t38.5 21.5t29 8q12 0 27.5 -11t29.5 -28.5t23.5 -36.5t9.5 -35q0 -10 -4 -18t-13 -13z" />
    <glyph glyph-name="udieresis" unicode="&#xfc;" horiz-adv-x="438" 
d="M75 -30q-34 0 -54.5 30.5t-20.5 70.5q0 29 9.5 67t23.5 75t29 61t26 24q5 0 17 -5.5t20 -14.5q-11 -17 -27 -52t-28 -75t-12 -74q0 -8 2 -24.5t10 -29.5t24 -13q19 0 39 19.5t40.5 50.5t39.5 67t35.5 69l27.5 55q6 -1 17.5 -4t21 -8t9.5 -14q0 -4 -10 -26.5t-23.5 -55
t-23.5 -65.5t-10 -58q0 -18 7.5 -29t25.5 -11q21 0 51 19t61 55.5t55 87.5l13 -9q-21 -54 -55 -95.5t-72 -64.5t-74 -23q-26 0 -41.5 10t-22 27t-6.5 37q0 12 2 24.5t5 25.5q-18 -33 -39 -61.5t-44 -45.5t-48 -17zM295 375q-15 0 -26 7t-11 23q0 19 22 33t44 14q14 0 22 -6
t8 -22q0 -17 -18.5 -33t-40.5 -16zM151 396q-15 0 -26 7t-11 23q0 19 22 33t44 14q14 0 22 -6t8 -22q0 -17 -18.5 -33t-40.5 -16z" />
    <glyph glyph-name="yacute" unicode="&#xfd;" horiz-adv-x="389" 
d="M43 -280q-25 0 -44 13.5t-19 39.5q0 32 16 57t43 46t62 40t73 38q14 37 28.5 82.5t27.5 100.5q-32 -52 -68.5 -89.5t-77.5 -37.5q-19 0 -37.5 8.5t-30.5 26.5t-12 46t9.5 65t23.5 72t29 58t26 23q4 0 14.5 -3t20 -8.5t9.5 -11.5q-9 -13 -20 -37t-21.5 -53.5t-17.5 -57.5
t-7 -48q0 -18 8 -29t28 -11q19 0 42.5 18.5t47 47.5t43.5 62q3 11 5.5 22.5t4.5 23.5q3 14 14.5 32.5t36.5 18.5q5 0 10 -0.5t11 -2.5q0 -16 -9.5 -59.5t-27 -101.5t-41.5 -119q47 18 92 59.5t73 110.5l13 -10q-15 -48 -45.5 -83.5t-68.5 -61t-75 -42.5q-26 -64 -56.5 -120
t-64 -90.5t-68.5 -34.5zM38 -248q15 0 50.5 39.5t75.5 138.5q-41 -22 -76 -43.5t-56 -46.5t-21 -58q0 -8 6 -19t21 -11zM225 381q-7 4 -10.5 13t-3.5 13q0 9 10.5 28.5t26.5 41t34 36.5t33 15q8 0 14.5 -6.5t7.5 -24.5q-36 -31 -63 -59t-49 -57z" />
    <glyph glyph-name="thorn" unicode="&#xfe;" horiz-adv-x="391" 
d="M-63 -280q-8 0 -15.5 8.5t-11.5 18t-4 11.5q18 62 38 130.5t41 155t41 199.5t38 263q1 9 4 13t15 4q26 0 37 -14.5t11 -31.5q0 -6 -3.5 -30.5l-8.5 -59.5t-11 -72.5t-12 -70t-10 -52.5q17 33 42.5 67t58.5 57t72 23q44 0 72.5 -31.5t28.5 -82.5q0 -39 -17.5 -82.5
t-49 -82t-74.5 -62.5t-95 -24q-26 0 -42 6t-16 12q0 4 7.5 4.5t17.5 0.5q40 0 76.5 19.5t65.5 51.5t45.5 71t16.5 77q0 32 -13.5 54.5t-43.5 22.5q-26 0 -51.5 -16.5t-48 -42t-40 -53t-26.5 -49.5q-18 -75 -36 -144.5t-34.5 -126t-30 -92.5t-22.5 -44q-5 -5 -12 -5z" />
    <glyph glyph-name="ydieresis" unicode="&#xff;" horiz-adv-x="389" 
d="M43 -280q-25 0 -44 13.5t-19 39.5q0 32 16 57t43 46t62 40t73 38q14 37 28.5 82.5t27.5 100.5q-32 -52 -68.5 -89.5t-77.5 -37.5q-19 0 -37.5 8.5t-30.5 26.5t-12 46t9.5 65t23.5 72t29 58t26 23q4 0 14.5 -3t20 -8.5t9.5 -11.5q-9 -13 -20 -37t-21.5 -53.5t-17.5 -57.5
t-7 -48q0 -18 8 -29t28 -11q19 0 42.5 18.5t47 47.5t43.5 62q3 11 5.5 22.5t4.5 23.5q3 14 14.5 32.5t36.5 18.5q5 0 10 -0.5t11 -2.5q0 -16 -9.5 -59.5t-27 -101.5t-41.5 -119q47 18 92 59.5t73 110.5l13 -10q-15 -48 -45.5 -83.5t-68.5 -61t-75 -42.5q-26 -64 -56.5 -120
t-64 -90.5t-68.5 -34.5zM38 -248q15 0 50.5 39.5t75.5 138.5q-41 -22 -76 -43.5t-56 -46.5t-21 -58q0 -8 6 -19t21 -11zM296 386q-15 0 -26 7t-11 23q0 19 22 33t44 14q14 0 22 -6t8 -22q0 -17 -18.5 -33t-40.5 -16zM152 407q-15 0 -26 7t-11 23q0 19 22 33t44 14
q14 0 22 -6t8 -22q0 -17 -18.5 -33t-40.5 -16z" />
    <glyph glyph-name="Amacron" unicode="&#x100;" horiz-adv-x="592" 
d="M17 -87q-22 13 -28 27.5t-6 24.5q0 28 20.5 76t55 109.5t76.5 127.5q-37 3 -63 4t-45 1h-35q11 29 38.5 40.5t65.5 11.5q17 0 35 -2t37 -5q51 77 104.5 149.5t100 129t77.5 85.5q29 28 48 28q11 0 24.5 -8.5t28.5 -23.5q-10 -8 -25.5 -42.5t-33 -86.5t-34.5 -114
t-31.5 -126.5t-23 -122.5t-8.5 -102q0 -38 8.5 -59t28.5 -21q26 0 59 36t72 112l10 -10q-30 -80 -76.5 -131t-96.5 -51q-41 0 -59.5 36.5t-18.5 97.5q0 32 4.5 70t12.5 79q-44 7 -80.5 11.5t-67.5 8.5q-47 -87 -91.5 -179t-82.5 -181zM346 288q15 66 35 133.5t42.5 128.5
t42.5 107q-31 -19 -71.5 -67.5t-85.5 -118t-92 -152.5q34 -7 67.5 -15.5t61.5 -15.5zM643 756q-22 0 -55 5.5t-69.5 13t-69 14t-55.5 8.5q10 26 46 26q37 0 79 -7.5t84.5 -18t77.5 -21.5q-14 -20 -38 -20z" />
    <glyph glyph-name="amacron" unicode="&#x101;" horiz-adv-x="436" 
d="M48 -47q-31 0 -52.5 20.5t-21.5 62.5q0 36 16 77.5t44 82t63.5 74t75 53.5t78.5 20t65 -20.5t26 -54.5q0 -25 -13.5 -34t-35.5 -9q2 8 3.5 17.5t1.5 17.5q0 23 -11 39.5t-38 16.5q-28 0 -57 -19.5t-56 -52t-48 -70.5t-33 -75t-12 -66q0 -39 27 -39q23 0 50 21.5t55.5 55
t54.5 69.5t46 66q4 6 5 6q6 -1 15.5 -4t16.5 -8t7 -13q0 -9 -9 -24.5t-20 -35.5t-20 -40.5t-9 -38.5q0 -15 8 -29.5t26 -14.5q27 0 71 39.5t89 118.5l10 -10q-21 -54 -54 -95t-70.5 -64t-73.5 -23q-37 0 -54.5 22t-17.5 48q0 6 1 13.5t2 15.5q-43 -58 -78.5 -87t-72.5 -29z
M392 424q-22 0 -55 5.5t-69.5 13t-69 14t-55.5 8.5q10 26 46 26q37 0 79 -7.5t84.5 -18t77.5 -21.5q-14 -20 -38 -20z" />
    <glyph glyph-name="Abreve" unicode="&#x102;" horiz-adv-x="592" 
d="M17 -87q-22 13 -28 27.5t-6 24.5q0 28 20.5 76t55 109.5t76.5 127.5q-37 3 -63 4t-45 1h-35q11 29 38.5 40.5t65.5 11.5q17 0 35 -2t37 -5q51 77 104.5 149.5t100 129t77.5 85.5q29 28 48 28q11 0 24.5 -8.5t28.5 -23.5q-10 -8 -25.5 -42.5t-33 -86.5t-34.5 -114
t-31.5 -126.5t-23 -122.5t-8.5 -102q0 -38 8.5 -59t28.5 -21q26 0 59 36t72 112l10 -10q-30 -80 -76.5 -131t-96.5 -51q-41 0 -59.5 36.5t-18.5 97.5q0 32 4.5 70t12.5 79q-44 7 -80.5 11.5t-67.5 8.5q-47 -87 -91.5 -179t-82.5 -181zM346 288q15 66 35 133.5t42.5 128.5
t42.5 107q-31 -19 -71.5 -67.5t-85.5 -118t-92 -152.5q34 -7 67.5 -15.5t61.5 -15.5zM565 758q-38 0 -60.5 15.5t-32.5 37t-10 39.5t6.5 30t17.5 19q3 -34 21.5 -62.5t59.5 -28.5q38 0 61 19.5t35 40.5q6 -6 8 -14.5t2 -15.5q0 -34 -32.5 -57t-75.5 -23z" />
    <glyph glyph-name="abreve" unicode="&#x103;" horiz-adv-x="436" 
d="M48 -47q-31 0 -52.5 20.5t-21.5 62.5q0 36 16 77.5t44 82t63.5 74t75 53.5t78.5 20t65 -20.5t26 -54.5q0 -25 -13.5 -34t-35.5 -9q2 8 3.5 17.5t1.5 17.5q0 23 -11 39.5t-38 16.5q-28 0 -57 -19.5t-56 -52t-48 -70.5t-33 -75t-12 -66q0 -39 27 -39q23 0 50 21.5t55.5 55
t54.5 69.5t46 66q4 6 5 6q6 -1 15.5 -4t16.5 -8t7 -13q0 -9 -9 -24.5t-20 -35.5t-20 -40.5t-9 -38.5q0 -15 8 -29.5t26 -14.5q27 0 71 39.5t89 118.5l10 -10q-21 -54 -54 -95t-70.5 -64t-73.5 -23q-37 0 -54.5 22t-17.5 48q0 6 1 13.5t2 15.5q-43 -58 -78.5 -87t-72.5 -29z
M314 410q-38 0 -60.5 15.5t-32.5 37t-10 39.5t6.5 30t17.5 19q3 -34 21.5 -62.5t59.5 -28.5q38 0 61 19.5t35 40.5q6 -6 8 -14.5t2 -15.5q0 -34 -32.5 -57t-75.5 -23z" />
    <glyph glyph-name="Aogonek" unicode="&#x104;" horiz-adv-x="592" 
d="M17 -87q-22 13 -28 27.5t-6 24.5q0 28 20.5 76t55 109.5t76.5 127.5q-37 3 -63 4t-45 1h-35q11 29 38.5 40.5t65.5 11.5q17 0 35 -2t37 -5q51 77 104.5 149.5t100 129t77.5 85.5q29 28 48 28q11 0 24.5 -8.5t28.5 -23.5q-10 -8 -25.5 -42.5t-33 -86.5t-34.5 -114
t-31.5 -126.5t-23 -122.5t-8.5 -102q0 -38 8.5 -59t28.5 -21q26 0 59 36t72 112l10 -10q-30 -80 -76.5 -131t-96.5 -51q-41 0 -59.5 36.5t-18.5 97.5q0 32 4.5 70t12.5 79q-44 7 -80.5 11.5t-67.5 8.5q-47 -87 -91.5 -179t-82.5 -181zM346 288q15 66 35 133.5t42.5 128.5
t42.5 107q-31 -19 -71.5 -67.5t-85.5 -118t-92 -152.5q34 -7 67.5 -15.5t61.5 -15.5zM457 -156q-31 0 -50 19t-19 49q0 33 21.5 53.5t50.5 24.5q-16 -11 -26 -25t-10 -34q0 -17 12 -30.5t37 -13.5q14 0 26 4t24 13q-1 -28 -19 -44t-47 -16z" />
    <glyph glyph-name="aogonek" unicode="&#x105;" horiz-adv-x="436" 
d="M48 -47q-31 0 -52.5 20.5t-21.5 62.5q0 36 16 77.5t44 82t63.5 74t75 53.5t78.5 20t65 -20.5t26 -54.5q0 -25 -13.5 -34t-35.5 -9q2 8 3.5 17.5t1.5 17.5q0 23 -11 39.5t-38 16.5q-28 0 -57 -19.5t-56 -52t-48 -70.5t-33 -75t-12 -66q0 -39 27 -39q23 0 50 21.5t55.5 55
t54.5 69.5t46 66q4 6 5 6q6 -1 15.5 -4t16.5 -8t7 -13q0 -9 -9 -24.5t-20 -35.5t-20 -40.5t-9 -38.5q0 -15 8 -29.5t26 -14.5q27 0 71 39.5t89 118.5l10 -10q-21 -54 -54 -95t-70.5 -64t-73.5 -23q-37 0 -54.5 22t-17.5 48q0 6 1 13.5t2 15.5q-43 -58 -78.5 -87t-72.5 -29z
M349 -146q-31 0 -50 19t-19 49q0 33 21.5 53.5t50.5 24.5q-16 -11 -26 -25t-10 -34q0 -17 12 -30.5t37 -13.5q14 0 26 4t24 13q-1 -28 -19 -44t-47 -16z" />
    <glyph glyph-name="Cacute" unicode="&#x106;" horiz-adv-x="534" 
d="M219 -87q-71 0 -114.5 35.5t-63 91.5t-19.5 117q0 79 24 159t65.5 152.5t94.5 129t111.5 89t115.5 32.5q41 0 66.5 -19.5t25.5 -66.5q0 -29 -10 -65.5t-27 -70t-37.5 -55.5t-41.5 -22q-8 0 -16.5 5t-14.5 18q15 17 33.5 42.5t35.5 54t27.5 56t10.5 48.5q0 20 -11.5 32.5
t-37.5 12.5q-43 0 -89.5 -35t-90 -93.5t-78.5 -130.5t-55.5 -147t-20.5 -143q0 -49 14 -93.5t45.5 -72t81.5 -27.5q53 0 105.5 30t96.5 79t70 106l14 -10q-33 -65 -80 -119.5t-105 -87t-125 -32.5zM486 747q-7 4 -10.5 13t-3.5 13q0 9 10.5 28.5t26.5 41t34 36.5t33 15
q8 0 14.5 -6.5t7.5 -24.5q-36 -31 -63 -59t-49 -57z" />
    <glyph glyph-name="cacute" unicode="&#x107;" horiz-adv-x="323" 
d="M107 -56q-48 0 -80 32t-32 96q0 50 19.5 97.5t51.5 85.5t71 60.5t77 22.5q41 0 56 -24t15 -50q0 -29 -13.5 -51t-36.5 -22q-17 0 -29 15q15 8 26 32.5t11 46.5q0 12 -4.5 18.5t-17.5 6.5q-27 0 -55.5 -24t-53 -62t-40 -80t-15.5 -79q0 -31 15 -57t58 -26q40 0 80.5 22
t75.5 63t56 96l13 -10q-23 -60 -63 -107.5t-88 -74.5t-97 -27zM263 404q-7 4 -10.5 13t-3.5 13q0 9 10.5 28.5t26.5 41t34 36.5t33 15q8 0 14.5 -6.5t7.5 -24.5q-36 -31 -63 -59t-49 -57z" />
    <glyph glyph-name="Ccircumflex" unicode="&#x108;" horiz-adv-x="534" 
d="M219 -87q-71 0 -114.5 35.5t-63 91.5t-19.5 117q0 79 24 159t65.5 152.5t94.5 129t111.5 89t115.5 32.5q41 0 66.5 -19.5t25.5 -66.5q0 -29 -10 -65.5t-27 -70t-37.5 -55.5t-41.5 -22q-8 0 -16.5 5t-14.5 18q15 17 33.5 42.5t35.5 54t27.5 56t10.5 48.5q0 20 -11.5 32.5
t-37.5 12.5q-43 0 -89.5 -35t-90 -93.5t-78.5 -130.5t-55.5 -147t-20.5 -143q0 -49 14 -93.5t45.5 -72t81.5 -27.5q53 0 105.5 30t96.5 79t70 106l14 -10q-33 -65 -80 -119.5t-105 -87t-125 -32.5zM578 743q-14 29 -32 49.5t-42 42.5q-31 -11 -55.5 -24t-47.5 -33
q-6 4 -8 9.5t-2 9.5q0 15 13.5 30t33 28.5t38.5 21.5t29 8q12 0 27.5 -11t29.5 -28.5t23.5 -36.5t9.5 -35q0 -10 -4 -18t-13 -13z" />
    <glyph glyph-name="ccircumflex" unicode="&#x109;" horiz-adv-x="323" 
d="M107 -56q-48 0 -80 32t-32 96q0 50 19.5 97.5t51.5 85.5t71 60.5t77 22.5q41 0 56 -24t15 -50q0 -29 -13.5 -51t-36.5 -22q-17 0 -29 15q15 8 26 32.5t11 46.5q0 12 -4.5 18.5t-17.5 6.5q-27 0 -55.5 -24t-53 -62t-40 -80t-15.5 -79q0 -31 15 -57t58 -26q40 0 80.5 22
t75.5 63t56 96l13 -10q-23 -60 -63 -107.5t-88 -74.5t-97 -27zM360 396q-14 29 -32 49.5t-42 42.5q-31 -11 -55.5 -24t-47.5 -33q-6 4 -8 9.5t-2 9.5q0 15 13.5 30t33 28.5t38.5 21.5t29 8q12 0 27.5 -11t29.5 -28.5t23.5 -36.5t9.5 -35q0 -10 -4 -18t-13 -13z" />
    <glyph glyph-name="Cdotaccent" unicode="&#x10a;" horiz-adv-x="534" 
d="M219 -87q-71 0 -114.5 35.5t-63 91.5t-19.5 117q0 79 24 159t65.5 152.5t94.5 129t111.5 89t115.5 32.5q41 0 66.5 -19.5t25.5 -66.5q0 -29 -10 -65.5t-27 -70t-37.5 -55.5t-41.5 -22q-8 0 -16.5 5t-14.5 18q15 17 33.5 42.5t35.5 54t27.5 56t10.5 48.5q0 20 -11.5 32.5
t-37.5 12.5q-43 0 -89.5 -35t-90 -93.5t-78.5 -130.5t-55.5 -147t-20.5 -143q0 -49 14 -93.5t45.5 -72t81.5 -27.5q53 0 105.5 30t96.5 79t70 106l14 -10q-33 -65 -80 -119.5t-105 -87t-125 -32.5zM491 770q-18 0 -29 8.5t-11 24.5q0 22 21.5 35.5t43.5 13.5q17 0 26 -8.5
t9 -24.5q0 -19 -19 -34t-41 -15z" />
    <glyph glyph-name="cdotaccent" unicode="&#x10b;" horiz-adv-x="323" 
d="M107 -56q-48 0 -80 32t-32 96q0 50 19.5 97.5t51.5 85.5t71 60.5t77 22.5q41 0 56 -24t15 -50q0 -29 -13.5 -51t-36.5 -22q-17 0 -29 15q15 8 26 32.5t11 46.5q0 12 -4.5 18.5t-17.5 6.5q-27 0 -55.5 -24t-53 -62t-40 -80t-15.5 -79q0 -31 15 -57t58 -26q40 0 80.5 22
t75.5 63t56 96l13 -10q-23 -60 -63 -107.5t-88 -74.5t-97 -27zM268 403q-18 0 -29 8.5t-11 24.5q0 22 21.5 35.5t43.5 13.5q17 0 26 -8.5t9 -24.5q0 -19 -19 -34t-41 -15z" />
    <glyph glyph-name="Ccaron" unicode="&#x10c;" horiz-adv-x="534" 
d="M219 -87q-71 0 -114.5 35.5t-63 91.5t-19.5 117q0 79 24 159t65.5 152.5t94.5 129t111.5 89t115.5 32.5q41 0 66.5 -19.5t25.5 -66.5q0 -29 -10 -65.5t-27 -70t-37.5 -55.5t-41.5 -22q-8 0 -16.5 5t-14.5 18q15 17 33.5 42.5t35.5 54t27.5 56t10.5 48.5q0 20 -11.5 32.5
t-37.5 12.5q-43 0 -89.5 -35t-90 -93.5t-78.5 -130.5t-55.5 -147t-20.5 -143q0 -49 14 -93.5t45.5 -72t81.5 -27.5q53 0 105.5 30t96.5 79t70 106l14 -10q-33 -65 -80 -119.5t-105 -87t-125 -32.5zM483 753q-12 0 -27.5 11t-29.5 28.5t-23.5 36.5t-9.5 35q0 10 4 18.5
t13 12.5q14 -28 32 -48.5t42 -43.5q31 11 56 24t47 33q6 -4 8 -9t2 -10q0 -15 -13.5 -30t-33 -28.5t-38.5 -21.5t-29 -8z" />
    <glyph glyph-name="ccaron" unicode="&#x10d;" horiz-adv-x="323" 
d="M107 -56q-48 0 -80 32t-32 96q0 50 19.5 97.5t51.5 85.5t71 60.5t77 22.5q41 0 56 -24t15 -50q0 -29 -13.5 -51t-36.5 -22q-17 0 -29 15q15 8 26 32.5t11 46.5q0 12 -4.5 18.5t-17.5 6.5q-27 0 -55.5 -24t-53 -62t-40 -80t-15.5 -79q0 -31 15 -57t58 -26q40 0 80.5 22
t75.5 63t56 96l13 -10q-23 -60 -63 -107.5t-88 -74.5t-97 -27zM270 404q-12 0 -27.5 11t-29.5 28.5t-23.5 36.5t-9.5 35q0 10 4 18.5t13 12.5q14 -28 32 -48.5t42 -43.5q31 11 56 24t47 33q6 -4 8 -9t2 -10q0 -15 -13.5 -30t-33 -28.5t-38.5 -21.5t-29 -8z" />
    <glyph glyph-name="Dcaron" unicode="&#x10e;" horiz-adv-x="653" 
d="M163 -87q-31 0 -59 8.5t-48 36.5q10 48 24.5 103.5t31.5 114t34.5 115t33.5 105.5t29 86t20 56q3 8 10 23.5t17 31.5t23 27.5t28 11.5q14 0 28 -10q-31 -72 -62.5 -159t-60.5 -179.5t-53 -180.5t-40 -160q14 -2 23.5 -3t19.5 -1q64 0 123.5 29.5t111 81t90.5 118
t60.5 141t21.5 148.5q0 81 -26 133.5t-72 77.5t-107 25q-65 0 -117 -26t-82 -70t-30 -99q0 -12 1.5 -21t3.5 -16q-33 0 -46.5 16.5t-13.5 39.5q0 35 24.5 70.5t68 65.5t100.5 48.5t121 18.5q90 0 144.5 -36.5t79.5 -98.5t25 -139q0 -87 -27 -166.5t-74.5 -146t-108.5 -116
t-130.5 -77t-139.5 -27.5zM485 754q-12 0 -27.5 11t-29.5 28.5t-23.5 36.5t-9.5 35q0 10 4 18.5t13 12.5q14 -28 32 -48.5t42 -43.5q31 11 56 24t47 33q6 -4 8 -9t2 -10q0 -15 -13.5 -30t-33 -28.5t-38.5 -21.5t-29 -8z" />
    <glyph glyph-name="dcaron" unicode="&#x10f;" horiz-adv-x="473" 
d="M59 -30q-17 0 -34.5 8.5t-29 27.5t-11.5 48q0 33 16 74t43 81.5t62 75t73 55t75 20.5q21 0 32.5 -7.5t11.5 -23.5q0 -4 -0.5 -7t-1.5 -7q-5 8 -14.5 11.5t-23.5 3.5q-32 0 -62.5 -19.5t-56 -51t-44.5 -67.5t-29.5 -69.5t-10.5 -56.5q0 -22 10 -35t26 -13q27 0 65.5 34
t78.5 96t72 145q22 58 45.5 118t47.5 115.5t46.5 99t43 69t36.5 25.5q8 0 14 -6.5t6 -16.5q0 -16 -16.5 -54.5t-43 -92t-55.5 -116.5t-55.5 -128t-43 -125.5t-16.5 -110.5q0 -28 3 -42t20 -14q21 0 49 18t56 51t49 79l12 -9q-19 -51 -52 -91.5t-70.5 -64t-71.5 -23.5
q-37 0 -51.5 24.5t-14.5 50.5q0 17 5 45t14 62q-32 -53 -68 -95.5t-70.5 -66.5t-65.5 -24zM556 527q-9 0 -17 6.5t-8 19.5q0 19 14.5 43t35.5 42t39 18q9 0 14 -4q-19 -26 -35.5 -58.5t-26.5 -61.5q-7 -5 -16 -5z" />
    <glyph glyph-name="Dcroat" unicode="&#x110;" horiz-adv-x="654" 
d="M164 -87q-31 0 -59 8.5t-48 36.5q14 70 38.5 157t49.5 169q-28 0 -53 -2.5t-60 -7.5q8 23 42 33.5t83 13.5q23 74 43 132.5t30 84.5q3 8 10 23.5t17 31.5t23 27.5t28 11.5q14 0 28 -10q-28 -64 -56.5 -141t-54.5 -158q52 0 97 -3.5t67 -5.5q-25 -18 -53.5 -23.5
t-49.5 -5.5h-73q-29 -92 -53 -180.5t-40 -161.5q14 -2 23.5 -3t19.5 -1q64 0 123.5 29.5t111 81t90.5 118t60.5 141t21.5 148.5q0 122 -57 179t-148 57q-65 0 -117 -26t-82 -70t-30 -99q0 -12 1.5 -21t3.5 -16q-33 0 -46.5 16.5t-13.5 39.5q0 35 24.5 70.5t68 65.5
t100.5 48.5t121 18.5q90 0 144.5 -36.5t79.5 -98.5t25 -139q0 -87 -27 -166.5t-74.5 -146t-108.5 -116t-130.5 -77t-139.5 -27.5z" />
    <glyph glyph-name="dcroat" unicode="&#x111;" horiz-adv-x="474" 
d="M274 524q9 26 51.5 37t121.5 12q38 1 74 -0.5t65 -3.5t45 -5q-25 -18 -53.5 -23.5t-49.5 -5.5h-83t-63 -1t-53.5 -3t-54.5 -7zM59 -30q-17 0 -34.5 8.5t-29 27.5t-11.5 48q0 33 16 74t43 81.5t62 75t73 55t75 20.5q21 0 32.5 -7.5t11.5 -23.5q0 -4 -0.5 -7t-1.5 -7
q-5 8 -14.5 11.5t-23.5 3.5q-32 0 -62.5 -19.5t-56 -51t-44.5 -67.5t-29.5 -69.5t-10.5 -56.5q0 -22 10 -35t26 -13q27 0 65.5 34t78.5 96t72 145q22 58 45.5 118t47.5 115.5t46.5 99t43 69t36.5 25.5q8 0 14 -6.5t6 -16.5q0 -16 -16.5 -54.5t-43 -92t-55.5 -116.5
t-55.5 -128t-43 -125.5t-16.5 -110.5q0 -28 3 -42t20 -14q21 0 49 18t56 51t49 79l12 -9q-19 -51 -52 -91.5t-70.5 -64t-71.5 -23.5q-37 0 -51.5 24.5t-14.5 50.5q0 17 5 45t14 62q-32 -53 -68 -95.5t-70.5 -66.5t-65.5 -24z" />
    <glyph glyph-name="Emacron" unicode="&#x112;" horiz-adv-x="498" 
d="M180 -87q-60 0 -104 25t-67.5 66.5t-23.5 90.5q0 46 20 90t55.5 80.5t82.5 60t101 28.5q-39 32 -57.5 74t-18.5 84q0 53 26.5 100.5t73.5 77t106 29.5q56 0 85 -28t29 -80q0 -37 -13 -72t-31.5 -57t-35.5 -22q-11 0 -21 9.5t-16 22.5q35 31 59.5 65.5t24.5 73.5
q0 31 -18 48t-53 17q-46 0 -78 -27.5t-48.5 -73t-16.5 -100.5q0 -36 11 -78t47 -73q-67 -11 -116.5 -51t-77 -94t-27.5 -107q0 -33 12.5 -66.5t40.5 -56t75 -22.5q53 0 105.5 30t96.5 79t70 106l14 -10q-35 -68 -82 -122t-105 -85.5t-125 -31.5zM530 756q-22 0 -55 5.5
t-69.5 13t-69 14t-55.5 8.5q10 26 46 26q37 0 79 -7.5t84.5 -18t77.5 -21.5q-14 -20 -38 -20z" />
    <glyph glyph-name="emacron" unicode="&#x113;" horiz-adv-x="333" 
d="M108 -44q-61 0 -91.5 33.5t-30.5 82.5q0 45 22.5 95t60 94t82.5 71.5t89 27.5q23 0 42.5 -12t19.5 -49q0 -38 -22.5 -71.5t-59 -59.5t-80 -42.5t-86.5 -20.5q-2 -10 -3 -19t-1 -17q0 -15 3.5 -30t12.5 -27.5t24.5 -19.5t38.5 -7q43 0 85 24.5t78 64.5t61 88l12 -9
q-27 -60 -68.5 -104t-90 -68.5t-98.5 -24.5zM59 124q27 9 61 26.5t65.5 41.5t52 53t20.5 61q0 11 -4 17t-17 6q-24 0 -51 -18.5t-52 -48.5t-45 -66t-30 -72zM361 432q-22 0 -55 5.5t-69.5 13t-69 14t-55.5 8.5q10 26 46 26q37 0 79 -7.5t84.5 -18t77.5 -21.5
q-14 -20 -38 -20z" />
    <glyph glyph-name="Ebreve" unicode="&#x114;" horiz-adv-x="498" 
d="M180 -87q-60 0 -104 25t-67.5 66.5t-23.5 90.5q0 46 20 90t55.5 80.5t82.5 60t101 28.5q-39 32 -57.5 74t-18.5 84q0 53 26.5 100.5t73.5 77t106 29.5q56 0 85 -28t29 -80q0 -37 -13 -72t-31.5 -57t-35.5 -22q-11 0 -21 9.5t-16 22.5q35 31 59.5 65.5t24.5 73.5
q0 31 -18 48t-53 17q-46 0 -78 -27.5t-48.5 -73t-16.5 -100.5q0 -36 11 -78t47 -73q-67 -11 -116.5 -51t-77 -94t-27.5 -107q0 -33 12.5 -66.5t40.5 -56t75 -22.5q53 0 105.5 30t96.5 79t70 106l14 -10q-35 -68 -82 -122t-105 -85.5t-125 -31.5zM452 758q-38 0 -60.5 15.5
t-32.5 37t-10 39.5t6.5 30t17.5 19q3 -34 21.5 -62.5t59.5 -28.5q38 0 61 19.5t35 40.5q6 -6 8 -14.5t2 -15.5q0 -34 -32.5 -57t-75.5 -23z" />
    <glyph glyph-name="ebreve" unicode="&#x115;" horiz-adv-x="333" 
d="M108 -44q-61 0 -91.5 33.5t-30.5 82.5q0 45 22.5 95t60 94t82.5 71.5t89 27.5q23 0 42.5 -12t19.5 -49q0 -38 -22.5 -71.5t-59 -59.5t-80 -42.5t-86.5 -20.5q-2 -10 -3 -19t-1 -17q0 -15 3.5 -30t12.5 -27.5t24.5 -19.5t38.5 -7q43 0 85 24.5t78 64.5t61 88l12 -9
q-27 -60 -68.5 -104t-90 -68.5t-98.5 -24.5zM59 124q27 9 61 26.5t65.5 41.5t52 53t20.5 61q0 11 -4 17t-17 6q-24 0 -51 -18.5t-52 -48.5t-45 -66t-30 -72zM283 418q-38 0 -60.5 15.5t-32.5 37t-10 39.5t6.5 30t17.5 19q3 -34 21.5 -62.5t59.5 -28.5q38 0 61 19.5t35 40.5
q6 -6 8 -14.5t2 -15.5q0 -34 -32.5 -57t-75.5 -23z" />
    <glyph glyph-name="Edotaccent" unicode="&#x116;" horiz-adv-x="498" 
d="M180 -87q-60 0 -104 25t-67.5 66.5t-23.5 90.5q0 46 20 90t55.5 80.5t82.5 60t101 28.5q-39 32 -57.5 74t-18.5 84q0 53 26.5 100.5t73.5 77t106 29.5q56 0 85 -28t29 -80q0 -37 -13 -72t-31.5 -57t-35.5 -22q-11 0 -21 9.5t-16 22.5q35 31 59.5 65.5t24.5 73.5
q0 31 -18 48t-53 17q-46 0 -78 -27.5t-48.5 -73t-16.5 -100.5q0 -36 11 -78t47 -73q-67 -11 -116.5 -51t-77 -94t-27.5 -107q0 -33 12.5 -66.5t40.5 -56t75 -22.5q53 0 105.5 30t96.5 79t70 106l14 -10q-35 -68 -82 -122t-105 -85.5t-125 -31.5zM427 771q-18 0 -29 8.5
t-11 24.5q0 22 21.5 35.5t43.5 13.5q17 0 26 -8.5t9 -24.5q0 -19 -19 -34t-41 -15z" />
    <glyph glyph-name="edotaccent" unicode="&#x117;" horiz-adv-x="333" 
d="M108 -44q-61 0 -91.5 33.5t-30.5 82.5q0 45 22.5 95t60 94t82.5 71.5t89 27.5q23 0 42.5 -12t19.5 -49q0 -38 -22.5 -71.5t-59 -59.5t-80 -42.5t-86.5 -20.5q-2 -10 -3 -19t-1 -17q0 -15 3.5 -30t12.5 -27.5t24.5 -19.5t38.5 -7q43 0 85 24.5t78 64.5t61 88l12 -9
q-27 -60 -68.5 -104t-90 -68.5t-98.5 -24.5zM59 124q27 9 61 26.5t65.5 41.5t52 53t20.5 61q0 11 -4 17t-17 6q-24 0 -51 -18.5t-52 -48.5t-45 -66t-30 -72zM268 417q-18 0 -29 8.5t-11 24.5q0 22 21.5 35.5t43.5 13.5q17 0 26 -8.5t9 -24.5q0 -19 -19 -34t-41 -15z" />
    <glyph glyph-name="Eogonek" unicode="&#x118;" horiz-adv-x="498" 
d="M180 -87q-60 0 -104 25t-67.5 66.5t-23.5 90.5q0 46 20 90t55.5 80.5t82.5 60t101 28.5q-39 32 -57.5 74t-18.5 84q0 53 26.5 100.5t73.5 77t106 29.5q56 0 85 -28t29 -80q0 -37 -13 -72t-31.5 -57t-35.5 -22q-11 0 -21 9.5t-16 22.5q35 31 59.5 65.5t24.5 73.5
q0 31 -18 48t-53 17q-46 0 -78 -27.5t-48.5 -73t-16.5 -100.5q0 -36 11 -78t47 -73q-67 -11 -116.5 -51t-77 -94t-27.5 -107q0 -33 12.5 -66.5t40.5 -56t75 -22.5q53 0 105.5 30t96.5 79t70 106l14 -10q-35 -68 -82 -122t-105 -85.5t-125 -31.5zM345 -174q-31 0 -50 19
t-19 49q0 33 21.5 53.5t50.5 24.5q-16 -11 -26 -25t-10 -34q0 -17 12 -30.5t37 -13.5q14 0 26 4t24 13q-1 -28 -19 -44t-47 -16z" />
    <glyph glyph-name="eogonek" unicode="&#x119;" horiz-adv-x="333" 
d="M108 -44q-61 0 -91.5 33.5t-30.5 82.5q0 45 22.5 95t60 94t82.5 71.5t89 27.5q23 0 42.5 -12t19.5 -49q0 -38 -22.5 -71.5t-59 -59.5t-80 -42.5t-86.5 -20.5q-2 -10 -3 -19t-1 -17q0 -15 3.5 -30t12.5 -27.5t24.5 -19.5t38.5 -7q43 0 85 24.5t78 64.5t61 88l12 -9
q-27 -60 -68.5 -104t-90 -68.5t-98.5 -24.5zM59 124q27 9 61 26.5t65.5 41.5t52 53t20.5 61q0 11 -4 17t-17 6q-24 0 -51 -18.5t-52 -48.5t-45 -66t-30 -72zM237 -146q-31 0 -50 19t-19 49q0 33 21.5 53.5t50.5 24.5q-16 -11 -26 -25t-10 -34q0 -17 12 -30.5t37 -13.5
q14 0 26 4t24 13q-1 -28 -19 -44t-47 -16z" />
    <glyph glyph-name="Ecaron" unicode="&#x11a;" horiz-adv-x="498" 
d="M180 -87q-60 0 -104 25t-67.5 66.5t-23.5 90.5q0 46 20 90t55.5 80.5t82.5 60t101 28.5q-39 32 -57.5 74t-18.5 84q0 53 26.5 100.5t73.5 77t106 29.5q56 0 85 -28t29 -80q0 -37 -13 -72t-31.5 -57t-35.5 -22q-11 0 -21 9.5t-16 22.5q35 31 59.5 65.5t24.5 73.5
q0 31 -18 48t-53 17q-46 0 -78 -27.5t-48.5 -73t-16.5 -100.5q0 -36 11 -78t47 -73q-67 -11 -116.5 -51t-77 -94t-27.5 -107q0 -33 12.5 -66.5t40.5 -56t75 -22.5q53 0 105.5 30t96.5 79t70 106l14 -10q-35 -68 -82 -122t-105 -85.5t-125 -31.5zM419 754q-12 0 -27.5 11
t-29.5 28.5t-23.5 36.5t-9.5 35q0 10 4 18.5t13 12.5q14 -28 32 -48.5t42 -43.5q31 11 56 24t47 33q6 -4 8 -9t2 -10q0 -15 -13.5 -30t-33 -28.5t-38.5 -21.5t-29 -8z" />
    <glyph glyph-name="ecaron" unicode="&#x11b;" horiz-adv-x="333" 
d="M108 -44q-61 0 -91.5 33.5t-30.5 82.5q0 45 22.5 95t60 94t82.5 71.5t89 27.5q23 0 42.5 -12t19.5 -49q0 -38 -22.5 -71.5t-59 -59.5t-80 -42.5t-86.5 -20.5q-2 -10 -3 -19t-1 -17q0 -15 3.5 -30t12.5 -27.5t24.5 -19.5t38.5 -7q43 0 85 24.5t78 64.5t61 88l12 -9
q-27 -60 -68.5 -104t-90 -68.5t-98.5 -24.5zM59 124q27 9 61 26.5t65.5 41.5t52 53t20.5 61q0 11 -4 17t-17 6q-24 0 -51 -18.5t-52 -48.5t-45 -66t-30 -72zM270 418q-12 0 -27.5 11t-29.5 28.5t-23.5 36.5t-9.5 35q0 10 4 18.5t13 12.5q14 -28 32 -48.5t42 -43.5
q31 11 56 24t47 33q6 -4 8 -9t2 -10q0 -15 -13.5 -30t-33 -28.5t-38.5 -21.5t-29 -8z" />
    <glyph glyph-name="Gcircumflex" unicode="&#x11c;" horiz-adv-x="554" 
d="M209 -87q-52 0 -94.5 29.5t-67.5 85t-25 133.5q0 77 24 156t65.5 151t94.5 128.5t111.5 89.5t115.5 33q38 0 61 -16t33 -41.5t10 -55.5q0 -35 -12 -68.5t-32 -55.5t-44 -22q-8 0 -16.5 5t-14.5 18q14 10 32.5 36t32 58t13.5 59q0 23 -13.5 38t-46.5 15q-43 0 -89.5 -35
t-90 -93.5t-78.5 -130.5t-55.5 -147t-20.5 -142q0 -91 38 -142.5t96 -51.5q39 0 74 28.5t62 74t43.5 98.5t20.5 102q-37 8 -60 10.5t-43 2.5q-13 0 -27.5 -0.5t-33.5 -0.5q7 29 24.5 40.5t43.5 11.5q28 0 58.5 -9.5t59.5 -20.5t51 -17l-7 -32q-19 -50 -31 -87.5t-18.5 -66
t-9 -50.5t-2.5 -40q0 -20 1.5 -39t2.5 -39q-16 7 -28.5 16.5t-19 23.5t-6.5 32q0 11 1.5 22t5.5 24q-36 -50 -83 -84t-106 -34zM585 744q-14 29 -32 49.5t-42 42.5q-31 -11 -55.5 -24t-47.5 -33q-6 4 -8 9.5t-2 9.5q0 15 13.5 30t33 28.5t38.5 21.5t29 8q12 0 27.5 -11
t29.5 -28.5t23.5 -36.5t9.5 -35q0 -10 -4 -18t-13 -13z" />
    <glyph glyph-name="gcircumflex" unicode="&#x11d;" horiz-adv-x="389" 
d="M38 -280q-22 0 -40 13.5t-18 44.5q0 30 18.5 55.5t47.5 47t63.5 39.5t65.5 34q14 35 26.5 75.5t24.5 89.5q-38 -55 -79.5 -91.5t-83.5 -36.5q-36 0 -55.5 27t-19.5 70q0 52 25.5 99t66.5 83t87 56.5t86 20.5q29 0 41.5 -9.5t12.5 -22.5q0 -9 -5 -14t-7 -6q-5 8 -15 11.5
t-25 3.5q-39 0 -75.5 -23t-64.5 -59t-44.5 -74.5t-16.5 -70.5q0 -24 9.5 -36.5t25.5 -12.5q29 0 69.5 38.5t78.5 93.5q3 14 5.5 25t6.5 28q3 14 14.5 32.5t36.5 18.5q5 0 10 -0.5t11 -2.5q0 -16 -9.5 -58.5t-27 -99t-40.5 -116.5q33 16 64.5 41t57.5 57.5t41 70.5l13 -10
q-15 -45 -48 -82t-70.5 -64t-68.5 -42q-28 -67 -59 -122.5t-64.5 -88.5t-71.5 -33zM35 -248q20 0 54.5 39.5t74.5 135.5q-40 -20 -74.5 -41.5t-56.5 -45.5t-22 -53q0 -16 7 -25.5t17 -9.5zM382 396q-14 29 -32 49.5t-42 42.5q-31 -11 -55.5 -24t-47.5 -33q-6 4 -8 9.5
t-2 9.5q0 15 13.5 30t33 28.5t38.5 21.5t29 8q12 0 27.5 -11t29.5 -28.5t23.5 -36.5t9.5 -35q0 -10 -4 -18t-13 -13z" />
    <glyph glyph-name="Gbreve" unicode="&#x11e;" horiz-adv-x="554" 
d="M209 -87q-52 0 -94.5 29.5t-67.5 85t-25 133.5q0 77 24 156t65.5 151t94.5 128.5t111.5 89.5t115.5 33q38 0 61 -16t33 -41.5t10 -55.5q0 -35 -12 -68.5t-32 -55.5t-44 -22q-8 0 -16.5 5t-14.5 18q14 10 32.5 36t32 58t13.5 59q0 23 -13.5 38t-46.5 15q-43 0 -89.5 -35
t-90 -93.5t-78.5 -130.5t-55.5 -147t-20.5 -142q0 -91 38 -142.5t96 -51.5q39 0 74 28.5t62 74t43.5 98.5t20.5 102q-37 8 -60 10.5t-43 2.5q-13 0 -27.5 -0.5t-33.5 -0.5q7 29 24.5 40.5t43.5 11.5q28 0 58.5 -9.5t59.5 -20.5t51 -17l-7 -32q-19 -50 -31 -87.5t-18.5 -66
t-9 -50.5t-2.5 -40q0 -20 1.5 -39t2.5 -39q-16 7 -28.5 16.5t-19 23.5t-6.5 32q0 11 1.5 22t5.5 24q-36 -50 -83 -84t-106 -34zM523 758q-38 0 -60.5 15.5t-32.5 37t-10 39.5t6.5 30t17.5 19q3 -34 21.5 -62.5t59.5 -28.5q38 0 61 19.5t35 40.5q6 -6 8 -14.5t2 -15.5
q0 -34 -32.5 -57t-75.5 -23z" />
    <glyph glyph-name="gbreve" unicode="&#x11f;" horiz-adv-x="389" 
d="M38 -280q-22 0 -40 13.5t-18 44.5q0 30 18.5 55.5t47.5 47t63.5 39.5t65.5 34q14 35 26.5 75.5t24.5 89.5q-38 -55 -79.5 -91.5t-83.5 -36.5q-36 0 -55.5 27t-19.5 70q0 52 25.5 99t66.5 83t87 56.5t86 20.5q29 0 41.5 -9.5t12.5 -22.5q0 -9 -5 -14t-7 -6q-5 8 -15 11.5
t-25 3.5q-39 0 -75.5 -23t-64.5 -59t-44.5 -74.5t-16.5 -70.5q0 -24 9.5 -36.5t25.5 -12.5q29 0 69.5 38.5t78.5 93.5q3 14 5.5 25t6.5 28q3 14 14.5 32.5t36.5 18.5q5 0 10 -0.5t11 -2.5q0 -16 -9.5 -58.5t-27 -99t-40.5 -116.5q33 16 64.5 41t57.5 57.5t41 70.5l13 -10
q-15 -45 -48 -82t-70.5 -64t-68.5 -42q-28 -67 -59 -122.5t-64.5 -88.5t-71.5 -33zM35 -248q20 0 54.5 39.5t74.5 135.5q-40 -20 -74.5 -41.5t-56.5 -45.5t-22 -53q0 -16 7 -25.5t17 -9.5zM305 404q-38 0 -60.5 15.5t-32.5 37t-10 39.5t6.5 30t17.5 19q3 -34 21.5 -62.5
t59.5 -28.5q38 0 61 19.5t35 40.5q6 -6 8 -14.5t2 -15.5q0 -34 -32.5 -57t-75.5 -23z" />
    <glyph glyph-name="Gdotaccent" unicode="&#x120;" horiz-adv-x="554" 
d="M209 -87q-52 0 -94.5 29.5t-67.5 85t-25 133.5q0 77 24 156t65.5 151t94.5 128.5t111.5 89.5t115.5 33q38 0 61 -16t33 -41.5t10 -55.5q0 -35 -12 -68.5t-32 -55.5t-44 -22q-8 0 -16.5 5t-14.5 18q14 10 32.5 36t32 58t13.5 59q0 23 -13.5 38t-46.5 15q-43 0 -89.5 -35
t-90 -93.5t-78.5 -130.5t-55.5 -147t-20.5 -142q0 -91 38 -142.5t96 -51.5q39 0 74 28.5t62 74t43.5 98.5t20.5 102q-37 8 -60 10.5t-43 2.5q-13 0 -27.5 -0.5t-33.5 -0.5q7 29 24.5 40.5t43.5 11.5q28 0 58.5 -9.5t59.5 -20.5t51 -17l-7 -32q-19 -50 -31 -87.5t-18.5 -66
t-9 -50.5t-2.5 -40q0 -20 1.5 -39t2.5 -39q-16 7 -28.5 16.5t-19 23.5t-6.5 32q0 11 1.5 22t5.5 24q-36 -50 -83 -84t-106 -34zM498 771q-18 0 -29 8.5t-11 24.5q0 22 21.5 35.5t43.5 13.5q17 0 26 -8.5t9 -24.5q0 -19 -19 -34t-41 -15z" />
    <glyph glyph-name="gdotaccent" unicode="&#x121;" horiz-adv-x="389" 
d="M38 -280q-22 0 -40 13.5t-18 44.5q0 30 18.5 55.5t47.5 47t63.5 39.5t65.5 34q14 35 26.5 75.5t24.5 89.5q-38 -55 -79.5 -91.5t-83.5 -36.5q-36 0 -55.5 27t-19.5 70q0 52 25.5 99t66.5 83t87 56.5t86 20.5q29 0 41.5 -9.5t12.5 -22.5q0 -9 -5 -14t-7 -6q-5 8 -15 11.5
t-25 3.5q-39 0 -75.5 -23t-64.5 -59t-44.5 -74.5t-16.5 -70.5q0 -24 9.5 -36.5t25.5 -12.5q29 0 69.5 38.5t78.5 93.5q3 14 5.5 25t6.5 28q3 14 14.5 32.5t36.5 18.5q5 0 10 -0.5t11 -2.5q0 -16 -9.5 -58.5t-27 -99t-40.5 -116.5q33 16 64.5 41t57.5 57.5t41 70.5l13 -10
q-15 -45 -48 -82t-70.5 -64t-68.5 -42q-28 -67 -59 -122.5t-64.5 -88.5t-71.5 -33zM35 -248q20 0 54.5 39.5t74.5 135.5q-40 -20 -74.5 -41.5t-56.5 -45.5t-22 -53q0 -16 7 -25.5t17 -9.5zM290 403q-18 0 -29 8.5t-11 24.5q0 22 21.5 35.5t43.5 13.5q17 0 26 -8.5t9 -24.5
q0 -19 -19 -34t-41 -15z" />
    <glyph glyph-name="uni0122" unicode="&#x122;" horiz-adv-x="554" 
d="M209 -87q-52 0 -94.5 29.5t-67.5 85t-25 133.5q0 77 24 156t65.5 151t94.5 128.5t111.5 89.5t115.5 33q38 0 61 -16t33 -41.5t10 -55.5q0 -35 -12 -68.5t-32 -55.5t-44 -22q-8 0 -16.5 5t-14.5 18q14 10 32.5 36t32 58t13.5 59q0 23 -13.5 38t-46.5 15q-43 0 -89.5 -35
t-90 -93.5t-78.5 -130.5t-55.5 -147t-20.5 -142q0 -91 38 -142.5t96 -51.5q39 0 74 28.5t62 74t43.5 98.5t20.5 102q-37 8 -60 10.5t-43 2.5q-13 0 -27.5 -0.5t-33.5 -0.5q7 29 24.5 40.5t43.5 11.5q28 0 58.5 -9.5t59.5 -20.5t51 -17l-7 -32q-19 -50 -31 -87.5t-18.5 -66
t-9 -50.5t-2.5 -40q0 -20 1.5 -39t2.5 -39q-16 7 -28.5 16.5t-19 23.5t-6.5 32q0 11 1.5 22t5.5 24q-36 -50 -83 -84t-106 -34zM169 -273q-9 5 -13 15t-4 22q0 20 9 45.5t23 43.5t29 18q10 0 17.5 -8.5t7.5 -19.5q-28 -29 -41.5 -58t-27.5 -58z" />
    <glyph glyph-name="uni0123" unicode="&#x123;" horiz-adv-x="389" 
d="M38 -280q-22 0 -40 13.5t-18 44.5q0 30 18.5 55.5t47.5 47t63.5 39.5t65.5 34q14 35 26.5 75.5t24.5 89.5q-38 -55 -79.5 -91.5t-83.5 -36.5q-36 0 -55.5 27t-19.5 70q0 52 25.5 99t66.5 83t87 56.5t86 20.5q29 0 41.5 -9.5t12.5 -22.5q0 -9 -5 -14t-7 -6q-5 8 -15 11.5
t-25 3.5q-39 0 -75.5 -23t-64.5 -59t-44.5 -74.5t-16.5 -70.5q0 -24 9.5 -36.5t25.5 -12.5q29 0 69.5 38.5t78.5 93.5q3 14 5.5 25t6.5 28q3 14 14.5 32.5t36.5 18.5q5 0 10 -0.5t11 -2.5q0 -16 -9.5 -58.5t-27 -99t-40.5 -116.5q33 16 64.5 41t57.5 57.5t41 70.5l13 -10
q-15 -45 -48 -82t-70.5 -64t-68.5 -42q-28 -67 -59 -122.5t-64.5 -88.5t-71.5 -33zM35 -248q20 0 54.5 39.5t74.5 135.5q-40 -20 -74.5 -41.5t-56.5 -45.5t-22 -53q0 -16 7 -25.5t17 -9.5zM267 386q-9 0 -17 6.5t-8 19.5q0 19 14.5 43t35.5 42t39 18q9 0 14 -4
q-19 -26 -35.5 -58.5t-26.5 -61.5q-7 -5 -16 -5z" />
    <glyph glyph-name="Hcircumflex" unicode="&#x124;" horiz-adv-x="617" 
d="M55 -87q6 35 14 71.5t20.5 82t30.5 105.5t45 142q-16 -1 -32.5 -3t-33.5 -4q1 25 23.5 39.5t59.5 21.5l14.5 43.5t15.5 47t17 50t18.5 53.5t19.5 57q4 11 9 27.5t5 31.5q0 8 -2.5 11t-11.5 3q-24 0 -46.5 -19.5t-40 -49.5t-27.5 -62t-10 -57q0 -9 1.5 -18t3.5 -16
q-33 0 -46.5 16.5t-13.5 40.5q0 34 20 68t51.5 62.5t66 45.5t62.5 17q27 0 36.5 -15t9.5 -33q0 -11 -2.5 -22t-5.5 -21l-78 -254q14 1 28.5 1.5t29.5 0.5q47 0 89.5 -2.5t80.5 -6.5q20 64 39.5 126t36 108.5t25.5 65.5q4 8 11 20t18.5 22t25.5 10q-14 -37 -32 -94.5
t-36.5 -125.5t-36.5 -136q20 -1 38.5 -2.5t36.5 -1.5q-22 -23 -43 -27.5t-41 -4.5q-9 -37 -17 -71.5t-14 -65.5q-18 -85 -25.5 -145t-7.5 -97q0 -12 0.5 -20.5t1.5 -15.5q-39 4 -54 22t-15 56q0 26 6 65.5t18 85.5q8 30 22 79.5t31 105.5q-61 0 -102 -1t-71 -2t-60 -4
q-18 -58 -36 -115l-33 -104.5t-25 -80.5t-13 -43q-10 -34 -31.5 -49t-37.5 -15zM558 744q-14 29 -32 49.5t-42 42.5q-31 -11 -55.5 -24t-47.5 -33q-6 4 -8 9.5t-2 9.5q0 15 13.5 30t33 28.5t38.5 21.5t29 8q12 0 27.5 -11t29.5 -28.5t23.5 -36.5t9.5 -35q0 -10 -4 -18
t-13 -13z" />
    <glyph glyph-name="hcircumflex" unicode="&#x125;" horiz-adv-x="476" 
d="M47 -38q-19 0 -30 32t-11 72q0 48 16 114t42 139t58.5 143t66.5 127t64 91t52 34q18 0 25.5 -21.5t7.5 -41.5q0 -28 -12.5 -68t-34.5 -85.5t-51 -89.5t-63 -80.5t-69 -57.5q-12 -29 -20.5 -65t-12.5 -70.5t-4 -61.5q0 -11 0.5 -19t1.5 -15q14 41 30.5 79.5t35.5 71
t40.5 57t45.5 38t51 13.5q28 0 44.5 -13.5t24 -34t7.5 -42.5q0 -31 -10.5 -60t-21.5 -56t-11 -52q0 -20 8.5 -29t21.5 -9q23 0 51.5 22t56.5 58.5t48 79.5l13 -12q-21 -49 -51 -88.5t-66 -62.5t-75 -23q-34 0 -51.5 18t-17.5 45q0 21 8 47t15.5 53t7.5 51q0 26 -11 37
t-27 11q-25 0 -45 -20t-36.5 -51.5t-31 -66.5t-27.5 -66.5t-26 -51.5t-27 -20zM121 309q28 22 54.5 56t49.5 72.5t41 75.5t28 67t10 45q0 5 -1 6.5t-3 1.5q-7 0 -28.5 -27.5t-49.5 -73.5t-55 -104t-46 -119zM429 738q-14 29 -32 49.5t-42 42.5q-31 -11 -55.5 -24t-47.5 -33
q-6 4 -8 9.5t-2 9.5q0 15 13.5 30t33 28.5t38.5 21.5t29 8q12 0 27.5 -11t29.5 -28.5t23.5 -36.5t9.5 -35q0 -10 -4 -18t-13 -13z" />
    <glyph glyph-name="Hbar" unicode="&#x126;" horiz-adv-x="618" 
d="M55 -87q7 37 16.5 80.5t25 99.5t38.5 130t55.5 171.5t76.5 224.5q4 11 9 27.5t5 31.5q0 14 -14 14q-23 0 -46 -20t-37.5 -50t-14.5 -60q0 -8 1 -17t2 -15q-32 0 -45 13t-13 32q0 31 15 57.5t39.5 46t53 30.5t55.5 11q34 0 45.5 -15t11.5 -33q0 -11 -2.5 -22t-5.5 -21
q-36 -115 -64.5 -206.5t-50 -161.5t-37 -121t-26 -84.5t-16.5 -52.5t-8 -26q-10 -34 -31.5 -49t-37.5 -15zM456 -87q-39 4 -54 22t-15 56q0 26 6 65.5t18 85.5q7 27 19.5 72t29 99t33.5 110t33.5 106t30 87t20.5 52q4 8 11 20t18.5 22t25.5 10q-12 -31 -27 -79t-31.5 -105.5
t-33 -119t-30 -119.5t-23.5 -106q-18 -85 -25.5 -145t-7.5 -97q0 -12 0.5 -20.5t1.5 -15.5zM95 287q1 26 24.5 40.5t58 20.5t69 7.5t55.5 1.5q105 0 180 -8.5t116 -8.5q-9 -17 -33 -24.5t-61.5 -9.5t-86 -1.5t-107.5 -0.5q-32 0 -67 -2t-72 -5.5t-76 -9.5zM116 412
q2 26 40 41.5t103 22.5t147 7q67 0 125 -2.5t112 -8.5q-5 -19 -37 -27.5t-96 -11t-167 -2.5q-85 0 -137 -4t-90 -15z" />
    <glyph glyph-name="hbar" unicode="&#x127;" horiz-adv-x="477" 
d="M47 -38q-19 0 -30 32t-11 72q0 47 15 112t40.5 137t57.5 141.5t66 125.5q41 68 77.5 100t74.5 32q-36 -47 -73.5 -107t-72 -128t-61.5 -139t-43 -139t-16 -128q0 -11 0.5 -19t1.5 -15q14 41 30.5 79.5t35.5 71t40.5 57t45.5 38t51 13.5q28 0 44.5 -13.5t24 -34t7.5 -42.5
q0 -31 -10.5 -60t-21.5 -56t-11 -52q0 -20 8.5 -29t21.5 -9q23 0 51.5 22t56.5 58.5t48 79.5l13 -12q-21 -49 -51 -88.5t-66 -62.5t-75 -23q-34 0 -51.5 18t-17.5 45q0 21 8 47t15.5 53t7.5 51q0 26 -11 37t-27 11q-25 0 -45 -20t-36.5 -51.5t-31 -66.5t-27.5 -66.5
t-26 -51.5t-27 -20zM54 524q9 26 51.5 37t121.5 12q38 1 74 -0.5t65 -3.5t45 -5q-25 -18 -53.5 -23.5t-49.5 -5.5h-83t-63 -1t-53.5 -3t-54.5 -7z" />
    <glyph glyph-name="Itilde" unicode="&#x128;" horiz-adv-x="459" 
d="M-38 -88q4 37 26.5 53.5t58.5 21.5t78 5q18 39 36 95.5t34.5 121.5t32.5 132.5t30 129.5t26.5 111.5t22.5 78.5q-52 -1 -88.5 -3t-68 -6t-68.5 -11q7 38 55 57.5t149 19.5q50 0 101.5 -4t94.5 -8.5t66 -8.5q-24 -24 -50.5 -29.5t-46.5 -5.5h-58.5t-50.5 -1
q-4 -21 -12 -65.5t-19 -102t-23 -119t-23.5 -117t-21.5 -95.5q-16 -64 -36 -108t-48 -63q52 -3 111 -10.5t106 -8.5q-29 -29 -60.5 -36t-52.5 -7q-40 0 -78.5 -0.5t-76 -1.5t-74 -4.5t-72.5 -10.5zM434 761q-27 0 -56 11.5t-58.5 23t-60.5 11.5q-13 0 -27 -3.5t-27 -11.5
q20 28 42 39t45 11q28 0 58 -12t63 -24t69 -12q16 0 34 8q-19 -23 -39.5 -32t-42.5 -9z" />
    <glyph glyph-name="itilde" unicode="&#x129;" horiz-adv-x="242" 
d="M72 -26q-39 0 -58 24.5t-19 59.5q0 23 8.5 58t22.5 73.5t32.5 72.5t39.5 55.5t41 21.5q9 0 15.5 -5.5t6.5 -16.5q0 -12 -15.5 -39t-36.5 -62t-36.5 -73.5t-15.5 -73.5q0 -36 12 -48t37 -12q34 0 72.5 34t81.5 119l9 -10q-29 -86 -83.5 -132t-113.5 -46zM277 403
q-27 0 -56 11.5t-58.5 23t-60.5 11.5q-13 0 -27 -3.5t-27 -11.5q20 28 42 39t45 11q28 0 58 -12t63 -24t69 -12q16 0 34 8q-19 -23 -39.5 -32t-42.5 -9z" />
    <glyph glyph-name="Imacron" unicode="&#x12a;" horiz-adv-x="459" 
d="M-38 -88q4 37 26.5 53.5t58.5 21.5t78 5q18 39 36 95.5t34.5 121.5t32.5 132.5t30 129.5t26.5 111.5t22.5 78.5q-52 -1 -88.5 -3t-68 -6t-68.5 -11q7 38 55 57.5t149 19.5q50 0 101.5 -4t94.5 -8.5t66 -8.5q-24 -24 -50.5 -29.5t-46.5 -5.5h-58.5t-50.5 -1
q-4 -21 -12 -65.5t-19 -102t-23 -119t-23.5 -117t-21.5 -95.5q-16 -64 -36 -108t-48 -63q52 -3 111 -10.5t106 -8.5q-29 -29 -60.5 -36t-52.5 -7q-40 0 -78.5 -0.5t-76 -1.5t-74 -4.5t-72.5 -10.5zM456 756q-22 0 -55 5.5t-69.5 13t-69 14t-55.5 8.5q10 26 46 26
q37 0 79 -7.5t84.5 -18t77.5 -21.5q-14 -20 -38 -20z" />
    <glyph glyph-name="imacron" unicode="&#x12b;" horiz-adv-x="242" 
d="M72 -26q-39 0 -58 24.5t-19 59.5q0 23 8.5 58t22.5 73.5t32.5 72.5t39.5 55.5t41 21.5q9 0 15.5 -5.5t6.5 -16.5q0 -12 -15.5 -39t-36.5 -62t-36.5 -73.5t-15.5 -73.5q0 -36 12 -48t37 -12q34 0 72.5 34t81.5 119l9 -10q-29 -86 -83.5 -132t-113.5 -46zM280 425
q-22 0 -55 5.5t-69.5 13t-69 14t-55.5 8.5q10 26 46 26q37 0 79 -7.5t84.5 -18t77.5 -21.5q-14 -20 -38 -20z" />
    <glyph glyph-name="Ibreve" unicode="&#x12c;" horiz-adv-x="459" 
d="M-38 -88q4 37 26.5 53.5t58.5 21.5t78 5q18 39 36 95.5t34.5 121.5t32.5 132.5t30 129.5t26.5 111.5t22.5 78.5q-52 -1 -88.5 -3t-68 -6t-68.5 -11q7 38 55 57.5t149 19.5q50 0 101.5 -4t94.5 -8.5t66 -8.5q-24 -24 -50.5 -29.5t-46.5 -5.5h-58.5t-50.5 -1
q-4 -21 -12 -65.5t-19 -102t-23 -119t-23.5 -117t-21.5 -95.5q-16 -64 -36 -108t-48 -63q52 -3 111 -10.5t106 -8.5q-29 -29 -60.5 -36t-52.5 -7q-40 0 -78.5 -0.5t-76 -1.5t-74 -4.5t-72.5 -10.5zM378 758q-38 0 -60.5 15.5t-32.5 37t-10 39.5t6.5 30t17.5 19
q3 -34 21.5 -62.5t59.5 -28.5q38 0 61 19.5t35 40.5q6 -6 8 -14.5t2 -15.5q0 -34 -32.5 -57t-75.5 -23z" />
    <glyph glyph-name="ibreve" unicode="&#x12d;" horiz-adv-x="242" 
d="M72 -26q-39 0 -58 24.5t-19 59.5q0 23 8.5 58t22.5 73.5t32.5 72.5t39.5 55.5t41 21.5q9 0 15.5 -5.5t6.5 -16.5q0 -12 -15.5 -39t-36.5 -62t-36.5 -73.5t-15.5 -73.5q0 -36 12 -48t37 -12q34 0 72.5 34t81.5 119l9 -10q-29 -86 -83.5 -132t-113.5 -46zM202 411
q-38 0 -60.5 15.5t-32.5 37t-10 39.5t6.5 30t17.5 19q3 -34 21.5 -62.5t59.5 -28.5q38 0 61 19.5t35 40.5q6 -6 8 -14.5t2 -15.5q0 -34 -32.5 -57t-75.5 -23z" />
    <glyph glyph-name="Iogonek" unicode="&#x12e;" horiz-adv-x="459" 
d="M-38 -88q4 37 26.5 53.5t58.5 21.5t78 5q18 39 36 95.5t34.5 121.5t32.5 132.5t30 129.5t26.5 111.5t22.5 78.5q-52 -1 -88.5 -3t-68 -6t-68.5 -11q7 38 55 57.5t149 19.5q50 0 101.5 -4t94.5 -8.5t66 -8.5q-24 -24 -50.5 -29.5t-46.5 -5.5h-58.5t-50.5 -1
q-4 -21 -12 -65.5t-19 -102t-23 -119t-23.5 -117t-21.5 -95.5q-16 -64 -36 -108t-48 -63q52 -3 111 -10.5t106 -8.5q-29 -29 -60.5 -36t-52.5 -7q-40 0 -78.5 -0.5t-76 -1.5t-74 -4.5t-72.5 -10.5zM156 -202q-31 0 -50 19t-19 49q0 33 21.5 53.5t50.5 24.5q-16 -11 -26 -25
t-10 -34q0 -17 12 -30.5t37 -13.5q14 0 26 4t24 13q-1 -28 -19 -44t-47 -16z" />
    <glyph glyph-name="iogonek" unicode="&#x12f;" horiz-adv-x="241" 
d="M72 -26q-39 0 -58 24.5t-19 59.5q0 23 8.5 58t22.5 73.5t32.5 72.5t39.5 55.5t41 21.5q9 0 15.5 -5.5t6.5 -16.5q0 -12 -15.5 -39t-36.5 -62t-36.5 -73.5t-15.5 -73.5q0 -36 12 -48t37 -12q34 0 72.5 34t81.5 119l9 -10q-29 -86 -83.5 -132t-113.5 -46zM192 432
q-16 0 -28.5 8t-12.5 25q0 21 24.5 36.5t48.5 15.5q15 0 24 -7t9 -24q0 -19 -20.5 -36.5t-44.5 -17.5zM83 -146q-31 0 -50 19t-19 49q0 33 21.5 53.5t50.5 24.5q-16 -11 -26 -25t-10 -34q0 -17 12 -30.5t37 -13.5q14 0 26 4t24 13q-1 -28 -19 -44t-47 -16z" />
    <glyph glyph-name="Idotaccent" unicode="&#x130;" horiz-adv-x="459" 
d="M-38 -88q4 37 26.5 53.5t58.5 21.5t78 5q18 39 36 95.5t34.5 121.5t32.5 132.5t30 129.5t26.5 111.5t22.5 78.5q-52 -1 -88.5 -3t-68 -6t-68.5 -11q7 38 55 57.5t149 19.5q50 0 101.5 -4t94.5 -8.5t66 -8.5q-24 -24 -50.5 -29.5t-46.5 -5.5h-58.5t-50.5 -1
q-4 -21 -12 -65.5t-19 -102t-23 -119t-23.5 -117t-21.5 -95.5q-16 -64 -36 -108t-48 -63q52 -3 111 -10.5t106 -8.5q-29 -29 -60.5 -36t-52.5 -7q-40 0 -78.5 -0.5t-76 -1.5t-74 -4.5t-72.5 -10.5zM353 771q-18 0 -29 8.5t-11 24.5q0 22 21.5 35.5t43.5 13.5q17 0 26 -8.5
t9 -24.5q0 -19 -19 -34t-41 -15z" />
    <glyph glyph-name="dotlessi" unicode="&#x131;" horiz-adv-x="242" 
d="M72 -26q-39 0 -58 24.5t-19 59.5q0 23 8.5 58t22.5 73.5t32.5 72.5t39.5 55.5t41 21.5q9 0 15.5 -5.5t6.5 -16.5q0 -12 -15.5 -39t-36.5 -62t-36.5 -73.5t-15.5 -73.5q0 -36 12 -48t37 -12q34 0 72.5 34t81.5 119l9 -10q-29 -86 -83.5 -132t-113.5 -46z" />
    <glyph glyph-name="IJ" unicode="&#x132;" horiz-adv-x="870" 
d="M-38 -88q4 37 26.5 53.5t58.5 21.5t78 5q18 39 36 95.5t34.5 121.5t32.5 132.5t30 129.5t26.5 111.5t22.5 78.5q-52 -1 -88.5 -3t-68 -6t-68.5 -11q7 38 55 57.5t149 19.5q50 0 101.5 -4t94.5 -8.5t66 -8.5q-24 -24 -50.5 -29.5t-46.5 -5.5h-58.5t-50.5 -1
q-4 -21 -12 -65.5t-19 -102t-23 -119t-23.5 -117t-21.5 -95.5q-16 -64 -36 -108t-48 -63q52 -3 111 -10.5t106 -8.5q-29 -29 -60.5 -36t-52.5 -7q-40 0 -78.5 -0.5t-76 -1.5t-74 -4.5t-72.5 -10.5zM536 -86q-23 0 -48.5 9t-42.5 37t-17 84q0 39 9 77.5t26.5 64.5t40.5 26
q12 0 28 -8q-18 -46 -27 -86t-9 -74q0 -45 16 -70t47 -25q26 0 46.5 22t42.5 83q16 44 33.5 106.5t35 134t33.5 142t29 130.5t20 100q-49 0 -82.5 -2t-60.5 -6t-59 -12q5 34 43.5 52.5t119.5 18.5q40 0 81 -4t75.5 -8.5t52.5 -8.5q-11 -19 -36 -24t-41 -5q-20 0 -37.5 -0.5
t-33.5 -0.5q11 -8 16 -22t5 -25q0 -13 -7 -57.5t-20 -107.5t-31 -134t-39 -139t-45 -121q-26 -60 -52.5 -91.5t-54 -43.5t-57.5 -12z" />
    <glyph glyph-name="ij" unicode="&#x133;" horiz-adv-x="461" 
d="M100 -280q-25 0 -38.5 14.5t-13.5 36.5q0 37 35.5 81t90.5 75q14 8 29.5 15t34.5 17q20 48 37 109.5t30 136.5q-34 -69 -67.5 -121t-73 -81t-92.5 -29q-39 0 -58 24.5t-19 59.5q0 23 8.5 58t22.5 73.5t32.5 72.5t39.5 55.5t41 21.5q9 0 15.5 -5.5t6.5 -16.5
q0 -12 -15.5 -39t-36.5 -62t-36.5 -73.5t-15.5 -73.5q0 -36 12 -48t37 -12q32 0 68 29.5t75 102.5q17 31 30.5 66.5t26 67.5t25.5 52t28 20q11 0 17.5 -8.5t6.5 -21.5q0 -11 -5.5 -42.5t-16 -77t-25.5 -98.5t-33 -107q29 17 58 35t58.5 48t57.5 82l13 -7
q-25 -59 -59.5 -93.5t-70.5 -54.5t-67 -38q-22 -62 -51.5 -118t-65 -91t-76.5 -35zM91 -246q20 0 57.5 43.5t76.5 129.5q-76 -37 -113.5 -77t-37.5 -72q0 -13 5 -18.5t12 -5.5zM192 432q-16 0 -28.5 8t-12.5 25q0 21 24.5 36.5t48.5 15.5q15 0 24 -7t9 -24
q0 -19 -20.5 -36.5t-44.5 -17.5zM375 437q-16 0 -28 8t-12 24q0 15 11.5 27t28.5 19t33 7q14 0 23.5 -7t9.5 -21q0 -22 -20.5 -39.5t-45.5 -17.5z" />
    <glyph glyph-name="Jcircumflex" unicode="&#x134;" horiz-adv-x="411" 
d="M77 -86q-23 0 -48.5 9t-42.5 37t-17 84q0 39 9 77.5t26.5 64.5t40.5 26q12 0 28 -8q-18 -46 -27 -86t-9 -74q0 -45 16 -70t47 -25q26 0 46.5 22t42.5 83q16 44 33.5 106.5t35 134t33.5 142t29 130.5t20 100q-49 0 -82.5 -2t-60.5 -6t-59 -12q5 34 43.5 52.5t119.5 18.5
q40 0 81 -4t75.5 -8.5t52.5 -8.5q-11 -19 -36 -24t-41 -5q-20 0 -37.5 -0.5t-33.5 -0.5q11 -8 16 -22t5 -25q0 -13 -7 -57.5t-20 -107.5t-31 -134t-39 -139t-45 -121q-26 -60 -52.5 -91.5t-54 -43.5t-57.5 -12zM461 744q-14 29 -32 49.5t-42 42.5q-31 -11 -55.5 -24
t-47.5 -33q-6 4 -8 9.5t-2 9.5q0 15 13.5 30t33 28.5t38.5 21.5t29 8q12 0 27.5 -11t29.5 -28.5t23.5 -36.5t9.5 -35q0 -10 -4 -18t-13 -13z" />
    <glyph glyph-name="jcircumflex" unicode="&#x135;" horiz-adv-x="219" 
d="M-140 -280q-25 0 -38.5 14.5t-13.5 36.5q0 37 35.5 81t90.5 75q14 8 29.5 15t34.5 17q20 48 37 109.5t30 136.5q-15 -27 -27.5 -47t-19.5 -32l-9 15q17 31 30.5 66.5t26 67.5t25.5 52t28 20q11 0 17.5 -8.5t6.5 -21.5q0 -11 -5.5 -42.5t-16 -77t-25.5 -98.5t-33 -107
q29 17 58 35t58.5 48t57.5 82l13 -7q-25 -59 -59.5 -93.5t-70.5 -54.5t-67 -38q-22 -62 -51.5 -118t-65 -91t-76.5 -35zM-149 -246q20 0 57.5 43.5t76.5 129.5q-76 -37 -113.5 -77t-37.5 -72q0 -13 5 -18.5t12 -5.5zM250 401q-14 29 -32 49.5t-42 42.5q-31 -11 -55.5 -24
t-47.5 -33q-6 4 -8 9.5t-2 9.5q0 15 13.5 30t33 28.5t38.5 21.5t29 8q12 0 27.5 -11t29.5 -28.5t23.5 -36.5t9.5 -35q0 -10 -4 -18t-13 -13z" />
    <glyph glyph-name="uni0136" unicode="&#x136;" horiz-adv-x="590" 
d="M495 -87q-22 0 -51 26t-61.5 69t-64 93.5t-58 100.5t-44.5 89l-97 -314q-7 -23 -22 -32.5t-32.5 -11.5t-34.5 -2q13 28 26.5 64t32 87t43.5 124t59.5 174.5t81.5 238.5q3 8 8 22.5t5 26.5q0 11 -5 17.5t-19 6.5q-24 0 -46.5 -19.5t-40 -49.5t-27.5 -62t-10 -57
q0 -19 5 -34q-33 0 -46.5 16.5t-13.5 40.5q0 34 20 68t51.5 62.5t66 45.5t62.5 17q27 0 36.5 -15t9.5 -33q0 -11 -2.5 -22t-5.5 -21l-84 -272q14 20 36.5 37t49.5 39q45 36 96.5 84t98.5 101t78 102q5 -6 7 -21t2 -23q0 -31 -25.5 -68t-66.5 -76.5t-90 -78t-96.5 -72.5
t-85.5 -59q30 -51 58.5 -97t62 -90t78.5 -90t109 -99q-7 -13 -22 -23t-32 -10zM206 -256q-9 5 -13 15t-4 22q0 20 9 45.5t23 43.5t29 18q10 0 17.5 -8.5t7.5 -19.5q-28 -29 -41.5 -58t-27.5 -58z" />
    <glyph glyph-name="uni0137" unicode="&#x137;" horiz-adv-x="446" 
d="M297 -38q-28 0 -48 19t-31.5 48t-17 59.5t-5.5 53.5q11 0 32 5.5t43 17t37.5 30t15.5 43.5q0 21 -15 33t-35 12q-31 0 -58 -21.5t-48.5 -56t-38.5 -73.5t-29 -74t-20 -58q-6 -18 -17 -24.5t-23 -6.5q-17 0 -24.5 14t-9 35.5t-1.5 44.5q0 52 17 120t45.5 141.5t62.5 142.5
t68 125t63 89t47 33q14 0 22.5 -19t8.5 -46q0 -34 -15 -76.5t-42.5 -85.5t-65 -81t-81.5 -65q-33 -81 -49.5 -157.5t-16.5 -128.5q16 40 38.5 88t51.5 92t63 72t71 28t63 -26t26 -63q0 -32 -16.5 -54.5t-40 -36t-47 -20t-38.5 -6.5q1 -8 6 -29t14.5 -44t23.5 -39.5t34 -16.5
q29 0 55 22t49.5 58.5t43.5 82.5l10 -10q-14 -49 -43 -92.5t-64.5 -71t-70.5 -27.5zM151 381q46 37 80.5 84t53.5 90.5t19 68.5q0 5 -0.5 7t-2.5 2q-10 0 -34.5 -35t-55.5 -92.5t-60 -124.5zM102 -218q-9 5 -13 15t-4 22q0 20 9 45.5t23 43.5t29 18q10 0 17.5 -8.5
t7.5 -19.5q-28 -29 -41.5 -58t-27.5 -58z" />
    <glyph glyph-name="kgreenlandic" unicode="&#x138;" horiz-adv-x="396" 
d="M247 -38q-45 0 -74.5 20t-44.5 53.5t-15 71.5q0 36 11 68l27 6q-26 -27 -51 -62t-46.5 -70.5t-38.5 -63.5q-16 0 -30.5 5.5t-22.5 16.5q0 5 10.5 31t24.5 64t25 78t11 73q6 7 19 14t27 7q27 0 27 -26q0 -16 -9 -53.5t-23 -78.5q27 41 60.5 81.5t71.5 67.5t76 27
q35 0 50 -16.5t15 -36.5q0 -30 -19 -42t-46 -14q0 28 -11.5 38.5t-28.5 10.5q-33 0 -51 -32.5t-18 -75.5q0 -28 8.5 -57t29 -48t56.5 -19q30 0 56 22t48.5 58.5t43.5 82.5l10 -10q-15 -47 -42 -91t-61.5 -72t-74.5 -28z" />
    <glyph glyph-name="Lacute" unicode="&#x139;" horiz-adv-x="570" 
d="M397 -87q-36 0 -79.5 15t-89.5 36.5t-91 41.5q-25 -28 -52 -43.5t-59 -15.5t-54.5 15t-34 35.5t-11.5 36.5q0 18 16.5 31t56.5 13q26 0 57.5 -6t65.5 -15q24 42 44.5 98t40.5 119l40 126q-46 15 -72.5 44t-26.5 63q0 18 7.5 36t21.5 30.5t33 12.5q-7 -10 -10 -29t-3 -33
q0 -38 16 -63.5t41 -39.5q20 60 41.5 113.5t47.5 95.5t57 66t69 24q20 0 42.5 -9t38.5 -31t16 -62q0 -34 -14 -73.5t-43 -75t-74 -58t-106 -23.5h-4.5h-14.5q-20 -61 -42.5 -124t-47.5 -119.5t-54 -100.5q46 -14 93 -28.5t91 -24t81 -9.5q21 0 38 4t33 12
q-16 -46 -42.5 -65.5t-62.5 -19.5zM22 -24q22 0 41.5 12t35.5 34q-31 13 -60.5 21.5t-53.5 8.5q-19 0 -26 -5t-7 -14q0 -17 19.5 -37t50.5 -20zM316 407q45 0 81.5 25.5t62 64t39 78.5t13.5 70q0 29 -11 39.5t-25 10.5q-31 0 -58 -40t-51.5 -105.5t-50.5 -142.5zM502 748
q-7 4 -10.5 13t-3.5 13q0 9 10.5 28.5t26.5 41t34 36.5t33 15q8 0 14.5 -6.5t7.5 -24.5q-36 -31 -63 -59t-49 -57z" />
    <glyph glyph-name="lacute" unicode="&#x13a;" horiz-adv-x="236" 
d="M83 -30q-43 0 -61.5 29.5t-18.5 73.5q0 48 18 114t47.5 139t64.5 142.5t70 126.5t64.5 91t46.5 34q11 0 18 -12.5t11 -30t4 -31.5q0 -27 -13.5 -70.5t-38 -97t-58 -108t-73 -104.5t-83.5 -86q-6 -27 -9.5 -52.5t-3.5 -48.5q0 -39 11 -58t33 -19q27 0 53.5 24t50 60.5
t40.5 75.5l15 -8q-40 -85 -87 -134.5t-101 -49.5zM90 214q35 35 68 80.5t61.5 94.5t50.5 95t34 82.5t12 56.5q0 10 -2.5 13t-4.5 3q-8 0 -27.5 -25.5t-45.5 -68.5t-53 -98t-51.5 -115t-41.5 -118zM357 748q-7 4 -10.5 13t-3.5 13q0 9 10.5 28.5t26.5 41t34 36.5t33 15
q8 0 14.5 -6.5t7.5 -24.5q-36 -31 -63 -59t-49 -57z" />
    <glyph glyph-name="uni013B" unicode="&#x13b;" horiz-adv-x="570" 
d="M397 -87q-36 0 -79.5 15t-89.5 36.5t-91 41.5q-25 -28 -52 -43.5t-59 -15.5t-54.5 15t-34 35.5t-11.5 36.5q0 18 16.5 31t56.5 13q26 0 57.5 -6t65.5 -15q24 42 44.5 98t40.5 119l40 126q-46 15 -72.5 44t-26.5 63q0 18 7.5 36t21.5 30.5t33 12.5q-7 -10 -10 -29t-3 -33
q0 -38 16 -63.5t41 -39.5q20 60 41.5 113.5t47.5 95.5t57 66t69 24q20 0 42.5 -9t38.5 -31t16 -62q0 -34 -14 -73.5t-43 -75t-74 -58t-106 -23.5h-4.5h-14.5q-20 -61 -42.5 -124t-47.5 -119.5t-54 -100.5q46 -14 93 -28.5t91 -24t81 -9.5q21 0 38 4t33 12
q-16 -46 -42.5 -65.5t-62.5 -19.5zM22 -24q22 0 41.5 12t35.5 34q-31 13 -60.5 21.5t-53.5 8.5q-19 0 -26 -5t-7 -14q0 -17 19.5 -37t50.5 -20zM316 407q45 0 81.5 25.5t62 64t39 78.5t13.5 70q0 29 -11 39.5t-25 10.5q-31 0 -58 -40t-51.5 -105.5t-50.5 -142.5zM129 -234
q-9 5 -13 15t-4 22q0 20 9 45.5t23 43.5t29 18q10 0 17.5 -8.5t7.5 -19.5q-28 -29 -41.5 -58t-27.5 -58z" />
    <glyph glyph-name="uni013C" unicode="&#x13c;" horiz-adv-x="236" 
d="M83 -30q-43 0 -61.5 29.5t-18.5 73.5q0 48 18 114t47.5 139t64.5 142.5t70 126.5t64.5 91t46.5 34q11 0 18 -12.5t11 -30t4 -31.5q0 -27 -13.5 -70.5t-38 -97t-58 -108t-73 -104.5t-83.5 -86q-6 -27 -9.5 -52.5t-3.5 -48.5q0 -39 11 -58t33 -19q27 0 53.5 24t50 60.5
t40.5 75.5l15 -8q-40 -85 -87 -134.5t-101 -49.5zM90 214q35 35 68 80.5t61.5 94.5t50.5 95t34 82.5t12 56.5q0 10 -2.5 13t-4.5 3q-8 0 -27.5 -25.5t-45.5 -68.5t-53 -98t-51.5 -115t-41.5 -118zM15 -211q-9 5 -13 15t-4 22q0 20 9 45.5t23 43.5t29 18q10 0 17.5 -8.5
t7.5 -19.5q-28 -29 -41.5 -58t-27.5 -58z" />
    <glyph glyph-name="Lcaron" unicode="&#x13d;" horiz-adv-x="570" 
d="M397 -87q-36 0 -79.5 15t-89.5 36.5t-91 41.5q-25 -28 -52 -43.5t-59 -15.5t-54.5 15t-34 35.5t-11.5 36.5q0 18 16.5 31t56.5 13q26 0 57.5 -6t65.5 -15q24 42 44.5 98t40.5 119l40 126q-46 15 -72.5 44t-26.5 63q0 18 7.5 36t21.5 30.5t33 12.5q-7 -10 -10 -29t-3 -33
q0 -38 16 -63.5t41 -39.5q20 60 41.5 113.5t47.5 95.5t57 66t69 24q20 0 42.5 -9t38.5 -31t16 -62q0 -34 -14 -73.5t-43 -75t-74 -58t-106 -23.5h-4.5h-14.5q-20 -61 -42.5 -124t-47.5 -119.5t-54 -100.5q46 -14 93 -28.5t91 -24t81 -9.5q21 0 38 4t33 12
q-16 -46 -42.5 -65.5t-62.5 -19.5zM22 -24q22 0 41.5 12t35.5 34q-31 13 -60.5 21.5t-53.5 8.5q-19 0 -26 -5t-7 -14q0 -17 19.5 -37t50.5 -20zM316 407q45 0 81.5 25.5t62 64t39 78.5t13.5 70q0 29 -11 39.5t-25 10.5q-31 0 -58 -40t-51.5 -105.5t-50.5 -142.5zM623 557
q-9 0 -17 6.5t-8 19.5q0 19 14.5 43t35.5 42t39 18q9 0 14 -4q-19 -26 -35.5 -58.5t-26.5 -61.5q-7 -5 -16 -5z" />
    <glyph glyph-name="lcaron" unicode="&#x13e;" horiz-adv-x="236" 
d="M83 -30q-43 0 -61.5 29.5t-18.5 73.5q0 48 18 114t47.5 139t64.5 142.5t70 126.5t64.5 91t46.5 34q11 0 18 -12.5t11 -30t4 -31.5q0 -27 -13.5 -70.5t-38 -97t-58 -108t-73 -104.5t-83.5 -86q-6 -27 -9.5 -52.5t-3.5 -48.5q0 -39 11 -58t33 -19q27 0 53.5 24t50 60.5
t40.5 75.5l15 -8q-40 -85 -87 -134.5t-101 -49.5zM90 214q35 35 68 80.5t61.5 94.5t50.5 95t34 82.5t12 56.5q0 10 -2.5 13t-4.5 3q-8 0 -27.5 -25.5t-45.5 -68.5t-53 -98t-51.5 -115t-41.5 -118zM392 561q-9 0 -17 6.5t-8 19.5q0 19 14.5 43t35.5 42t39 18q9 0 14 -4
q-19 -26 -35.5 -58.5t-26.5 -61.5q-7 -5 -16 -5z" />
    <glyph glyph-name="Ldot" unicode="&#x13f;" horiz-adv-x="570" 
d="M397 -87q-36 0 -79.5 15t-89.5 36.5t-91 41.5q-25 -28 -52 -43.5t-59 -15.5t-54.5 15t-34 35.5t-11.5 36.5q0 18 16.5 31t56.5 13q26 0 57.5 -6t65.5 -15q24 42 44.5 98t40.5 119l40 126q-46 15 -72.5 44t-26.5 63q0 18 7.5 36t21.5 30.5t33 12.5q-7 -10 -10 -29t-3 -33
q0 -38 16 -63.5t41 -39.5q20 60 41.5 113.5t47.5 95.5t57 66t69 24q20 0 42.5 -9t38.5 -31t16 -62q0 -34 -14 -73.5t-43 -75t-74 -58t-106 -23.5h-4.5h-14.5q-20 -61 -42.5 -124t-47.5 -119.5t-54 -100.5q46 -14 93 -28.5t91 -24t81 -9.5q21 0 38 4t33 12
q-16 -46 -42.5 -65.5t-62.5 -19.5zM22 -24q22 0 41.5 12t35.5 34q-31 13 -60.5 21.5t-53.5 8.5q-19 0 -26 -5t-7 -14q0 -17 19.5 -37t50.5 -20zM316 407q45 0 81.5 25.5t62 64t39 78.5t13.5 70q0 29 -11 39.5t-25 10.5q-31 0 -58 -40t-51.5 -105.5t-50.5 -142.5zM443 238
q-13 0 -22.5 6.5t-9.5 20.5q0 11 9 20.5t22.5 15t26.5 5.5q12 0 19 -5t7 -19q0 -10 -7.5 -20t-19.5 -17t-25 -7z" />
    <glyph glyph-name="ldot" unicode="&#x140;" horiz-adv-x="297" 
d="M101 -30q-52 0 -75 29.5t-23 73.5q0 48 18 114t47.5 139t64.5 142.5t70 126.5t64.5 91t46.5 34q11 0 18 -12.5t11 -30t4 -31.5q0 -27 -13.5 -70.5t-38 -97t-58 -108t-73 -104.5t-83.5 -86q-6 -27 -9.5 -52.5t-3.5 -48.5q0 -39 15.5 -58t46.5 -19q41 0 81 27.5t76 70
t62 87.5l15 -8q-37 -65 -79.5 -112t-89 -72t-94.5 -25zM90 214q35 35 68 80.5t61.5 94.5t50.5 95t34 82.5t12 56.5q0 10 -2.5 13t-4.5 3q-8 0 -27.5 -25.5t-45.5 -68.5t-53 -98t-51.5 -115t-41.5 -118zM273 279q-13 0 -22.5 6.5t-9.5 20.5q0 11 9 20.5t22.5 15t26.5 5.5
q12 0 19 -5t7 -19q0 -10 -7.5 -20t-19.5 -17t-25 -7z" />
    <glyph glyph-name="Lslash" unicode="&#x141;" horiz-adv-x="571" 
d="M397 -87q-36 0 -79.5 15t-89.5 36.5t-91 41.5q-25 -28 -52 -43.5t-59 -15.5t-54.5 15t-34 35.5t-11.5 36.5q0 18 16.5 31t56.5 13q26 0 57.5 -6t65.5 -15q21 36 40.5 90t39.5 118.5t42 129.5q21 63 44.5 121t50.5 104t59.5 73t70.5 27q-31 -39 -73.5 -120.5t-81.5 -199.5
q-26 -78 -46.5 -134.5t-37 -96.5t-32 -69.5t-32.5 -55.5q46 -14 93 -28.5t91 -24t81 -9.5q21 0 38 4t33 12q-16 -46 -42.5 -65.5t-62.5 -19.5zM22 -24q22 0 41.5 12t35.5 34q-31 13 -60.5 21.5t-53.5 8.5q-19 0 -26 -5t-7 -14q0 -17 19.5 -37t50.5 -20zM112 337
q7 30 47.5 48t108.5 26t155 8q20 0 42.5 -1t33.5 -3q0 -18 -13 -25.5t-45.5 -11t-93.5 -9.5q-51 -4 -86.5 -8t-69 -9t-79.5 -15z" />
    <glyph glyph-name="lslash" unicode="&#x142;" horiz-adv-x="237" 
d="M83 -30q-43 0 -61.5 29.5t-18.5 73.5q0 48 18 114.5t48 140t65.5 143.5t69.5 125q32 51 55.5 77.5t46.5 36.5t51 10q-43 -51 -94 -132t-110 -212q-34 -75 -59.5 -153t-25.5 -144q0 -39 11 -58t33 -19q27 0 53.5 24t50 60.5t40.5 75.5l15 -8q-40 -85 -87 -134.5
t-101 -49.5zM121 639q10 22 33 33t58.5 14.5t83.5 3.5q36 0 72 -1.5t66.5 -3t48.5 -3.5q-6 -11 -16 -17.5t-25 -9t-36 -3t-50 -0.5q-50 0 -88.5 -1t-73 -4t-73.5 -8z" />
    <glyph glyph-name="Nacute" unicode="&#x143;" horiz-adv-x="640" 
d="M46 -87q12 48 30 107t43.5 140.5t59.5 193.5t79 265q2 5 4.5 17.5t2.5 23.5q0 10 -3.5 16.5t-11.5 6.5q-24 0 -45.5 -18.5t-37 -46.5t-24.5 -58.5t-9 -54.5q0 -20 5 -35q-33 0 -46.5 16.5t-13.5 40.5q0 34 20 68t51 62.5t65.5 45.5t63.5 17q30 0 49.5 -25.5t31.5 -70
t20 -100.5t15 -116q6 -50 12 -99.5t12 -94t11 -81.5t9 -61q7 47 20.5 106.5t30 124t34.5 126t33.5 113t27 86t15.5 43.5q5 13 23 31t40 18q-17 -46 -38.5 -112.5t-43.5 -144t-43 -158t-37.5 -155.5t-26 -136.5t-10.5 -100.5q-31 0 -50.5 18t-27.5 63q-5 26 -12.5 71.5
t-16 101.5t-17.5 116.5t-17.5 118.5t-15.5 106.5t-12 80.5q-48 -173 -82 -292.5t-57.5 -195t-41.5 -116.5t-34 -56.5t-34 -15.5zM477 748q-7 4 -10.5 13t-3.5 13q0 9 10.5 28.5t26.5 41t34 36.5t33 15q8 0 14.5 -6.5t7.5 -24.5q-36 -31 -63 -59t-49 -57z" />
    <glyph glyph-name="nacute" unicode="&#x144;" horiz-adv-x="466" 
d="M323 -20q-35 0 -52.5 18t-17.5 46q0 21 7.5 44t14.5 47.5t7 47.5q0 28 -11.5 38.5t-28.5 10.5q-31 0 -63 -25.5t-62 -65t-56 -81.5t-46 -75q-16 0 -30.5 5.5t-22.5 16.5q0 5 10.5 31t24.5 64t25 78t11 73q6 7 19 14t27 7q27 0 27 -26q0 -16 -9 -53.5t-23 -78.5
q27 41 60.5 81.5t71.5 67.5t76 27q39 0 56.5 -28t17.5 -62q0 -31 -10 -57.5t-20.5 -51t-10.5 -49.5q0 -21 8.5 -29.5t21.5 -8.5q25 0 50 23.5t48.5 59.5t41.5 73l11 -13q-21 -49 -47 -87t-57 -60t-69 -22zM259 364q-7 4 -10.5 13t-3.5 13q0 9 10.5 28.5t26.5 41t34 36.5
t33 15q8 0 14.5 -6.5t7.5 -24.5q-36 -31 -63 -59t-49 -57z" />
    <glyph glyph-name="uni0145" unicode="&#x145;" horiz-adv-x="640" 
d="M46 -87q12 48 30 107t43.5 140.5t59.5 193.5t79 265q2 5 4.5 17.5t2.5 23.5q0 10 -3.5 16.5t-11.5 6.5q-24 0 -45.5 -18.5t-37 -46.5t-24.5 -58.5t-9 -54.5q0 -20 5 -35q-33 0 -46.5 16.5t-13.5 40.5q0 34 20 68t51 62.5t65.5 45.5t63.5 17q30 0 49.5 -25.5t31.5 -70
t20 -100.5t15 -116q6 -50 12 -99.5t12 -94t11 -81.5t9 -61q7 47 20.5 106.5t30 124t34.5 126t33.5 113t27 86t15.5 43.5q5 13 23 31t40 18q-17 -46 -38.5 -112.5t-43.5 -144t-43 -158t-37.5 -155.5t-26 -136.5t-10.5 -100.5q-31 0 -50.5 18t-27.5 63q-5 26 -12.5 71.5
t-16 101.5t-17.5 116.5t-17.5 118.5t-15.5 106.5t-12 80.5q-48 -173 -82 -292.5t-57.5 -195t-41.5 -116.5t-34 -56.5t-34 -15.5zM211 -232q-9 5 -13 15t-4 22q0 20 9 45.5t23 43.5t29 18q10 0 17.5 -8.5t7.5 -19.5q-28 -29 -41.5 -58t-27.5 -58z" />
    <glyph glyph-name="uni0146" unicode="&#x146;" horiz-adv-x="466" 
d="M323 -20q-35 0 -52.5 18t-17.5 46q0 21 7.5 44t14.5 47.5t7 47.5q0 28 -11.5 38.5t-28.5 10.5q-31 0 -63 -25.5t-62 -65t-56 -81.5t-46 -75q-16 0 -30.5 5.5t-22.5 16.5q0 5 10.5 31t24.5 64t25 78t11 73q6 7 19 14t27 7q27 0 27 -26q0 -16 -9 -53.5t-23 -78.5
q27 41 60.5 81.5t71.5 67.5t76 27q39 0 56.5 -28t17.5 -62q0 -31 -10 -57.5t-20.5 -51t-10.5 -49.5q0 -21 8.5 -29.5t21.5 -8.5q25 0 50 23.5t48.5 59.5t41.5 73l11 -13q-21 -49 -47 -87t-57 -60t-69 -22zM99 -200q-9 5 -13 15t-4 22q0 20 9 45.5t23 43.5t29 18
q10 0 17.5 -8.5t7.5 -19.5q-28 -29 -41.5 -58t-27.5 -58z" />
    <glyph glyph-name="Ncaron" unicode="&#x147;" horiz-adv-x="640" 
d="M46 -87q12 48 30 107t43.5 140.5t59.5 193.5t79 265q2 5 4.5 17.5t2.5 23.5q0 10 -3.5 16.5t-11.5 6.5q-24 0 -45.5 -18.5t-37 -46.5t-24.5 -58.5t-9 -54.5q0 -20 5 -35q-33 0 -46.5 16.5t-13.5 40.5q0 34 20 68t51 62.5t65.5 45.5t63.5 17q30 0 49.5 -25.5t31.5 -70
t20 -100.5t15 -116q6 -50 12 -99.5t12 -94t11 -81.5t9 -61q7 47 20.5 106.5t30 124t34.5 126t33.5 113t27 86t15.5 43.5q5 13 23 31t40 18q-17 -46 -38.5 -112.5t-43.5 -144t-43 -158t-37.5 -155.5t-26 -136.5t-10.5 -100.5q-31 0 -50.5 18t-27.5 63q-5 26 -12.5 71.5
t-16 101.5t-17.5 116.5t-17.5 118.5t-15.5 106.5t-12 80.5q-48 -173 -82 -292.5t-57.5 -195t-41.5 -116.5t-34 -56.5t-34 -15.5zM474 754q-12 0 -27.5 11t-29.5 28.5t-23.5 36.5t-9.5 35q0 10 4 18.5t13 12.5q14 -28 32 -48.5t42 -43.5q31 11 56 24t47 33q6 -4 8 -9t2 -10
q0 -15 -13.5 -30t-33 -28.5t-38.5 -21.5t-29 -8z" />
    <glyph glyph-name="ncaron" unicode="&#x148;" horiz-adv-x="466" 
d="M323 -20q-35 0 -52.5 18t-17.5 46q0 21 7.5 44t14.5 47.5t7 47.5q0 28 -11.5 38.5t-28.5 10.5q-31 0 -63 -25.5t-62 -65t-56 -81.5t-46 -75q-16 0 -30.5 5.5t-22.5 16.5q0 5 10.5 31t24.5 64t25 78t11 73q6 7 19 14t27 7q27 0 27 -26q0 -16 -9 -53.5t-23 -78.5
q27 41 60.5 81.5t71.5 67.5t76 27q39 0 56.5 -28t17.5 -62q0 -31 -10 -57.5t-20.5 -51t-10.5 -49.5q0 -21 8.5 -29.5t21.5 -8.5q25 0 50 23.5t48.5 59.5t41.5 73l11 -13q-21 -49 -47 -87t-57 -60t-69 -22zM266 364q-12 0 -27.5 11t-29.5 28.5t-23.5 36.5t-9.5 35
q0 10 4 18.5t13 12.5q14 -28 32 -48.5t42 -43.5q31 11 56 24t47 33q6 -4 8 -9t2 -10q0 -15 -13.5 -30t-33 -28.5t-38.5 -21.5t-29 -8z" />
    <glyph glyph-name="napostrophe" unicode="&#x149;" horiz-adv-x="511" 
d="M7 267q-9 5 -13 15t-4 22q0 20 9 45.5t23 43.5t29 18q10 0 17.5 -8.5t7.5 -19.5q-28 -29 -41.5 -58t-27.5 -58zM367 -20q-35 0 -52.5 18t-17.5 46q0 21 7.5 44t14.5 47.5t7 47.5q0 28 -11.5 38.5t-28.5 10.5q-31 0 -63 -25.5t-62 -65t-56 -81.5t-46 -75q-16 0 -30.5 5.5
t-22.5 16.5q0 5 10.5 31t24.5 64t25 78t11 73q6 7 19 14t27 7q27 0 27 -26q0 -16 -9 -53.5t-23 -78.5q27 41 60.5 81.5t71.5 67.5t76 27q39 0 56.5 -28t17.5 -62q0 -31 -10 -57.5t-20.5 -51t-10.5 -49.5q0 -21 8.5 -29.5t21.5 -8.5q25 0 50 23.5t48.5 59.5t41.5 73l11 -13
q-21 -49 -47 -87t-57 -60t-69 -22z" />
    <glyph glyph-name="Eng" unicode="&#x14a;" horiz-adv-x="660" 
d="M242 -236q-28 0 -45.5 5t-17.5 12q0 9 18 9q69 0 120.5 38.5t90.5 110.5t70 173q11 36 26 92.5t29.5 121.5t24 126t9.5 104q0 47 -19.5 79.5t-64.5 32.5q-41 0 -75 -26.5t-60 -68.5t-44 -88.5t-28 -87.5q-37 -149 -68 -266.5t-57 -229.5q-22 0 -44.5 11t-22.5 36
q0 18 9.5 61t25 99.5t33.5 118t34.5 118t28.5 98.5q9 32 20.5 72t20 81.5t8.5 75.5q0 20 -17 20q-21 0 -41 -19.5t-36 -49.5t-25.5 -62t-9.5 -57q0 -9 1.5 -18t3.5 -16q-33 0 -46.5 16.5t-13.5 40.5q0 34 18.5 68t47.5 62.5t63 45.5t65 17q29 0 39.5 -14.5t10.5 -33.5
q0 -21 -5.5 -54.5t-17.5 -79.5q39 80 90.5 125t118.5 45q65 0 97.5 -39t32.5 -97q0 -40 -9 -100.5t-23.5 -127.5t-30.5 -129.5t-29 -107.5q-21 -70 -48 -132t-63.5 -109.5t-84.5 -74.5t-110 -27z" />
    <glyph glyph-name="eng" unicode="&#x14b;" horiz-adv-x="456" 
d="M36 -207q-19 0 -32.5 4.5t-13.5 10.5q0 7 22 7q58 0 107 30.5t85.5 81.5t57 114.5t20.5 130.5q0 34 -11.5 47t-28.5 13q-31 0 -63 -25.5t-62 -65t-56 -81.5t-46 -75q-16 0 -30.5 5.5t-22.5 16.5q0 5 10.5 31t24.5 64t25 78t11 73q6 7 19 14t27 7q27 0 27 -26
q0 -16 -9 -53.5t-23 -78.5q27 41 60.5 81.5t71.5 67.5t76 27q39 0 56.5 -31t17.5 -69q0 -70 -23.5 -140.5t-66 -129t-101 -94t-129.5 -35.5z" />
    <glyph glyph-name="Omacron" unicode="&#x14c;" horiz-adv-x="623" 
d="M213 -87q-57 0 -100 30.5t-67.5 86.5t-24.5 131q0 77 24.5 156t66.5 151t95 128.5t112 89.5t116 33q19 0 34 -3t26 -9h-9.5h-2.5q-52 0 -105 -34.5t-101 -93t-86 -131t-60 -150.5t-22 -151q0 -53 13.5 -99t43.5 -73.5t77 -27.5q56 0 105 34.5t88.5 93.5t68 131.5t44 150
t15.5 148.5q0 28 -4 60t-14 55t-27 23q-18 0 -39 -22.5t-40.5 -56.5t-34.5 -70.5t-21 -64.5q-25 6 -36.5 19.5t-11.5 29.5q0 27 18.5 59.5t47 63t59.5 50t56 19.5q26 0 42.5 -19t26 -48.5t13 -63t3.5 -62.5q0 -109 -24.5 -198.5t-66 -157.5t-92.5 -114.5t-104.5 -70
t-101.5 -23.5zM622 756q-22 0 -55 5.5t-69.5 13t-69 14t-55.5 8.5q10 26 46 26q37 0 79 -7.5t84.5 -18t77.5 -21.5q-14 -20 -38 -20z" />
    <glyph glyph-name="omacron" unicode="&#x14d;" horiz-adv-x="365" 
d="M69 -32q-43 0 -61 26.5t-18 64.5q0 31 10 64t26.5 62t37 47t41.5 18q5 0 10.5 -1.5t10.5 -3.5q-9 -8 -21.5 -29.5t-23.5 -49t-18.5 -54.5t-7.5 -46q0 -30 10 -43.5t26 -13.5q21 0 50 22.5t57 57.5q-28 23 -43.5 60.5t-15.5 76.5q0 33 11.5 62t33.5 46.5t53 17.5
q41 0 55 -22t14 -55q0 -39 -19 -86.5t-48 -91.5q18 -10 38 -10q16 0 36 6.5t39.5 22.5t31.5 43l12 -10q-20 -47 -56.5 -66.5t-69.5 -19.5q-13 0 -25 2.5t-23 7.5q-34 -45 -74.5 -75t-78.5 -30zM216 115q25 37 41.5 77.5t16.5 76.5q0 29 -8.5 42.5t-21.5 13.5q-20 0 -41 -29
t-21 -73q0 -29 8.5 -58.5t25.5 -49.5zM369 438q-22 0 -55 5.5t-69.5 13t-69 14t-55.5 8.5q10 26 46 26q37 0 79 -7.5t84.5 -18t77.5 -21.5q-14 -20 -38 -20z" />
    <glyph glyph-name="Obreve" unicode="&#x14e;" horiz-adv-x="623" 
d="M213 -87q-57 0 -100 30.5t-67.5 86.5t-24.5 131q0 77 24.5 156t66.5 151t95 128.5t112 89.5t116 33q19 0 34 -3t26 -9h-9.5h-2.5q-52 0 -105 -34.5t-101 -93t-86 -131t-60 -150.5t-22 -151q0 -53 13.5 -99t43.5 -73.5t77 -27.5q56 0 105 34.5t88.5 93.5t68 131.5t44 150
t15.5 148.5q0 28 -4 60t-14 55t-27 23q-18 0 -39 -22.5t-40.5 -56.5t-34.5 -70.5t-21 -64.5q-25 6 -36.5 19.5t-11.5 29.5q0 27 18.5 59.5t47 63t59.5 50t56 19.5q26 0 42.5 -19t26 -48.5t13 -63t3.5 -62.5q0 -109 -24.5 -198.5t-66 -157.5t-92.5 -114.5t-104.5 -70
t-101.5 -23.5zM544 758q-38 0 -60.5 15.5t-32.5 37t-10 39.5t6.5 30t17.5 19q3 -34 21.5 -62.5t59.5 -28.5q38 0 61 19.5t35 40.5q6 -6 8 -14.5t2 -15.5q0 -34 -32.5 -57t-75.5 -23z" />
    <glyph glyph-name="obreve" unicode="&#x14f;" horiz-adv-x="365" 
d="M69 -32q-43 0 -61 26.5t-18 64.5q0 31 10 64t26.5 62t37 47t41.5 18q5 0 10.5 -1.5t10.5 -3.5q-9 -8 -21.5 -29.5t-23.5 -49t-18.5 -54.5t-7.5 -46q0 -30 10 -43.5t26 -13.5q21 0 50 22.5t57 57.5q-28 23 -43.5 60.5t-15.5 76.5q0 33 11.5 62t33.5 46.5t53 17.5
q41 0 55 -22t14 -55q0 -39 -19 -86.5t-48 -91.5q18 -10 38 -10q16 0 36 6.5t39.5 22.5t31.5 43l12 -10q-20 -47 -56.5 -66.5t-69.5 -19.5q-13 0 -25 2.5t-23 7.5q-34 -45 -74.5 -75t-78.5 -30zM216 115q25 37 41.5 77.5t16.5 76.5q0 29 -8.5 42.5t-21.5 13.5q-20 0 -41 -29
t-21 -73q0 -29 8.5 -58.5t25.5 -49.5zM291 424q-38 0 -60.5 15.5t-32.5 37t-10 39.5t6.5 30t17.5 19q3 -34 21.5 -62.5t59.5 -28.5q38 0 61 19.5t35 40.5q6 -6 8 -14.5t2 -15.5q0 -34 -32.5 -57t-75.5 -23z" />
    <glyph glyph-name="Ohungarumlaut" unicode="&#x150;" horiz-adv-x="623" 
d="M213 -87q-57 0 -100 30.5t-67.5 86.5t-24.5 131q0 77 24.5 156t66.5 151t95 128.5t112 89.5t116 33q19 0 34 -3t26 -9h-9.5h-2.5q-52 0 -105 -34.5t-101 -93t-86 -131t-60 -150.5t-22 -151q0 -53 13.5 -99t43.5 -73.5t77 -27.5q56 0 105 34.5t88.5 93.5t68 131.5t44 150
t15.5 148.5q0 28 -4 60t-14 55t-27 23q-18 0 -39 -22.5t-40.5 -56.5t-34.5 -70.5t-21 -64.5q-25 6 -36.5 19.5t-11.5 29.5q0 27 18.5 59.5t47 63t59.5 50t56 19.5q26 0 42.5 -19t26 -48.5t13 -63t3.5 -62.5q0 -109 -24.5 -198.5t-66 -157.5t-92.5 -114.5t-104.5 -70
t-101.5 -23.5zM541 748q-5 4 -7.5 10.5t-2.5 13.5q0 10 9 30t23 41.5t29 36.5t28 15q10 0 16.5 -6t11.5 -13q-31 -33 -57.5 -65.5t-49.5 -62.5zM473 769q-7 2 -12.5 8t-5.5 19t7.5 33.5t19 41.5t26 35t27.5 14q7 0 13 -5.5t10 -21.5q-28 -34 -49 -64t-36 -60z" />
    <glyph glyph-name="ohungarumlaut" unicode="&#x151;" horiz-adv-x="365" 
d="M69 -32q-43 0 -61 26.5t-18 64.5q0 31 10 64t26.5 62t37 47t41.5 18q5 0 10.5 -1.5t10.5 -3.5q-9 -8 -21.5 -29.5t-23.5 -49t-18.5 -54.5t-7.5 -46q0 -30 10 -43.5t26 -13.5q21 0 50 22.5t57 57.5q-28 23 -43.5 60.5t-15.5 76.5q0 33 11.5 62t33.5 46.5t53 17.5
q41 0 55 -22t14 -55q0 -39 -19 -86.5t-48 -91.5q18 -10 38 -10q16 0 36 6.5t39.5 22.5t31.5 43l12 -10q-20 -47 -56.5 -66.5t-69.5 -19.5q-13 0 -25 2.5t-23 7.5q-34 -45 -74.5 -75t-78.5 -30zM216 115q25 37 41.5 77.5t16.5 76.5q0 29 -8.5 42.5t-21.5 13.5q-20 0 -41 -29
t-21 -73q0 -29 8.5 -58.5t25.5 -49.5zM288 427q-5 4 -7.5 10.5t-2.5 13.5q0 10 9 30t23 41.5t29 36.5t28 15q10 0 16.5 -6t11.5 -13q-31 -33 -57.5 -65.5t-49.5 -62.5zM220 448q-7 2 -12.5 8t-5.5 19t7.5 33.5t19 41.5t26 35t27.5 14q7 0 13 -5.5t10 -21.5q-28 -34 -49 -64
t-36 -60z" />
    <glyph glyph-name="OE" unicode="&#x152;" horiz-adv-x="799" 
d="M409 -88q-41 0 -85 0.5t-88 0.5q-63 0 -111.5 26.5t-76 81.5t-27.5 140q0 77 24.5 156t66.5 151t95 128.5t112 89.5t116 33q19 0 34 -3t26 -9q-56 0 -112 -34.5t-105 -92.5t-87 -131t-60 -151t-22 -151q0 -53 13.5 -99t43.5 -73.5t77 -27.5q48 0 91.5 34.5t80 93.5
t63 131.5t41 150t14.5 148.5q0 69 -8 98t-22 29q-15 0 -35.5 -30.5t-42 -77t-41.5 -95.5q-25 6 -36.5 19.5t-11.5 29.5q0 27 18.5 59.5t47.5 62.5t60.5 50t56.5 20q25 1 54.5 2.5t59.5 1.5q59 0 113 -4t81 -13q-5 -15 -30.5 -22.5t-62 -10.5t-77.5 -3q-24 0 -42 1.5t-38 1.5
q3 -9 7 -33t4 -45q0 -31 -2 -67t-5 -67t-6 -47q61 0 114.5 -2.5t88.5 -7.5q-8 -22 -43 -35.5t-96 -13.5q-27 0 -43.5 0.5t-30.5 1.5q-19 -85 -38 -153t-48 -117.5t-78 -79.5q39 -1 79 -1.5t88 -0.5q13 0 35 1t45 2t39 1h12t8 -1q-5 -13 -34 -22t-73 -14.5t-94 -8t-97 -2.5z
" />
    <glyph glyph-name="oe" unicode="&#x153;" horiz-adv-x="543" 
d="M48 -47q-31 0 -52.5 20.5t-21.5 62.5q0 36 16 77.5t44 82t63.5 74t75 53.5t78.5 20q28 0 45 -11t24 -31q31 27 64.5 43t66.5 16q23 0 42.5 -12t19.5 -49q0 -38 -22.5 -71.5t-59 -59.5t-80 -42.5t-86.5 -20.5q-2 -10 -3 -19t-1 -17q0 -20 7 -39.5t24 -32t48 -12.5
q43 0 85 24.5t78 64.5t61 88l12 -9q-27 -60 -68.5 -104t-90 -68.5t-98.5 -24.5q-59 0 -89.5 32t-32.5 78q-43 -56 -78 -84.5t-71 -28.5zM70 -6q14 0 29.5 8.5t32 23t34 33.5t33.5 40l3 15q-33 11 -50 41t-17 64q0 7 1 14l2 14q-27 -31 -48.5 -70t-34 -76.5t-12.5 -67.5
q0 -20 7 -29.5t20 -9.5zM209 140q13 37 35.5 72.5t51.5 65.5q-4 17 -15 27.5t-32 10.5q-18 0 -35.5 -15.5t-28.5 -41t-11 -55.5q0 -21 10 -37t25 -27zM270 124q27 9 61 26.5t65.5 41.5t52 53t20.5 61q0 11 -4 17t-17 6q-24 0 -51 -18.5t-52 -48.5t-45 -66t-30 -72z" />
    <glyph glyph-name="Racute" unicode="&#x154;" horiz-adv-x="577" 
d="M464 -121q-22 0 -51.5 27.5t-61.5 72t-63.5 97.5t-58 106t-44.5 95q-28 -98 -54 -192.5t-49 -171.5q-25 0 -45.5 14t-20.5 36q0 11 5 26.5t9 28.5q25 79 49 149t47 135t47.5 129t51.5 129t58 135q-42 -7 -73 -20.5t-50 -25t-26 -11.5q-4 0 -11.5 4.5t-13.5 11t-6 11.5
q26 11 61 24t77 22t87 9q43 0 87.5 -10.5t82 -33t60.5 -58t23 -85.5q0 -49 -22.5 -84.5t-59 -59.5t-79.5 -38.5t-85 -22t-76 -10t-51 -2.5q31 -53 59 -103t61 -99.5t78 -99.5t109 -102q-6 -13 -21.5 -23t-29.5 -10zM201 332q54 3 109.5 17.5t101.5 41t74 67t28 96.5
q0 55 -26 86.5t-67 45t-86 13.5q-34 -69 -68 -165.5t-66 -201.5zM452 748q-7 4 -10.5 13t-3.5 13q0 9 10.5 28.5t26.5 41t34 36.5t33 15q8 0 14.5 -6.5t7.5 -24.5q-36 -31 -63 -59t-49 -57z" />
    <glyph glyph-name="racute" unicode="&#x155;" horiz-adv-x="348" 
d="M173 -26q-34 0 -53.5 18t-19.5 47q0 30 14 63t27.5 65.5t13.5 58.5q0 32 -18.5 47.5t-37.5 28.5q-23 -59 -48 -112t-41 -80l-9 17q14 26 36.5 76t44.5 114q-10 10 -10 24q0 30 17 49t25 19q11 0 12.5 -9.5t1.5 -14.5t-5.5 -19.5t-5.5 -17.5q0 -14 15.5 -25.5t35.5 -26
t35.5 -35t15.5 -52.5q0 -30 -12.5 -61t-25 -59t-12.5 -49q0 -18 9 -24t21 -6q24 0 49.5 15t49.5 38t43 48.5t28 47.5l13 -10q-19 -42 -52 -82.5t-73.5 -66.5t-83.5 -26zM226 476q-7 4 -10.5 13t-3.5 13q0 9 10.5 28.5t26.5 41t34 36.5t33 15q8 0 14.5 -6.5t7.5 -24.5
q-36 -31 -63 -59t-49 -57z" />
    <glyph glyph-name="uni0156" unicode="&#x156;" horiz-adv-x="577" 
d="M464 -121q-22 0 -51.5 27.5t-61.5 72t-63.5 97.5t-58 106t-44.5 95q-28 -98 -54 -192.5t-49 -171.5q-25 0 -45.5 14t-20.5 36q0 11 5 26.5t9 28.5q25 79 49 149t47 135t47.5 129t51.5 129t58 135q-42 -7 -73 -20.5t-50 -25t-26 -11.5q-4 0 -11.5 4.5t-13.5 11t-6 11.5
q26 11 61 24t77 22t87 9q43 0 87.5 -10.5t82 -33t60.5 -58t23 -85.5q0 -49 -22.5 -84.5t-59 -59.5t-79.5 -38.5t-85 -22t-76 -10t-51 -2.5q31 -53 59 -103t61 -99.5t78 -99.5t109 -102q-6 -13 -21.5 -23t-29.5 -10zM201 332q54 3 109.5 17.5t101.5 41t74 67t28 96.5
q0 55 -26 86.5t-67 45t-86 13.5q-34 -69 -68 -165.5t-66 -201.5zM184 -256q-9 5 -13 15t-4 22q0 20 9 45.5t23 43.5t29 18q10 0 17.5 -8.5t7.5 -19.5q-28 -29 -41.5 -58t-27.5 -58z" />
    <glyph glyph-name="uni0157" unicode="&#x157;" horiz-adv-x="348" 
d="M173 -26q-34 0 -53.5 18t-19.5 47q0 30 14 63t27.5 65.5t13.5 58.5q0 32 -18.5 47.5t-37.5 28.5q-23 -59 -48 -112t-41 -80l-9 17q14 26 36.5 76t44.5 114q-10 10 -10 24q0 30 17 49t25 19q11 0 12.5 -9.5t1.5 -14.5t-5.5 -19.5t-5.5 -17.5q0 -14 15.5 -25.5t35.5 -26
t35.5 -35t15.5 -52.5q0 -30 -12.5 -61t-25 -59t-12.5 -49q0 -18 9 -24t21 -6q24 0 49.5 15t49.5 38t43 48.5t28 47.5l13 -10q-19 -42 -52 -82.5t-73.5 -66.5t-83.5 -26zM25 -203q-9 5 -13 15t-4 22q0 20 9 45.5t23 43.5t29 18q10 0 17.5 -8.5t7.5 -19.5q-28 -29 -41.5 -58
t-27.5 -58z" />
    <glyph glyph-name="Rcaron" unicode="&#x158;" horiz-adv-x="577" 
d="M464 -121q-22 0 -51.5 27.5t-61.5 72t-63.5 97.5t-58 106t-44.5 95q-28 -98 -54 -192.5t-49 -171.5q-25 0 -45.5 14t-20.5 36q0 11 5 26.5t9 28.5q25 79 49 149t47 135t47.5 129t51.5 129t58 135q-42 -7 -73 -20.5t-50 -25t-26 -11.5q-4 0 -11.5 4.5t-13.5 11t-6 11.5
q26 11 61 24t77 22t87 9q43 0 87.5 -10.5t82 -33t60.5 -58t23 -85.5q0 -49 -22.5 -84.5t-59 -59.5t-79.5 -38.5t-85 -22t-76 -10t-51 -2.5q31 -53 59 -103t61 -99.5t78 -99.5t109 -102q-6 -13 -21.5 -23t-29.5 -10zM201 332q54 3 109.5 17.5t101.5 41t74 67t28 96.5
q0 55 -26 86.5t-67 45t-86 13.5q-34 -69 -68 -165.5t-66 -201.5zM449 754q-12 0 -27.5 11t-29.5 28.5t-23.5 36.5t-9.5 35q0 10 4 18.5t13 12.5q14 -28 32 -48.5t42 -43.5q31 11 56 24t47 33q6 -4 8 -9t2 -10q0 -15 -13.5 -30t-33 -28.5t-38.5 -21.5t-29 -8z" />
    <glyph glyph-name="rcaron" unicode="&#x159;" horiz-adv-x="348" 
d="M173 -26q-34 0 -53.5 18t-19.5 47q0 30 14 63t27.5 65.5t13.5 58.5q0 32 -18.5 47.5t-37.5 28.5q-23 -59 -48 -112t-41 -80l-9 17q14 26 36.5 76t44.5 114q-10 10 -10 24q0 30 17 49t25 19q11 0 12.5 -9.5t1.5 -14.5t-5.5 -19.5t-5.5 -17.5q0 -14 15.5 -25.5t35.5 -26
t35.5 -35t15.5 -52.5q0 -30 -12.5 -61t-25 -59t-12.5 -49q0 -18 9 -24t21 -6q24 0 49.5 15t49.5 38t43 48.5t28 47.5l13 -10q-19 -42 -52 -82.5t-73.5 -66.5t-83.5 -26zM233 476q-12 0 -27.5 11t-29.5 28.5t-23.5 36.5t-9.5 35q0 10 4 18.5t13 12.5q14 -28 32 -48.5
t42 -43.5q31 11 56 24t47 33q6 -4 8 -9t2 -10q0 -15 -13.5 -30t-33 -28.5t-38.5 -21.5t-29 -8z" />
    <glyph glyph-name="Sacute" unicode="&#x15a;" horiz-adv-x="536" 
d="M203 -87q-54 0 -102 19.5t-77.5 59.5t-29.5 100q0 52 20.5 81t50.5 41t57 12q-27 -29 -41 -64t-14 -70q0 -37 16.5 -69t50.5 -51.5t86 -19.5q45 0 88 16.5t70.5 49t27.5 80.5q0 43 -22 74t-56.5 55t-73.5 46t-73.5 46.5t-56.5 56.5t-22 77q0 42 20 88t57.5 87t90 66.5
t117.5 25.5q59 0 82 -28.5t23 -71.5q0 -36 -12.5 -77.5t-30.5 -79t-34 -63.5q-18 4 -25.5 15.5t-7.5 27.5q0 21 9 48t20.5 56t20.5 56.5t9 49.5q0 20 -12 31.5t-44 11.5q-47 0 -87 -22t-70 -56.5t-46.5 -72.5t-16.5 -69q0 -37 21.5 -63.5t55.5 -48t72.5 -43t72.5 -47.5
t55.5 -61.5t21.5 -86.5q0 -52 -23 -91.5t-61.5 -66.5t-84.5 -41t-92 -14zM429 738q-7 4 -10.5 13t-3.5 13q0 9 10.5 28.5t26.5 41t34 36.5t33 15q8 0 14.5 -6.5t7.5 -24.5q-36 -31 -63 -59t-49 -57z" />
    <glyph glyph-name="sacute" unicode="&#x15b;" horiz-adv-x="345" 
d="M105 -51q-47 0 -74.5 20.5t-39 50.5t-11.5 60t8 46t19.5 24t22 12t14.5 8q30 33 55 69t44 76v12q0 37 12.5 52.5t26.5 15.5q8 0 12 -4t4 -9t-3 -16t-3 -28q0 -33 13 -71.5t26 -81t13 -88.5q0 -13 -1.5 -25.5t-4.5 -23.5q35 6 66 31.5t60 81.5l9 -10q-19 -55 -57 -83.5
t-83 -35.5q-16 -43 -50.5 -63t-77.5 -20zM107 -16q12 0 32 8t31 41q-42 8 -74.5 33t-48.5 50q-22 -1 -22 -35q0 -36 21.5 -66.5t60.5 -30.5zM175 49q2 10 3 21t1 26q0 47 -11.5 93.5t-19.5 87.5q-23 -38 -48.5 -72.5t-48.5 -57.5q15 -32 46.5 -60t77.5 -38zM205 467
q-7 4 -10.5 13t-3.5 13q0 9 10.5 28.5t26.5 41t34 36.5t33 15q8 0 14.5 -6.5t7.5 -24.5q-36 -31 -63 -59t-49 -57z" />
    <glyph glyph-name="Scircumflex" unicode="&#x15c;" horiz-adv-x="536" 
d="M203 -87q-54 0 -102 19.5t-77.5 59.5t-29.5 100q0 52 20.5 81t50.5 41t57 12q-27 -29 -41 -64t-14 -70q0 -37 16.5 -69t50.5 -51.5t86 -19.5q45 0 88 16.5t70.5 49t27.5 80.5q0 43 -22 74t-56.5 55t-73.5 46t-73.5 46.5t-56.5 56.5t-22 77q0 42 20 88t57.5 87t90 66.5
t117.5 25.5q59 0 82 -28.5t23 -71.5q0 -36 -12.5 -77.5t-30.5 -79t-34 -63.5q-18 4 -25.5 15.5t-7.5 27.5q0 21 9 48t20.5 56t20.5 56.5t9 49.5q0 20 -12 31.5t-44 11.5q-47 0 -87 -22t-70 -56.5t-46.5 -72.5t-16.5 -69q0 -37 21.5 -63.5t55.5 -48t72.5 -43t72.5 -47.5
t55.5 -61.5t21.5 -86.5q0 -52 -23 -91.5t-61.5 -66.5t-84.5 -41t-92 -14zM521 734q-14 29 -32 49.5t-42 42.5q-31 -11 -55.5 -24t-47.5 -33q-6 4 -8 9.5t-2 9.5q0 15 13.5 30t33 28.5t38.5 21.5t29 8q12 0 27.5 -11t29.5 -28.5t23.5 -36.5t9.5 -35q0 -10 -4 -18t-13 -13z
" />
    <glyph glyph-name="scircumflex" unicode="&#x15d;" horiz-adv-x="345" 
d="M105 -51q-47 0 -74.5 20.5t-39 50.5t-11.5 60t8 46t19.5 24t22 12t14.5 8q30 33 55 69t44 76v12q0 37 12.5 52.5t26.5 15.5q8 0 12 -4t4 -9t-3 -16t-3 -28q0 -33 13 -71.5t26 -81t13 -88.5q0 -13 -1.5 -25.5t-4.5 -23.5q35 6 66 31.5t60 81.5l9 -10q-19 -55 -57 -83.5
t-83 -35.5q-16 -43 -50.5 -63t-77.5 -20zM107 -16q12 0 32 8t31 41q-42 8 -74.5 33t-48.5 50q-22 -1 -22 -35q0 -36 21.5 -66.5t60.5 -30.5zM175 49q2 10 3 21t1 26q0 47 -11.5 93.5t-19.5 87.5q-23 -38 -48.5 -72.5t-48.5 -57.5q15 -32 46.5 -60t77.5 -38zM302 459
q-14 29 -32 49.5t-42 42.5q-31 -11 -55.5 -24t-47.5 -33q-6 4 -8 9.5t-2 9.5q0 15 13.5 30t33 28.5t38.5 21.5t29 8q12 0 27.5 -11t29.5 -28.5t23.5 -36.5t9.5 -35q0 -10 -4 -18t-13 -13z" />
    <glyph glyph-name="Scedilla" unicode="&#x15e;" horiz-adv-x="536" 
d="M203 -87q-54 0 -102 19.5t-77.5 59.5t-29.5 100q0 52 20.5 81t50.5 41t57 12q-27 -29 -41 -64t-14 -70q0 -37 16.5 -69t50.5 -51.5t86 -19.5q45 0 88 16.5t70.5 49t27.5 80.5q0 43 -22 74t-56.5 55t-73.5 46t-73.5 46.5t-56.5 56.5t-22 77q0 42 20 88t57.5 87t90 66.5
t117.5 25.5q59 0 82 -28.5t23 -71.5q0 -36 -12.5 -77.5t-30.5 -79t-34 -63.5q-18 4 -25.5 15.5t-7.5 27.5q0 21 9 48t20.5 56t20.5 56.5t9 49.5q0 20 -12 31.5t-44 11.5q-47 0 -87 -22t-70 -56.5t-46.5 -72.5t-16.5 -69q0 -37 21.5 -63.5t55.5 -48t72.5 -43t72.5 -47.5
t55.5 -61.5t21.5 -86.5q0 -52 -23 -91.5t-61.5 -66.5t-84.5 -41t-92 -14zM152 -284q-29 0 -45 11t-16 25q0 8 5.5 16.5t16.5 16.5q5 -24 17 -34.5t25 -10.5q19 0 38 14.5t32 35t13 37.5q0 8 -3.5 16.5t-13.5 8.5q-13 0 -31 -10t-33 -20.5t-21 -10.5q-7 0 -10.5 6.5
t-3.5 11.5q0 2 8.5 14t20.5 28.5t24.5 32t21.5 23.5h13l-53 -81q11 8 27 16t40 8q23 0 34 -10.5t11 -31.5q0 -28 -16.5 -54t-43 -42t-57.5 -16z" />
    <glyph glyph-name="scedilla" unicode="&#x15f;" horiz-adv-x="345" 
d="M105 -51q-47 0 -74.5 20.5t-39 50.5t-11.5 60t8 46t19.5 24t22 12t14.5 8q30 33 55 69t44 76v12q0 37 12.5 52.5t26.5 15.5q8 0 12 -4t4 -9t-3 -16t-3 -28q0 -33 13 -71.5t26 -81t13 -88.5q0 -13 -1.5 -25.5t-4.5 -23.5q35 6 66 31.5t60 81.5l9 -10q-19 -55 -57 -83.5
t-83 -35.5q-16 -43 -50.5 -63t-77.5 -20zM107 -16q12 0 32 8t31 41q-42 8 -74.5 33t-48.5 50q-22 -1 -22 -35q0 -36 21.5 -66.5t60.5 -30.5zM175 49q2 10 3 21t1 26q0 47 -11.5 93.5t-19.5 87.5q-23 -38 -48.5 -72.5t-48.5 -57.5q15 -32 46.5 -60t77.5 -38zM48 -245
q-29 0 -45 11t-16 25q0 8 5.5 16.5t16.5 16.5q5 -24 17 -34.5t25 -10.5q19 0 38 14.5t32 35t13 37.5q0 8 -3.5 16.5t-13.5 8.5q-13 0 -31 -10t-33 -20.5t-21 -10.5q-7 0 -10.5 6.5t-3.5 11.5q0 2 8.5 14t20.5 28.5t24.5 32t21.5 23.5h13l-53 -81q11 8 27 16t40 8
q23 0 34 -10.5t11 -31.5q0 -28 -16.5 -54t-43 -42t-57.5 -16z" />
    <glyph glyph-name="Scaron" unicode="&#x160;" horiz-adv-x="536" 
d="M203 -87q-54 0 -102 19.5t-77.5 59.5t-29.5 100q0 52 20.5 81t50.5 41t57 12q-27 -29 -41 -64t-14 -70q0 -37 16.5 -69t50.5 -51.5t86 -19.5q45 0 88 16.5t70.5 49t27.5 80.5q0 43 -22 74t-56.5 55t-73.5 46t-73.5 46.5t-56.5 56.5t-22 77q0 42 20 88t57.5 87t90 66.5
t117.5 25.5q59 0 82 -28.5t23 -71.5q0 -36 -12.5 -77.5t-30.5 -79t-34 -63.5q-18 4 -25.5 15.5t-7.5 27.5q0 21 9 48t20.5 56t20.5 56.5t9 49.5q0 20 -12 31.5t-44 11.5q-47 0 -87 -22t-70 -56.5t-46.5 -72.5t-16.5 -69q0 -37 21.5 -63.5t55.5 -48t72.5 -43t72.5 -47.5
t55.5 -61.5t21.5 -86.5q0 -52 -23 -91.5t-61.5 -66.5t-84.5 -41t-92 -14zM426 744q-12 0 -27.5 11t-29.5 28.5t-23.5 36.5t-9.5 35q0 10 4 18.5t13 12.5q14 -28 32 -48.5t42 -43.5q31 11 56 24t47 33q6 -4 8 -9t2 -10q0 -15 -13.5 -30t-33 -28.5t-38.5 -21.5t-29 -8z" />
    <glyph glyph-name="scaron" unicode="&#x161;" horiz-adv-x="345" 
d="M105 -51q-47 0 -74.5 20.5t-39 50.5t-11.5 60t8 46t19.5 24t22 12t14.5 8q30 33 55 69t44 76v12q0 37 12.5 52.5t26.5 15.5q8 0 12 -4t4 -9t-3 -16t-3 -28q0 -33 13 -71.5t26 -81t13 -88.5q0 -13 -1.5 -25.5t-4.5 -23.5q35 6 66 31.5t60 81.5l9 -10q-19 -55 -57 -83.5
t-83 -35.5q-16 -43 -50.5 -63t-77.5 -20zM107 -16q12 0 32 8t31 41q-42 8 -74.5 33t-48.5 50q-22 -1 -22 -35q0 -36 21.5 -66.5t60.5 -30.5zM175 49q2 10 3 21t1 26q0 47 -11.5 93.5t-19.5 87.5q-23 -38 -48.5 -72.5t-48.5 -57.5q15 -32 46.5 -60t77.5 -38zM212 467
q-12 0 -27.5 11t-29.5 28.5t-23.5 36.5t-9.5 35q0 10 4 18.5t13 12.5q14 -28 32 -48.5t42 -43.5q31 11 56 24t47 33q6 -4 8 -9t2 -10q0 -15 -13.5 -30t-33 -28.5t-38.5 -21.5t-29 -8z" />
    <glyph glyph-name="uni0162" unicode="&#x162;" horiz-adv-x="490" 
d="M187 -87q-45 0 -62 20t-17 51q0 29 12 69t25 77q17 49 41 115t51.5 138t56 142t55.5 127q-69 -1 -115.5 -3t-83.5 -5.5t-81 -11.5q3 34 35 53t86 27t123 8t123.5 -5.5t102.5 -10.5t96 -6q-34 -31 -78 -39t-93 -8q-11 0 -23 0.5t-24 0.5h-24q-32 -80 -73.5 -202
t-83.5 -275q-14 -53 -25.5 -95t-18 -77t-6.5 -68v-11t1 -11zM94 -284q-29 0 -45 11t-16 25q0 8 5.5 16.5t16.5 16.5q5 -24 17 -34.5t25 -10.5q19 0 38 14.5t32 35t13 37.5q0 8 -3.5 16.5t-13.5 8.5q-13 0 -31 -10t-33 -20.5t-21 -10.5q-7 0 -10.5 6.5t-3.5 11.5q0 2 8.5 14
t20.5 28.5t24.5 32t21.5 23.5h13l-53 -81q11 8 27 16t40 8q23 0 34 -10.5t11 -31.5q0 -28 -16.5 -54t-43 -42t-57.5 -16z" />
    <glyph glyph-name="uni0163" unicode="&#x163;" horiz-adv-x="285" 
d="M85 -46q-43 0 -66 25t-23 74q0 44 16.5 108.5t41.5 132.5q-10 2 -19 3.5t-17 4.5v18q8 -1 19 -2t25 -2q21 54 45 104.5t47.5 90t45 63t36.5 23.5q8 0 14.5 -5.5t6.5 -16.5q0 -17 -21 -55.5t-52 -91.5t-60 -115h18.5h18.5q33 0 69.5 1t73.5 5v-18q-55 -6 -98.5 -9
t-77.5 -3h-7.5h-7.5q-23 -53 -39 -109t-16 -109q0 -43 13 -61.5t43 -18.5q52 0 102 46t88 125l13 -10q-24 -56 -60.5 -101t-80.5 -71t-91 -26zM43 -237q-29 0 -45 11t-16 25q0 8 5.5 16.5t16.5 16.5q5 -24 17 -34.5t25 -10.5q19 0 38 14.5t32 35t13 37.5q0 8 -3.5 16.5
t-13.5 8.5q-13 0 -31 -10t-33 -20.5t-21 -10.5q-7 0 -10.5 6.5t-3.5 11.5q0 2 8.5 14t20.5 28.5t24.5 32t21.5 23.5h13l-53 -81q11 8 27 16t40 8q23 0 34 -10.5t11 -31.5q0 -28 -16.5 -54t-43 -42t-57.5 -16z" />
    <glyph glyph-name="Tcaron" unicode="&#x164;" horiz-adv-x="490" 
d="M187 -87q-45 0 -62 20t-17 51q0 29 12 69t25 77q17 49 41 115t51.5 138t56 142t55.5 127q-69 -1 -115.5 -3t-83.5 -5.5t-81 -11.5q3 34 35 53t86 27t123 8t123.5 -5.5t102.5 -10.5t96 -6q-34 -31 -78 -39t-93 -8q-11 0 -23 0.5t-24 0.5h-24q-32 -80 -73.5 -202
t-83.5 -275q-14 -53 -25.5 -95t-18 -77t-6.5 -68v-11t1 -11zM411 754q-12 0 -27.5 11t-29.5 28.5t-23.5 36.5t-9.5 35q0 10 4 18.5t13 12.5q14 -28 32 -48.5t42 -43.5q31 11 56 24t47 33q6 -4 8 -9t2 -10q0 -15 -13.5 -30t-33 -28.5t-38.5 -21.5t-29 -8z" />
    <glyph glyph-name="tcaron" unicode="&#x165;" horiz-adv-x="285" 
d="M85 -46q-43 0 -66 25t-23 74q0 44 16.5 108.5t41.5 132.5q-10 2 -19 3.5t-17 4.5v18q8 -1 19 -2t25 -2q21 54 45 104.5t47.5 90t45 63t36.5 23.5q8 0 14.5 -5.5t6.5 -16.5q0 -17 -21 -55.5t-52 -91.5t-60 -115h18.5h18.5q33 0 69.5 1t73.5 5v-18q-55 -6 -98.5 -9
t-77.5 -3h-7.5h-7.5q-23 -53 -39 -109t-16 -109q0 -43 13 -61.5t43 -18.5q52 0 102 46t88 125l13 -10q-24 -56 -60.5 -101t-80.5 -71t-91 -26zM294 393q-9 0 -17 6.5t-8 19.5q0 19 14.5 43t35.5 42t39 18q9 0 14 -4q-19 -26 -35.5 -58.5t-26.5 -61.5q-7 -5 -16 -5z" />
    <glyph glyph-name="Tbar" unicode="&#x166;" horiz-adv-x="491" 
d="M59 362q2 26 35 41.5t88.5 22.5t126.5 7q56 0 104 -2.5t93 -8.5q-5 -19 -32.5 -27.5t-83 -11t-144.5 -2.5q-70 0 -112.5 -4.5t-74.5 -14.5zM187 -87q-45 0 -62 20t-17 51q0 29 12 69t25 77q17 49 41 115t51.5 138t56 142t55.5 127q-69 -1 -115.5 -3t-83.5 -5.5t-81 -11.5
q3 34 35 53t86 27t123 8t123.5 -5.5t102.5 -10.5t96 -6q-34 -31 -78 -39t-93 -8q-11 0 -23 0.5t-24 0.5h-24q-32 -80 -73.5 -202t-83.5 -275q-14 -53 -25.5 -95t-18 -77t-6.5 -68v-11t1 -11z" />
    <glyph glyph-name="tbar" unicode="&#x167;" horiz-adv-x="286" 
d="M85 -46q-43 0 -66 25t-23 74q0 46 17.5 114t44.5 139q21 55 45.5 107t49 93.5t46 66t37.5 24.5q8 0 14.5 -5.5t6.5 -16.5q0 -18 -23 -58.5t-55.5 -96.5t-61.5 -121q-25 -55 -42 -113.5t-17 -114.5q0 -43 13 -61.5t43 -18.5q52 0 102 46t88 125l13 -10q-24 -56 -60.5 -101
t-80.5 -71t-91 -26zM186 218q-15 0 -42 1.5t-59 3t-61 1.5q-16 0 -30 -0.5t-25 -2.5q8 19 32 27t67 8q24 0 63.5 -2.5t80 -6t66.5 -6.5q-22 -14 -47 -18.5t-45 -4.5zM96 316q-27 4 -38.5 5.5t-17 3t-14.5 4.5v18q10 -1 30 -4t60 -3q73 0 116 1t80 5v-18q-55 -6 -103.5 -9
t-112.5 -3z" />
    <glyph glyph-name="Utilde" unicode="&#x168;" horiz-adv-x="706" 
d="M541 -99q-37 0 -59 31.5t-22 74.5q0 14 2.5 37.5t6.5 53.5q-37 -82 -90 -133.5t-126 -51.5q-64 0 -97 39t-33 97q0 39 12.5 92.5t31.5 115t37.5 124.5t31 120.5t12.5 102.5q0 88 -56 88q-27 0 -47 -17.5t-33 -44.5t-19.5 -57t-6.5 -54q0 -14 2 -27t6 -22
q-38 0 -53.5 20.5t-15.5 48.5q0 31 15 63t41.5 58.5t61 43t73.5 16.5q55 0 79 -33t24 -88q0 -37 -9 -81.5t-23 -93t-30 -97.5q-23 -73 -42 -141.5t-19 -120.5q0 -46 19.5 -79t64.5 -33q41 0 75 26.5t60 68.5t44 89t28 87q14 60 31 127.5t35.5 133t37 118.5t36.5 85t34 32
q8 0 22 -8.5t28 -23.5q-8 -6 -25 -42.5t-38 -93.5t-42 -125.5t-39 -139t-29 -134.5t-11 -111q0 -69 18.5 -93t61.5 -24q-19 -13 -35.5 -18.5t-30.5 -5.5zM565 761q-27 0 -56 11.5t-58.5 23t-60.5 11.5q-13 0 -27 -3.5t-27 -11.5q20 28 42 39t45 11q28 0 58 -12t63 -24
t69 -12q16 0 34 8q-19 -23 -39.5 -32t-42.5 -9z" />
    <glyph glyph-name="utilde" unicode="&#x169;" horiz-adv-x="438" 
d="M75 -30q-34 0 -54.5 30.5t-20.5 70.5q0 29 9.5 67t23.5 75t29 61t26 24q5 0 17 -5.5t20 -14.5q-11 -17 -27 -52t-28 -75t-12 -74q0 -8 2 -24.5t10 -29.5t24 -13q19 0 39 19.5t40.5 50.5t39.5 67t35.5 69l27.5 55q6 -1 17.5 -4t21 -8t9.5 -14q0 -4 -10 -26.5t-23.5 -55
t-23.5 -65.5t-10 -58q0 -18 7.5 -29t25.5 -11q21 0 51 19t61 55.5t55 87.5l13 -9q-21 -54 -55 -95.5t-72 -64.5t-74 -23q-26 0 -41.5 10t-22 27t-6.5 37q0 12 2 24.5t5 25.5q-18 -33 -39 -61.5t-44 -45.5t-48 -17zM319 362q-27 0 -56 11.5t-58.5 23t-60.5 11.5
q-13 0 -27 -3.5t-27 -11.5q20 28 42 39t45 11q28 0 58 -12t63 -24t69 -12q16 0 34 8q-19 -23 -39.5 -32t-42.5 -9z" />
    <glyph glyph-name="Umacron" unicode="&#x16a;" horiz-adv-x="706" 
d="M541 -99q-37 0 -59 31.5t-22 74.5q0 14 2.5 37.5t6.5 53.5q-37 -82 -90 -133.5t-126 -51.5q-64 0 -97 39t-33 97q0 39 12.5 92.5t31.5 115t37.5 124.5t31 120.5t12.5 102.5q0 88 -56 88q-27 0 -47 -17.5t-33 -44.5t-19.5 -57t-6.5 -54q0 -14 2 -27t6 -22
q-38 0 -53.5 20.5t-15.5 48.5q0 31 15 63t41.5 58.5t61 43t73.5 16.5q55 0 79 -33t24 -88q0 -37 -9 -81.5t-23 -93t-30 -97.5q-23 -73 -42 -141.5t-19 -120.5q0 -46 19.5 -79t64.5 -33q41 0 75 26.5t60 68.5t44 89t28 87q14 60 31 127.5t35.5 133t37 118.5t36.5 85t34 32
q8 0 22 -8.5t28 -23.5q-8 -6 -25 -42.5t-38 -93.5t-42 -125.5t-39 -139t-29 -134.5t-11 -111q0 -69 18.5 -93t61.5 -24q-19 -13 -35.5 -18.5t-30.5 -5.5zM587 756q-22 0 -55 5.5t-69.5 13t-69 14t-55.5 8.5q10 26 46 26q37 0 79 -7.5t84.5 -18t77.5 -21.5q-14 -20 -38 -20z
" />
    </font>
</defs>
</svg>
