<?xml version="1.0" standalone="no"?>
<!DOCTYPE svg PUBLIC "-//W3C//DTD SVG 1.1//EN" "http://www.w3.org/Graphics/SVG/1.1/DTD/svg11.dtd" >
<svg xmlns="http://www.w3.org/2000/svg" xmlns:xlink="http://www.w3.org/1999/xlink" version="1.1">
<metadata>
Created by FontForge 20201107 at Fri Jul 17 13:46:28 2020
 By 
Copyright 2020 The Cinzel Project Authors (https://github.com/NDISCOVER/Cinzel)
</metadata>
<defs>
<font id="Cinzel-Regular" horiz-adv-x="712" >
  <font-face 
    font-family="Cinzel"
    font-weight="400"
    font-stretch="normal"
    units-per-em="1000"
    panose-1="0 0 0 0 0 0 0 0 0 0"
    ascent="800"
    descent="-200"
    x-height="600"
    cap-height="700"
    bbox="-200 -372 1851 976"
    underline-thickness="50"
    underline-position="-125"
    unicode-range="U+0020-FB02"
  />
<missing-glyph horiz-adv-x="500" 
d="M50 -372v1348h400v-1348h-400zM100 -322h300v1248h-300v-1248z" />
    <glyph glyph-name=".notdef" horiz-adv-x="500" 
d="M50 -372v1348h400v-1348h-400zM100 -322h300v1248h-300v-1248z" />
    <glyph glyph-name=".null" horiz-adv-x="0" 
 />
    <glyph glyph-name="nonmarkingreturn" horiz-adv-x="333" 
 />
    <glyph glyph-name="space" unicode=" " horiz-adv-x="250" 
 />
    <glyph glyph-name="space" unicode="&#xa0;" horiz-adv-x="250" 
 />
    <glyph glyph-name="exclam" unicode="!" horiz-adv-x="230" 
d="M115 -4q-19 0 -32 13t-13 32t13 32t32 13t32 -13t13 -32t-13 -32t-32 -13zM119 170h-10l-20 233l-12 299h75l-12 -299z" />
    <glyph glyph-name="quotedbl" unicode="&#x22;" horiz-adv-x="315" 
d="M66 700l70 14q0 -19 -3 -50t-11.5 -63.5t-23.5 -60t-39 -40.5l-9 5q10 44 14 74t4.5 57.5t-2.5 63.5zM196 700l70 14q0 -19 -3 -50t-11.5 -63.5t-23.5 -60t-39 -40.5l-9 5q10 44 14 74t4.5 57.5t-2.5 63.5z" />
    <glyph glyph-name="numbersign" unicode="#" horiz-adv-x="536" 
d="M212 700h32l-123 -700h-32zM412 700h32l-123 -700h-32zM516 497v-30h-452v30h452zM472 247v-30h-452v30h452z" />
    <glyph glyph-name="dollar" unicode="$" horiz-adv-x="469" 
d="M237 714q24 0 44.5 -2t38 -5.5t31 -7t22.5 -7.5v-111h-9q0 48 -32 75.5t-85 27.5q-33 0 -60 -16t-43 -42t-16 -56q0 -22 9.5 -47t31.5 -46l196 -182q29 -27 39.5 -58t10.5 -63q0 -84 -50 -135.5t-132 -52.5q-48 0 -97 13.5t-77 41.5q-4 16 -4 40t4 50.5t11 48.5h9
q-4 -52 12.5 -89.5t50.5 -56.5t81 -18q37 2 67.5 19t48.5 46.5t18 67.5q0 27 -9 51t-30 43l-192 178q-31 29 -42.5 61.5t-11.5 63.5q0 45 22.5 83.5t60 61.5t82.5 23zM373 704v-21h-76v21h76zM249 788l30 -1l-68 -889l-30 3z" />
    <glyph glyph-name="percent" unicode="%" horiz-adv-x="684" 
d="M217 714q60 0 89.5 -47t15.5 -130q-14 -82 -60.5 -129t-107.5 -47q-60 0 -89.5 47t-15.5 129q14 83 60.5 130t107.5 47zM213 694q-39 0 -68.5 -42t-42.5 -115t2 -114.5t54 -41.5t68.5 41.5t42.5 114.5t-2 115t-54 42zM168 -11l-25 11l356 676q-25 -13 -55 -27t-68 -11
q-30 3 -56.5 17.5t-52.5 27.5t-55 11v20q29 0 50 -7.5t38.5 -18.5t35.5 -20t41 -11q29 -2 55 8t48.5 23.5t38.5 20.5l22 -9zM531 339q60 0 89.5 -47t15.5 -130q-14 -82 -60.5 -129t-107.5 -47q-60 0 -89.5 47t-15.5 129q14 83 60.5 130t107.5 47zM527 319q-39 0 -68.5 -42
t-42.5 -115t2 -114.5t54 -41.5t68.5 41.5t42.5 114.5t-2 115t-54 42z" />
    <glyph glyph-name="ampersand" unicode="&#x26;" horiz-adv-x="646" 
d="M314 714q34 0 66 -9t59 -24.5t45 -37.5l-18 -113h-10q0 48 -18 82.5t-49.5 53t-74.5 18.5q-57 0 -94.5 -40t-37.5 -101q0 -63 41 -117t118 -123q22 -19 48.5 -43.5t61 -54.5t77.5 -66q32 -26 65.5 -55t69 -50t73.5 -24v-10q-19 0 -54.5 1t-78.5 14t-86 48
q-38 31 -69.5 57.5t-58 49t-49.5 43t-45 40.5q-58 54 -98.5 97.5t-62 89t-21.5 103.5q0 37 14 68t40.5 54t63.5 36t83 13zM590 329q11 -55 6 -105t-24.5 -92.5t-53 -74.5t-79.5 -49.5t-103 -17.5q-58 0 -106.5 10t-85.5 29.5t-62.5 48t-38.5 65t-13 81.5q0 29 6.5 53.5
t18.5 45.5t28.5 37.5t36.5 30.5t43 24l14 -22q-20 -16 -34 -35.5t-23 -41t-13 -45t-4 -47.5q0 -45 15.5 -82.5t45 -64.5t73 -42t99.5 -15q51 0 90.5 20.5t66 54t39.5 74.5t11 82.5t-20 77.5q-10 20 -25.5 33t-39.5 13h-15v10h199v-10h-15q-22 0 -31.5 -13t-5.5 -33z" />
    <glyph glyph-name="quotesingle" unicode="'" horiz-adv-x="170" 
d="M51 700l70 14q0 -19 -3 -50t-11.5 -63.5t-23.5 -60t-39 -40.5l-9 5q10 44 14 74t4.5 57.5t-2.5 63.5z" />
    <glyph glyph-name="parenleft" unicode="(" horiz-adv-x="338" 
d="M309 724q-40 -19 -74.5 -75.5t-55 -137.5t-19.5 -175q2 -99 23 -186.5t54 -151t70 -89.5l-6 -9q-42 22 -79.5 64.5t-67 101t-46.5 127t-18 141.5q-1 72 16 137.5t46.5 118.5t68.5 90t82 52z" />
    <glyph glyph-name="parenright" unicode=")" horiz-adv-x="338" 
d="M30 724l6 8q43 -15 81.5 -52t68.5 -90t46.5 -118.5t16.5 -137.5q-1 -73 -18 -141.5t-47 -127t-67.5 -101t-78.5 -64.5l-6 9q37 26 70 89.5t54.5 151t22.5 186.5q1 94 -19.5 175t-54.5 137.5t-75 75.5z" />
    <glyph glyph-name="asterisk" unicode="*" horiz-adv-x="386" 
d="M291 474l-35 -8l-49 89l-13 46l6 4l39 -26l71 -74zM97 474l-19 30l70 75l39 26l7 -4l-14 -46l-48 -89zM36 658l24 27l92 -43l38 -29l-3 -8l-47 -1l-101 19zM194 773l33 -14l-13 -101l-16 -45h-8l-16 45l-13 101zM351 659l-3 -36l-100 -19l-48 1l-2 8l37 29l92 44z
M197 614l3 -3l1 -5l-1 -2l-5 -4q-1 1 -2 1h-1l-5 4v2l1 6l3 1h6z" />
    <glyph glyph-name="plus" unicode="+" horiz-adv-x="481" 
d="M40 332h402v-45h-402v45zM218 109v402h45v-402h-45z" />
    <glyph glyph-name="comma" unicode="," horiz-adv-x="185" 
d="M55 65q7 14 22 18.5t30.5 -2t23.5 -26.5q12 -28 9.5 -53.5t-15.5 -45.5t-33.5 -32t-44.5 -13l-2 8q30 10 39 27t5.5 34.5t-11.5 27.5q-6 8 -13.5 16t-11 18.5t1.5 22.5z" />
    <glyph glyph-name="hyphen" unicode="-" horiz-adv-x="380" 
d="M40 314h300l6 -22l-6 -23h-300l-6 23z" />
    <glyph glyph-name="period" unicode="." horiz-adv-x="179" 
d="M90 -4q-19 0 -32 13t-13 32t13 32t32 13t32 -13t13 -32t-13 -32t-32 -13z" />
    <glyph glyph-name="slash" unicode="/" horiz-adv-x="406" 
d="M367 714l32 -17l-361 -711l-31 19z" />
    <glyph glyph-name="slash" unicode="&#x2215;" horiz-adv-x="406" 
d="M367 714l32 -17l-361 -711l-31 19z" />
    <glyph glyph-name="zero" unicode="0" horiz-adv-x="596" 
d="M298 714q73 0 125.5 -44t81 -125.5t28.5 -194.5t-28.5 -194.5t-81 -125.5t-125.5 -44t-125.5 44t-81 125.5t-28.5 194.5t28.5 194.5t81 125.5t125.5 44zM298 684q-76 0 -120.5 -89.5t-44.5 -244.5t44.5 -244.5t120.5 -89.5q77 0 121 89.5t44 244.5t-44 244.5t-121 89.5z
" />
    <glyph glyph-name="one" unicode="1" horiz-adv-x="344" 
d="M284 0v10h-21q-22 0 -38.5 15.5t-16.5 37.5v651h-10q-15 -17 -31 -28.5t-33 -18t-35.5 -10.5t-38.5 -7v-10h38q23 0 34.5 -12.5t11.5 -36.5v-527q0 -22 -16 -38t-39 -16h-21l-1 -10h217z" />
    <glyph glyph-name="two" unicode="2" horiz-adv-x="553" 
d="M92 536l-18 113q19 19 49 33.5t64 23t66 8.5q66 0 115.5 -24t76.5 -68t27 -106q0 -51 -22.5 -103.5t-58.5 -103t-78 -97t-82 -86t-70 -70.5h230q30 0 49.5 8t35 27t32.5 50h10l-47 -141h-411v10q35 32 79.5 78.5t89.5 100.5t83 111t61.5 111.5t23.5 100.5
q0 81 -38.5 127.5t-105.5 44.5q-70 -1 -111 -39t-40 -109h-10z" />
    <glyph glyph-name="three" unicode="3" horiz-adv-x="503" 
d="M217 712q61 3 105 -16.5t68 -54t24 -78.5q0 -36 -16 -69t-41.5 -57t-55 -34.5t-56.5 -3.5q33 0 66 -11.5t61 -34.5t44.5 -57.5t16.5 -79.5q0 -47 -19.5 -89t-54 -75.5t-81.5 -56t-102.5 -30t-115.5 2.5l2 10q60 -1 113 16t94.5 49t65 77t23.5 99q0 57 -26.5 93.5
t-72.5 54t-106 17.5l2 10q45 0 88 20t70.5 58t24.5 93q-1 30 -14.5 56.5t-40 43.5t-68.5 17q-62 0 -96 -37.5t-31 -96.5h-10l-17 93q24 27 60.5 47.5t95.5 23.5z" />
    <glyph glyph-name="four" unicode="4" horiz-adv-x="583" 
d="M351 614l55 100h10v-713h-65v613zM406 714l10 -37l-301 -373h344q28 0 37 5t18 15h10l-21 -75h-463v10zM416 64q0 -22 16.5 -38t38.5 -16h11v-10h-198l1 10h10q23 0 39.5 15.5t16.5 38.5h65z" />
    <glyph glyph-name="five" unicode="5" horiz-adv-x="498" 
d="M389 624l-235 -15l-46 -158q63 16 120.5 11.5t102.5 -29.5t70 -69.5t22 -109.5q-3 -73 -34 -124.5t-77.5 -85t-97.5 -51.5t-95 -23t-69 -1l2 10q25 -1 61 9t75.5 31t74 53t58 75.5t27.5 98.5q5 68 -32 109.5t-102.5 51.5t-147.5 -18l-9 4l78 271l198 15q32 0 50 14t29 36
h10z" />
    <glyph glyph-name="six" unicode="6" horiz-adv-x="560" 
d="M401 734l4 -7q-71 -23 -121.5 -67.5t-82 -105t-46.5 -132.5t-15 -150q0 -75 17.5 -133t52 -91t85.5 -33q48 0 77.5 27t44 69.5t13.5 90.5q-1 50 -16.5 87t-45.5 57.5t-73 20.5q-31 0 -60.5 -13t-49.5 -39l-6 9q26 31 59 50.5t68.5 26t69 -1t61.5 -29.5t46 -60.5t22 -93.5
q4 -58 -20.5 -110.5t-73 -86t-116.5 -34.5q-67 -1 -119.5 33t-82 98.5t-28.5 155.5q1 78 21.5 155.5t61.5 143t104 109.5t149 54z" />
    <glyph glyph-name="seven" unicode="7" horiz-adv-x="502" 
d="M35 585h10q11 30 28 45t47 15h282l-88 -231q-13 -33 -29.5 -75t-34.5 -88.5t-36.5 -92.5t-34.5 -86.5t-28 -71.5h70q8 33 21.5 78t29.5 94.5t32.5 96.5t30 84t20.5 57l108 290l-400 -2z" />
    <glyph glyph-name="eight" unicode="8" horiz-adv-x="552" 
d="M96 547q0 47 21.5 84.5t62 59.5t96.5 23q52 1 92.5 -19t64 -58t23.5 -92q0 -44 -17 -80.5t-50 -62t-81 -37.5l-27 15q38 25 59.5 53t31 58.5t9.5 61.5q0 60 -28 95.5t-76 35.5q-51 0 -78.5 -37t-27.5 -87q0 -33 12 -62t35 -52.5t56 -42.5q28 -16 65 -33.5t72 -42t58 -61
t23 -91.5q0 -56 -26.5 -98.5t-75 -66.5t-114.5 -24q-49 0 -90 14t-69.5 39.5t-43.5 61.5t-13 80q1 27 8.5 50.5t21 44t33 38t45 33t56.5 28.5l24 -19q-46 -28 -79 -72.5t-34 -112.5q-1 -71 37 -113t105 -42q49 0 79.5 21t45.5 54t15 70q0 39 -13.5 65t-35.5 44t-47.5 31
t-49.5 25q-37 20 -69 42.5t-56 50t-37 59.5t-13 69z" />
    <glyph glyph-name="nine" unicode="9" horiz-adv-x="560" 
d="M159 -37l-3 7q71 20 121 64t81.5 105t46.5 132.5t15 146.5q0 81 -17 140.5t-51 91.5t-86 32q-47 0 -77.5 -26t-44.5 -68.5t-13 -92.5q1 -48 16.5 -86t45.5 -59t73 -20q31 1 60.5 13.5t49.5 38.5l5 -9q-25 -32 -58 -51t-69 -25t-70.5 2.5t-63 31t-45.5 60t-19 90.5
q-2 71 25 122t75.5 79.5t109.5 29.5q104 2 166.5 -73.5t62.5 -214.5q0 -75 -20 -152.5t-61.5 -145t-104.5 -111.5t-150 -52z" />
    <glyph glyph-name="colon" unicode=":" horiz-adv-x="179" 
d="M90 379q-19 0 -32 13t-13 32t13 32t32 13t32 -13t13 -32t-13 -32t-32 -13zM90 -4q-19 0 -32 13t-13 32t13 32t32 13t32 -13t13 -32t-13 -32t-32 -13z" />
    <glyph glyph-name="semicolon" unicode=";" horiz-adv-x="185" 
d="M55 65q7 14 22 18.5t30.5 -2t23.5 -26.5q12 -28 9.5 -53.5t-15.5 -45.5t-33.5 -32t-44.5 -13l-2 8q30 10 39 27t5.5 34.5t-11.5 27.5q-6 8 -13.5 16t-11 18.5t1.5 22.5zM90 407q-19 0 -32 13t-13 32t13 32t32 13t32 -13t13 -32t-13 -32t-32 -13z" />
    <glyph glyph-name="less" unicode="&#x3c;" horiz-adv-x="481" 
d="M442 475l-387 -187l1 43l386 -187v-48l-402 191v45l402 191v-48z" />
    <glyph glyph-name="equal" unicode="=" horiz-adv-x="481" 
d="M40 409h402v-45h-402v45zM40 234h402v-45h-402v45z" />
    <glyph glyph-name="greater" unicode="&#x3e;" horiz-adv-x="481" 
d="M40 475v48l402 -191v-45l-402 -191v48l386 187l1 -43z" />
    <glyph glyph-name="question" unicode="?" horiz-adv-x="413" 
d="M20 625q23 42 61 65.5t87 23.5q91 0 143 -45t52 -125q0 -41 -15.5 -72t-39 -57t-49 -49t-45.5 -47t-28 -52q-4 -16 -6.5 -31t1 -30t15.5 -31l-6 -5q-26 24 -35 48t-9 48q0 28 14.5 53t35.5 49.5t42 50.5t35.5 57t14.5 68q0 66 -32 103t-88 37q-60 0 -94.5 -41t-33.5 -113
h-10zM180 -4q-19 0 -32 13t-13 32t13 32t32 13t32 -13t13 -32t-13 -32t-32 -13z" />
    <glyph glyph-name="at" unicode="@" horiz-adv-x="977" 
d="M617 688q101 -13 171.5 -66.5t104 -134.5t22.5 -178q-10 -86 -46 -165.5t-97.5 -141.5t-146.5 -95.5t-193 -29t-238 59.5l-4 10q106 -41 200.5 -44.5t173.5 25t139.5 83.5t98 131t48.5 167q12 95 -13.5 170t-82 121.5t-137.5 57.5q-75 10 -144.5 -3.5t-129.5 -48.5
t-107.5 -89.5t-79.5 -126.5q-24 -54 -33.5 -105.5t-5 -92t23 -65t50.5 -24.5q28 0 55.5 19t53 48.5t48.5 62t42 58.5l127 173l12 15t25.5 33.5t17.5 28.5h7l-14 -52l-144 -205q-44 -63 -81 -110.5t-72.5 -74t-76.5 -26.5t-72 25t-47 69.5t-12.5 103t31.5 124.5
q32 76 84 135.5t120.5 98.5t150 55t171.5 4zM561 257l-7 -23h-189l8 23h188zM620 137q2 -25 13.5 -36t26.5 -11q-1 0 2 0h3l-1 -7h-158l1 7h7q12 0 27 12.5t14 34.5h65zM579 541l46 -454h-67l-21 383z" />
    <glyph glyph-name="A" unicode="A" 
d="M359 714l296 -708h-85l-231 613zM144 73q-7 -20 -2 -34t16.5 -21.5t23.5 -7.5h9v-10h-201v10h4.5h4.5q23 0 47.5 14.5t40.5 48.5h57zM359 714l9 -70l-251 -641h-60l256 608l5.5 12.5t13 30.5t13 35t5.5 25h9zM500 273v-30h-313v30h313zM545 73h82q15 -34 40 -48.5
t48 -14.5h4h4v-10h-225v10h9q19 0 34 16.5t4 46.5z" />
    <glyph glyph-name="B" unicode="B" horiz-adv-x="586" 
d="M153 700h106q70 0 118.5 -21t73.5 -58.5t25 -87.5q0 -42 -16 -73.5t-41 -51t-53 -27.5q53 -8 91.5 -35t59 -67.5t20.5 -90.5q0 -56 -27 -98.5t-79.5 -66t-126.5 -23.5h-111l0.5 9t0.5 18v9h106q52 0 88 18.5t55 54.5t19 86q0 56 -21.5 91t-55.5 53t-73.5 24.5t-75.5 6.5
v9q23 0 51 5t54 20t43 44.5t17 77.5q0 45 -16.5 77t-49 48.5t-80.5 16.5h-92q0 1 -2.5 8.5t-5 15.5zM202 700v-700h-65v700h65zM140 73v-73h-80l1 10h6.5h5.5q26 0 45 18.5t19 44.5h3zM140 627h-3q0 26 -19 44.5t-45 18.5h-5.5h-6.5l-1 10h80v-73z" />
    <glyph glyph-name="C" unicode="C" horiz-adv-x="760" 
d="M710 292l-12 -157q-26 -43 -65.5 -76.5t-93 -53t-122.5 -19.5q-104 1 -185 46t-126.5 126.5t-45.5 192.5q0 109 45 190.5t126.5 127t191.5 45.5q74 0 133.5 -19.5t103.5 -48.5l20 -141h-9q-22 88 -90 133.5t-158 45.5q-88 0 -152.5 -41.5t-100 -116t-35.5 -174.5
t35.5 -175t99 -117t147.5 -44q71 0 131.5 26.5t101.5 87t52 162.5h8z" />
    <glyph glyph-name="D" unicode="D" horiz-adv-x="807" 
d="M399 700q107 0 187.5 -43.5t126 -122.5t45.5 -184t-45.5 -183.5t-126 -122.5t-187.5 -44h-214l-1 30h21.5h54h64.5h53.5h21.5q86 0 149.5 40t99 112t35.5 168t-35.5 168t-99.5 112t-149 40h-22.5h-56h-67h-56.5h-23v30h225zM202 700v-700h-65v700h65zM140 73v-73h-80v10
h6.5h6.5q26 0 44.5 18.5t19.5 44.5h3zM140 627h-3q0 26 -19 44.5t-45 18.5h-6h-6l-1 10h80v-73z" />
    <glyph glyph-name="E" unicode="E" horiz-adv-x="577" 
d="M202 700v-700h-65v700h65zM472 31v-31h-273v31h273zM429 360v-30h-230v30h230zM472 700v-31h-273v31h273zM533 162l-58 -162h-166l36 31q53 0 86.5 16.5t54.5 46.5t37 68h10zM429 332v-66h-10v15q0 20 -14 34.5t-34 14.5v2h58zM429 424v-66h-58v2q20 1 34 15.5t14 34.5
v14h10zM472 672v-80h-10v18q0 24 -17 41.5t-42 18.5v2h69zM472 718v-29l-122 11q22 0 46.5 3t45.5 7t30 8zM140 73v-73h-80v10h6.5h6.5q26 0 44.5 18.5t19.5 44.5h3zM140 627h-3q0 26 -19 44.5t-45 18.5h-6h-6l-1 10h80v-73z" />
    <glyph glyph-name="F" unicode="F" horiz-adv-x="541" 
d="M202 700v-700h-65v700h65zM429 360v-30h-230v30h230zM472 700v-31h-273v31h273zM429 332v-66h-10v15q0 20 -14 34.5t-34 14.5v2h58zM429 424v-66h-58v2q20 1 34 15.5t14 34.5v14h10zM472 672v-67h-10v15q0 20 -14.5 34.5t-34.5 14.5v3h59zM472 718v-29l-122 11
q22 0 46.5 3t45.5 7t30 8zM140 73v-73h-80v10h6.5h6.5q26 0 44.5 18.5t19.5 44.5h3zM140 627h-3q0 26 -19 44.5t-45 18.5h-6h-6l-1 10h80v-73zM199 73h3q1 -26 19.5 -44.5t44.5 -18.5h6h7v-10h-80v73z" />
    <glyph glyph-name="G" unicode="G" horiz-adv-x="798" 
d="M709 280v-165q-23 -30 -62 -60t-95.5 -49.5t-132.5 -19.5q-106 1 -187 46.5t-126.5 127t-45.5 190.5t45.5 191t126.5 127.5t187 45.5q55 0 99 -9t79.5 -24.5t64.5 -34.5l20 -141h-9q-15 58 -49.5 97.5t-86.5 60.5t-118 21q-84 0 -148 -42t-100 -117t-36 -175t36 -175
t100 -116.5t148 -42.5q44 0 84.5 10.5t76.5 30t64 46.5l1 177q0 45 -51 45h-16v10h196v-10h-15q-52 0 -50 -45z" />
    <glyph glyph-name="H" unicode="H" horiz-adv-x="813" 
d="M676 700v-700h-65v700h65zM202 700v-700h-65v700h65zM620 361v-30h-428v30h428zM140 73v-73h-80v10h6.5h6.5q26 0 44.5 18.5t19.5 44.5h3zM140 627h-3q-1 26 -19.5 44.5t-44.5 18.5h-6.5h-6.5v10h80v-73zM199 73h3q1 -26 19.5 -44.5t44.5 -18.5h6h7v-10h-80v73zM199 627
v73h80v-10h-7h-6q-26 0 -44.5 -18.5t-19.5 -44.5h-3zM614 73v-73h-80v10h7h6q26 0 45 18.5t19 44.5h3zM614 627h-3q0 26 -19 44.5t-45 18.5h-6h-7v10h80v-73zM673 73h3q1 -26 19.5 -44.5t44.5 -18.5h6.5h6.5v-10h-80v73zM673 627v73h80v-10h-6.5h-6.5q-26 0 -44.5 -18.5
t-19.5 -44.5h-3z" />
    <glyph glyph-name="I" unicode="I" horiz-adv-x="338" 
d="M202 700v-700h-65v700h65zM140 73v-73h-80v10h6.5h6.5q26 0 44.5 18.5t19.5 44.5h3zM140 627h-3q-1 26 -19.5 44.5t-44.5 18.5h-6.5h-6.5v10h80v-73zM199 73h3q1 -26 19.5 -44.5t44.5 -18.5h6h7v-10h-80v73zM199 627v73h80v-10h-7h-6q-26 0 -44.5 -18.5t-19.5 -44.5h-3z
" />
    <glyph glyph-name="J" unicode="J" horiz-adv-x="324" 
d="M202 700v-700q0 -42 -14 -78.5t-39 -63.5t-58 -42.5t-71 -15.5v9q33 12 59.5 41.5t42 69.5t15.5 83v697h65zM140 627h-3q-1 26 -19.5 44.5t-44.5 18.5h-6.5h-6.5v10h80v-73zM199 627v73h80v-10h-6.5h-6.5q-26 0 -44.5 -18.5t-19.5 -44.5h-3z" />
    <glyph glyph-name="K" unicode="K" horiz-adv-x="657" 
d="M289 385l284 -334q21 -20 42.5 -30t52.5 -11v-10h-43q-10 0 -28.5 1.5t-40 7t-43 17t-38.5 31.5l-17.5 21l-45 54t-58 70.5t-58 70.5l-45 54l-17.5 21zM578 693l-299 -345h-45l275 345h69zM647 700v-9h-4q-33 0 -61.5 -13t-48.5 -36l-63 2q13 17 4.5 32t-28.5 15h-10v9
h207h4zM202 700v-700h-65v700h65zM140 73v-73h-80v10h6.5h6.5q26 0 44.5 18.5t19.5 44.5h3zM140 627h-3q-1 26 -19.5 44.5t-44.5 18.5h-6.5h-6.5v10h80v-73zM199 73h3q1 -26 19.5 -44.5t44.5 -18.5h6h7v-10h-80v73zM199 627v73h80v-10h-7h-6q-26 0 -44.5 -18.5t-19.5 -44.5
h-3z" />
    <glyph glyph-name="L" unicode="L" horiz-adv-x="562" 
d="M202 700v-700h-65v700h65zM472 31v-31h-273v31h273zM533 162l-58 -162h-166l36 31q53 0 86.5 16.5t54.5 46.5t37 68h10zM140 73v-73h-80v10h6.5h6.5q26 0 44.5 18.5t19.5 44.5h3zM140 627h-3q-1 26 -19.5 44.5t-44.5 18.5h-6.5h-6.5v10h80v-73zM199 627v73h80v-10h-7h-6
q-26 0 -44.5 -18.5t-19.5 -44.5h-3z" />
    <glyph glyph-name="M" unicode="M" horiz-adv-x="931" 
d="M741 714l8 -67l-251 -559l-7.5 -17t-15.5 -40.5t-11 -44.5h-10l-14 63zM126 73v-73h-111v10h8.5h7.5q27 0 48 16.5t25 46.5h22zM155 57v-2v-3q0 -16 11.5 -29.5t27.5 -13.5h15v-9h-61v57h7zM179 714h10l20 -59l-59 -655h-54zM189 714l288 -623l-23 -105l-284 616z
M750 714l86 -714h-78l-55 606l38 108h9zM806 73h21q5 -30 26 -46.5t47 -16.5h8h8v-10h-110v73zM753 57h7v-57h-61v9h15q17 0 28 13.5t11 29.5v3v2z" />
    <glyph glyph-name="N" unicode="N" horiz-adv-x="841" 
d="M126 715l581 -620l9 -109l-581 619zM128 71v-71h-83v10h9h10q25 0 43 18t18 43h3zM171 71q0 -25 18 -43t43 -18h10h9v-10h-83v71h3zM126 715l44 -56l1 -659h-46v590q0 51 -4.5 88l-4.5 37h10zM716 700v-586q0 -32 2 -61.5t4.5 -48l2.5 -18.5h-9l-45 53v661h45zM796 700
v-10h-9h-9q-25 0 -43 -17.5t-19 -43.5h-3v71h83zM590 700h83v-71h-2q-1 26 -18.5 43.5t-43.5 17.5h-9h-10v10z" />
    <glyph glyph-name="O" unicode="O" horiz-adv-x="838" 
d="M429 714q107 0 188 -45.5t126.5 -127.5t45.5 -191t-45.5 -191t-126.5 -127.5t-188 -45.5q-106 0 -187 45.5t-126.5 127.5t-45.5 191t45.5 191t126.5 127.5t187 45.5zM429 16q85 0 148.5 42t99 117t35.5 175t-35.5 175t-99 117t-148.5 42q-84 0 -147.5 -42t-99 -117
t-35.5 -175t35.5 -175t99 -117t147.5 -42z" />
    <glyph glyph-name="P" unicode="P" horiz-adv-x="577" 
d="M189 700h132q64 0 110 -23t71 -66.5t25 -103.5q0 -46 -18 -82.5t-48 -61.5t-68 -37.5t-78.5 -9.5t-78.5 23v10l17 -2.5t43.5 -1t56 11t55 33.5t38.5 67q3 11 5 27.5t1 32.5q-1 69 -36 111t-99 42h-118l-2.5 7.5l-5 15zM202 700v-700h-65v700h65zM140 73v-73h-80v10h6.5
h6.5q26 0 44.5 18.5t19.5 44.5h3zM140 627h-3q0 26 -19 44.5t-45 18.5h-6h-6l-1 10h80v-73zM199 73h3q1 -26 19.5 -44.5t44.5 -18.5h6.5h6.5v-10h-80v73z" />
    <glyph glyph-name="Q" unicode="Q" horiz-adv-x="837" 
d="M408 -14l10 26q18 0 47.5 -7t68.5 -19.5t86.5 -30.5t101.5 -40t114 -48q56 -24 121.5 -35.5t132.5 -7.5t127.5 26.5t106.5 65.5l4 -5q-7 -19 -33.5 -46.5t-70.5 -53t-103.5 -40t-133 -8.5t-159.5 43q-46 20 -98 47t-107 54t-109.5 48.5t-105.5 30.5zM419 714
q106 0 186.5 -45.5t126 -127.5t45.5 -191t-45.5 -191t-126.5 -127.5t-186 -45.5q-106 0 -187 45.5t-126.5 127.5t-45.5 191t45.5 191t126.5 127.5t187 45.5zM419 16q85 0 148.5 42t99 117t35.5 175t-35.5 175t-99 117t-148.5 42t-149 -42t-99.5 -117t-35.5 -175t36 -175
t100 -117t148 -42z" />
    <glyph glyph-name="R" unicode="R" horiz-adv-x="677" 
d="M189 700h141q45 0 81.5 -13t61.5 -37.5t38.5 -59t13.5 -78.5q0 -48 -22.5 -92t-61 -71.5t-86.5 -27.5q17 -7 37 -28.5t35 -41.5l13.5 -19.5t34 -47.5t41.5 -55t36 -43q20 -22 40 -39t43.5 -27t52.5 -10v-10h-55q-46 0 -79.5 14t-56.5 34.5t-39 39.5q-3 4 -16.5 23
t-32 45.5t-36.5 52.5t-31 44.5t-15 21.5q-19 25 -42 46t-50 21v10l15.5 -0.5t37.5 0.5q26 1 57 8t58 29t41 67q3 11 5 27.5t1 32.5q-1 68 -34.5 108.5t-89.5 43.5q-28 2 -57.5 1.5t-49.5 -0.5h-20q0 1 -2.5 8.5l-5 15zM202 700v-700h-65v700h65zM140 73v-73h-80v10h6.5h6.5
q26 0 44.5 18.5t19.5 44.5h3zM140 627h-3q-1 26 -19.5 44.5t-44.5 18.5h-6.5h-6.5v10h80v-73zM199 73h3q0 -26 19 -44.5t45 -18.5h6h6v-10h-79v73z" />
    <glyph glyph-name="S" unicode="S" horiz-adv-x="475" 
d="M251 714q16 0 34.5 -2t36 -5.5t32 -7t22.5 -7.5v-111h-9q0 48 -33 75.5t-80 27.5q-55 0 -89 -34.5t-34 -80.5q0 -19 8.5 -44.5t31.5 -47.5l197 -182q30 -28 40 -60t10 -62q0 -83 -50.5 -135t-136.5 -52q-24 0 -56.5 5t-63 17.5t-50.5 32.5q-3 16 -3 40t4 50.5t11 48.5h9
q-5 -51 13 -89t52.5 -57.5t78.5 -17.5q55 3 94.5 38.5t39.5 95.5q0 29 -10 52.5t-29 40.5l-192 178q-30 28 -42 61.5t-12 62.5q0 42 20 81t59.5 63.5t96.5 24.5zM376 704v-21h-76v21h76z" />
    <glyph glyph-name="T" unicode="T" horiz-adv-x="618" 
d="M342 697v-697h-65v697h65zM599 701v-30h-579v30h579zM599 674v-81l-10 1v17q0 25 -17.5 42t-41.5 18v3h69zM599 719v-29l-122 11q22 0 46.5 3t45.5 7t30 8zM280 73v-73h-80v10h6.5h6.5q26 0 44.5 18.5t19.5 44.5h3zM339 73h3q1 -26 19.5 -44.5t44.5 -18.5h6.5h6.5v-10
h-80v73zM89 674v-3q-25 -1 -42 -18t-17 -42v-17l-10 -1v81h69zM20 719q10 -4 30.5 -8t45.5 -7t46 -3l-122 -11v29z" />
    <glyph glyph-name="U" unicode="U" horiz-adv-x="785" 
d="M184 700v-440q0 -72 26.5 -127t74.5 -85.5t111 -30.5q67 0 117 29t78 80.5t28 120.5v453h47v-453q0 -78 -33.5 -136.5t-94.5 -91.5t-142 -33q-83 0 -145.5 32.5t-97 91t-34.5 136.5v454h65zM122 700v-60h-3q0 22 -15.5 36t-37.5 14h-8h-8v10h72zM253 700v-10h-8h-8
q-22 0 -37.5 -14t-15.5 -36h-2v60h71zM622 700v-60h-3q0 22 -15.5 36t-37.5 14h-8h-8v10h72zM735 700v-10h-8h-8q-22 0 -37.5 -14t-15.5 -36h-2v60h71z" />
    <glyph glyph-name="V" unicode="V" horiz-adv-x="740" 
d="M367 -14l-310 708h85l245 -613zM367 -14l-9 70l266 641h60l-271 -608l-5.5 -12.5t-13 -30.5t-13 -35t-5.5 -25h-9zM596 628q11 30 -4 46t-34 16h-9v10h201v-10h-4.5h-4.5q-22 0 -47 -14.5t-41 -48.5zM169 628l-83 -1q-15 34 -40 48.5t-48 14.5h-4h-4v10h225v-10h-9
q-19 0 -33.5 -16t-3.5 -46z" />
    <glyph glyph-name="W" unicode="W" horiz-adv-x="982" 
d="M63 694h81l186 -597l-17 -109zM511 716l8 -81l-176 -536l-5 -17.5t-10 -43t-6 -50.5h-9l-18 89l207 639h9zM511 715l210 -589l-22 -138l-222 619zM917 694l-187 -595l-5 -18t-10.5 -43.5t-6.5 -49.5h-9l-12 99l174 607h56zM842 628q8 30 -5 46t-33 16h-9v10h197v-10h-4
h-4q-23 0 -50 -14.5t-38 -47.5h-54zM165 628h-79q-12 33 -38.5 47.5t-49.5 14.5h-4h-4v10h222v-10h-9q-19 0 -33.5 -16t-4.5 -46z" />
    <glyph glyph-name="X" unicode="X" horiz-adv-x="662" 
d="M156 700l445 -699h-80l-443 699h78zM169 72q-9 -14 -5 -28.5t15.5 -24t24.5 -9.5h6.5h6.5v-10h-227v10h14q32 0 59 18t43 41zM309 372l23 -43l-208 -328h-64zM476 72l82 -4q16 -23 43 -40.5t58 -17.5h14v-10h-244v10h6h6q21 0 34.5 20t0.5 42zM249 700v-10h-6h-6
q-13 0 -24.5 -9.5t-15 -24t4.5 -28.5l-80 3q-16 23 -42.5 41t-58.5 18h-14v10h242zM586 700l-235 -346l-34 24l204 322h65zM654 700v-10h-14q-31 0 -57.5 -18t-43.5 -41l-64 -3q9 14 5.5 28.5t-14.5 24t-25 9.5h-6h-6v10h225z" />
    <glyph glyph-name="Y" unicode="Y" horiz-adv-x="661" 
d="M150 699l196 -365l-43 -35l-239 400h86zM360 322v-322h-65v322h65zM538 699h61l-246 -398l-36 11zM497 628q9 14 5 28.5t-15 24t-25 9.5h-6h-6v10h222v-10h-14q-31 0 -58 -18t-43 -41zM188 628l-84 3q-14 23 -41 41t-59 18h-14v10h246v-10h-6.5h-6.5q-22 0 -33.5 -20.5
t-1.5 -41.5zM297 73v-73h-79v10h6h7q26 0 44.5 18.5t19.5 44.5h2zM357 73h3q0 -26 19 -44.5t45 -18.5h6h6v-10h-79v73z" />
    <glyph glyph-name="Z" unicode="Z" horiz-adv-x="651" 
d="M580 714v-4.5v-4.5l-446 -705h-74v9l420 662h-406v30h400q20 0 42.5 2t40 5t23.5 6zM587 30l-6 -30h-457v30h463zM617 154l-33 -154h-132l7 25l11 5q56 0 89.5 36t47.5 88h10zM143 671q-25 -1 -42 -18t-17 -42v-18h-10v81h69v-3zM74 719q10 -4 30.5 -8t45.5 -7t46 -3
l-122 -11v29z" />
    <glyph glyph-name="bracketleft" unicode="[" horiz-adv-x="332" 
d="M120 722h169v-10l-104 -20v-752l107 -20v-10h-172v812z" />
    <glyph glyph-name="backslash" unicode="\" horiz-adv-x="406" 
d="M38 714l361 -709l-31 -19l-361 711z" />
    <glyph glyph-name="bracketright" unicode="]" horiz-adv-x="332" 
d="M212 722v-812h-172v10l107 20v752l-104 20v10h169z" />
    <glyph glyph-name="asciicircum" unicode="^" horiz-adv-x="523" 
d="M35 182h63l164 154l163 -154h63l-196 189h-60z" />
    <glyph glyph-name="underscore" unicode="_" horiz-adv-x="500" 
d="M0 -60h500v-30h-500v30z" />
    <glyph glyph-name="grave" unicode="`" horiz-adv-x="439" 
d="M240 753l-7 -7q-27 13 -54 26.5t-53.5 28.5t-53.5 30q8 16 18.5 29t22.5 24q21 -20 42 -41.5t42.5 -43.5t42.5 -46z" />
    <glyph glyph-name="a" unicode="a" horiz-adv-x="663" 
d="M336 614l275 -608h-79l-213 519zM143 73q-11 -30 3 -46.5t32 -16.5h8v-10h-191v10h4h4q21 0 43 14.5t38 48.5h59zM336 614l7 -69l-229 -542h-63l237 508l5.5 12t13 29.5t13.5 34.5t7 27h9zM454 233v-30h-265v30h265zM505 73h76q15 -34 37 -48.5t42 -14.5h4h4v-10h-205v10
h8q17 0 31 16.5t3 46.5z" />
    <glyph glyph-name="b" unicode="b" horiz-adv-x="570" 
d="M140 600h119q27 0 62.5 -5t68.5 -20t55 -45t22 -80q0 -30 -16 -56t-41 -43.5t-53 -24.5q49 -5 86.5 -27.5t59.5 -56.5t22 -74q0 -49 -20.5 -81.5t-53.5 -51.5t-72 -27t-76 -8h-122l0.5 7.5t0.5 15v7.5h120q43 0 77.5 14.5t54.5 45.5t20 78q0 48 -21 77.5t-55 45t-75 21
t-82 5.5v10q27 0 58 4t57.5 16.5t43.5 37t17 65.5q0 63 -37 91.5t-102 28.5h-109q0 1 -2.5 8.5t-4.5 14.5zM190 600v-600h-63v600h63zM130 64v-64h-75v10h6h6q26 0 42.5 16t17.5 38h3zM130 536h-3q-1 24 -17.5 39t-42.5 15h-6h-6v10h75v-64z" />
    <glyph glyph-name="c" unicode="c" horiz-adv-x="705" 
d="M666 252l-11 -137q-26 -40 -68 -69t-95 -44.5t-112 -15.5q-101 1 -175.5 39t-114.5 108t-40 167q0 98 40 168t114.5 108t175.5 38q62 0 125 -16t109 -45l22 -141h-9q-22 92 -88.5 132t-159.5 40q-79 0 -136.5 -34.5t-89 -98t-31.5 -151.5q0 -86 31.5 -149.5t89.5 -98
t137 -35.5q75 0 135.5 24.5t98.5 76.5t43 134h9z" />
    <glyph glyph-name="d" unicode="d" horiz-adv-x="760" 
d="M389 600q99 0 171 -36t111 -103.5t39 -160.5t-39 -160t-111 -103.5t-171 -36.5h-213l-2 30h117.5h72.5h25q116 0 182.5 72.5t66.5 197.5t-66.5 197.5t-182.5 72.5h-26h-76h-123v30h225zM190 600v-600h-65v600h65zM127 65v-65h-72v10h6.5h6.5q24 0 40 16.5t17 38.5h2z
M127 535h-2q-1 24 -17.5 39.5t-40.5 15.5h-6h-6v10h72v-65z" />
    <glyph glyph-name="e" unicode="e" horiz-adv-x="546" 
d="M191 600v-600h-64v600h64zM460 31l-2 -31h-269v31h271zM413 315v-30h-224v30h224zM459 600v-31h-270v31h270zM516 143l-55 -143h-152l34 31q50 0 80.5 14.5t49.5 40t33 57.5h10zM413 287v-57h-11v13q0 17 -10 29.5t-31 12.5v2h52zM413 370v-57h-52v2q21 0 31 12.5
t10 29.5v13h11zM459 572v-69h-11v15q0 21 -13.5 36t-36.5 15v3h61zM459 616v-26l-114 10q31 0 66 5.5t48 10.5zM129 64l13 -64h-87v10h7h7q25 0 41 16t17 38h2zM129 537h-2q-1 23 -17 38t-41 15h-7h-7v10h87z" />
    <glyph glyph-name="f" unicode="f" horiz-adv-x="523" 
d="M191 600v-600h-63v600h63zM416 315v-30h-227v30h227zM463 600v-31h-274v31h274zM416 287v-57h-11v13q0 17 -9.5 29.5t-31.5 12.5v2h52zM416 370v-57h-52v2q22 0 31.5 12.5t9.5 29.5v13h11zM463 572v-69h-11v15q0 21 -13.5 36t-36.5 15v3h61zM463 616v-26l-115 10
q21 0 44 2.5t42.5 6.5t28.5 7zM130 64l13 -64h-88v10h7h7q25 0 41.5 16t17.5 38h2zM130 537h-2q-1 23 -17.5 38t-41.5 15h-7h-7v10h88zM189 64h2q1 -22 17.5 -38t41.5 -16h7h7v-10h-88z" />
    <glyph glyph-name="g" unicode="g" horiz-adv-x="742" 
d="M378 614q46 0 86.5 -6.5t77 -20t69.5 -34.5l22 -141h-9q-14 59 -45.5 97t-81.5 56.5t-120 18.5q-76 0 -133.5 -34.5t-89.5 -98t-32 -151.5q0 -87 32 -151t90 -98.5t134 -34.5q42 0 80 9t73.5 28.5t66.5 49.5l1 133q1 19 -11.5 29t-34.5 10h-14v10h183v-10h-14
q-45 0 -45 -40v-120q-23 -29 -63 -59t-95.5 -50t-126.5 -20q-99 1 -172.5 39t-114.5 108t-41 167q0 98 41 168t115 108t172 38z" />
    <glyph glyph-name="h" unicode="h" horiz-adv-x="746" 
d="M622 600v-600h-64v600h64zM189 600v-600h-64v600h64zM568 311v-30h-390v30h390zM128 64v-64h-73v10h6h6q24 0 40.5 16t17.5 38h3zM186 64h3q0 -22 17 -38t41 -16h6h6v-10h-73v64zM186 536v64h73v-10h-6h-6q-24 0 -41 -15.5t-17 -38.5h-3zM128 536h-3q-1 23 -17.5 38.5
t-40.5 15.5h-6h-6v10h73v-64zM561 64v-64h-73v10h6h6q24 0 40.5 16t17.5 38h3zM619 64h3q1 -22 17.5 -38t40.5 -16h6h6v-10h-73v64zM619 536v64h73v-10h-6h-6q-24 0 -40.5 -15.5t-17.5 -38.5h-3zM561 536h-3q-1 23 -17.5 38.5t-40.5 15.5h-6h-6v10h73v-64z" />
    <glyph glyph-name="i" unicode="i" horiz-adv-x="336" 
d="M200 600v-600h-63v600h63zM140 64v-64h-85v10h7h7q28 0 47.5 16t20.5 38h3zM197 64h3q1 -22 20.5 -38t47.5 -16h6.5h6.5l1 -10h-85v64zM197 536v64h85l-1 -10h-6.5h-6.5q-28 0 -47.5 -15.5t-20.5 -38.5h-3zM140 536h-3q-1 23 -20.5 38.5t-47.5 15.5h-7.5h-6.5v10h85v-64z
" />
    <glyph glyph-name="j" unicode="j" horiz-adv-x="309" 
d="M196 600v-600q0 -36 -14.5 -68.5t-40 -57t-58.5 -38.5t-70 -14v10q32 10 59 36t43.5 60.5t16.5 71.5v600h64zM136 600v-64h-3q-1 23 -20 38.5t-46 15.5h-12l-1 10h82zM274 600v-10h-13q-26 0 -45 -15.5t-20 -38.5h-3v64h81z" />
    <glyph glyph-name="k" unicode="k" horiz-adv-x="624" 
d="M281 335l261 -284q17 -20 36 -30t51 -11v-10h-37q-12 0 -29.5 1.5t-38 7t-41 17t-38.5 31.5l-15.5 17.5t-40.5 45t-53.5 58t-53.5 58t-41 45l-16 17.5zM548 593l-276 -295h-47l251 295h72zM613 600v-10h-4q-31 0 -57.5 -10t-43.5 -30l-68 1q11 14 3.5 26.5t-25.5 12.5h-9
v10h200h4zM190 600v-600h-64v600h64zM128 64v-64h-73v10h6h6q24 0 41 16t18 38h2zM187 64h3q0 -22 17 -38t42 -16h5.5h5.5v-10h-73v64zM187 536v64h73v-10h-5.5h-6.5q-24 0 -41 -15.5t-17 -38.5h-3zM128 536h-2q-1 23 -18 38.5t-41 15.5h-6h-6v10h73v-64z" />
    <glyph glyph-name="l" unicode="l" horiz-adv-x="536" 
d="M191 600v-600h-64v600h64zM460 31l-2 -31h-269v31h271zM516 143l-55 -143h-152l34 31q50 0 80.5 14.5t49.5 40t33 57.5h10zM129 64l13 -64h-87v10h7h7q25 0 41 16t17 38h2zM188 536v64h74v-10h-6h-6q-24 0 -41.5 -15.5t-17.5 -38.5h-3zM129 536h-2q-1 23 -18 38.5
t-42 15.5h-6h-6v10h74v-64z" />
    <glyph glyph-name="m" unicode="m" horiz-adv-x="878" 
d="M698 614l9 -65l-234 -461l-7.5 -17t-15.5 -40.5t-12 -44.5h-10l-14 63zM112 67v-67h-104v10h7.5h7.5q26 0 45.5 15t22.5 42h21zM142 52q-1 -15 7 -28.5t30 -14.5h14v-9h-57v52h6zM169 614h10l20 -59l-62 -555h-55zM179 614l272 -523l-23 -105l-268 518zM707 614l90 -614
h-76l-65 503l42 111h9zM767 67h20q4 -27 24 -42t45 -15h7.5h7.5v-10h-104v67zM714 52h7v-52h-58v9h15q23 1 30.5 15t5.5 28z" />
    <glyph glyph-name="n" unicode="n" horiz-adv-x="779" 
d="M108 615l554 -522l10 -107l-554 525zM110 62v-62h-75v10h8.5h8.5q23 0 39 15t16 37h3zM152 62q0 -22 16.5 -37t38.5 -15h8.5h8.5v-10h-75v62h3zM108 615l43 -56l1 -559h-45v490q0 51 -4.5 88l-4.5 37h10zM672 600v-486q0 -32 2 -61.5t4.5 -48l2.5 -18.5h-9l-44 53v561h44
zM669 538v62h75v-10h-8.5h-8.5q-22 0 -38.5 -15t-16.5 -37h-3zM628 538q-1 22 -17 37t-39 15h-8.5h-8.5v10h75v-62h-2z" />
    <glyph glyph-name="o" unicode="o" horiz-adv-x="774" 
d="M387 614q70 0 131.5 -22.5t108 -64.5t72.5 -99.5t26 -127.5t-26 -127.5t-72.5 -99.5t-108 -64.5t-131.5 -22.5t-131 22.5t-107.5 64.5t-72.5 99.5t-26 127.5t26 127.5t72.5 99.5t107.5 64.5t131 22.5zM387 16q74 0 134 36t95 100t35 148q0 85 -35 148.5t-95 99.5t-134 36
q-73 0 -133 -36t-95 -99.5t-35 -148.5q0 -84 35 -148t95 -100t133 -36z" />
    <glyph glyph-name="p" unicode="p" horiz-adv-x="553" 
d="M178 600h111q70 0 121 -20.5t79 -59t28 -91.5q0 -57 -25.5 -97.5t-67.5 -62t-93 -21t-102 25.5v10l16.5 -3t42.5 -2.5t55 9t54.5 31.5t40.5 66q4 11 5.5 26t1.5 28q0 61 -42 96t-116 35h-98l-2.5 7.5t-5.5 15zM191 600v-600h-64v600h64zM129 64l13 -64h-87v10h7h7
q24 0 40.5 16t17.5 38h2zM129 537h-2q-1 23 -17.5 38t-40.5 15h-7h-7v10h87zM188 64h2q1 -22 17.5 -38t40.5 -16h7.5h6.5v-10h-87z" />
    <glyph glyph-name="q" unicode="q" horiz-adv-x="777" 
d="M381 614q69 0 128.5 -22.5t105 -64.5t71 -99.5t25.5 -127.5t-25.5 -127.5t-71 -99.5t-105 -64.5t-128.5 -22.5t-129 22.5t-105.5 64.5t-71 99.5t-25.5 127.5t25.5 127.5t71 99.5t105.5 64.5t129 22.5zM381 16q72 0 130 36t92.5 100t34.5 148q0 85 -34.5 148.5t-92.5 99.5
t-130 36t-130 -36t-92.5 -99.5t-34.5 -148.5q0 -84 34.5 -148t92.5 -100t130 -36zM379 -13l10 22q15 0 41 -6t60.5 -17t76.5 -26.5t90 -34t101 -39.5q50 -20 108 -30t117 -7.5t113 21.5t95 56l3 -4q-6 -16 -29.5 -40.5t-62.5 -47.5t-91.5 -36.5t-117.5 -8.5t-141 37
q-40 17 -86.5 41t-95.5 48.5t-97.5 44t-93.5 27.5z" />
    <glyph glyph-name="r" unicode="r" horiz-adv-x="627" 
d="M177 600h129q47 0 84.5 -11t64 -32t40.5 -51t14 -68q0 -42 -20 -78t-55.5 -59t-80.5 -28q17 -7 39.5 -31t38.5 -47l13 -17.5t33.5 -43t40.5 -48.5q21 -23 38.5 -40t38 -26.5t47.5 -9.5v-10h-31q-55 0 -90.5 14t-57.5 34.5t-38 39.5q-4 5 -18.5 25.5t-31.5 44.5t-31 43.5
t-17 23.5q-20 26 -46 46.5t-55 20.5v10l16 -0.5t41 0.5q28 1 56 4.5t52.5 21.5t38.5 60q4 11 6 26t1 31q-1 28 -10.5 50t-27 38t-41.5 25t-54 10q-47 2 -82 1t-35 0t-2.5 8.5l-5 15zM189 600v-600h-64v600h64zM128 64l12 -64h-85v10h7h7q24 0 40 16t17 38h2zM128 537h-2
q-1 23 -17 38t-40 15h-7h-7v10h85zM186 64h3q1 -22 17 -38t40 -16h6.5h6.5l1 -10h-86z" />
    <glyph glyph-name="s" unicode="s" horiz-adv-x="462" 
d="M234 614q28 0 49 -2t36.5 -4.5t27 -6t20.5 -6.5l1 -99h-12q0 41 -28 64.5t-87 23.5q-50 0 -85.5 -27.5t-34.5 -67.5q0 -13 3.5 -26.5t12 -26.5t23.5 -26l202 -156q23 -19 34 -48.5t12 -58.5q1 -44 -23 -81t-64.5 -58.5t-89.5 -21.5q-29 0 -62.5 5t-62.5 15.5t-48 26.5
q-3 14 -3 35.5t3.5 45.5t9.5 43h12q-4 -45 13 -77t50 -48.5t77 -15.5q62 2 97.5 31.5t35.5 78.5q0 24 -8.5 43.5t-27.5 36.5l-200 154q-28 24 -38 53t-10 55q0 41 22 74t59.5 52.5t83.5 19.5zM366 605l1 -18h-71v18h70z" />
    <glyph glyph-name="t" unicode="t" horiz-adv-x="578" 
d="M322 597v-597h-65v597h65zM564 601v-30h-549v30h549zM564 573v-69h-11v16q0 21 -13.5 35.5t-36.5 15.5v2h61zM564 617v-26l-112 10q20 0 42.5 2.5t41.5 6.5t28 7zM259 64v-64h-73v10h6.5h5.5q24 0 41 16t18 38h2zM319 64h3q1 -22 18 -38t41 -16h5.5h5.5v-10h-73v64z
M76 573v-2q-23 -1 -36.5 -15.5t-13.5 -35.5v-16h-11v69h61zM15 617q9 -3 27.5 -7t41.5 -6.5t43 -2.5l-112 -10v26z" />
    <glyph glyph-name="u" unicode="u" horiz-adv-x="700" 
d="M167 600v-378q0 -97 49.5 -153t135.5 -56q95 0 149.5 53t54.5 145v389h46v-389q0 -104 -66.5 -164.5t-182.5 -60.5q-115 0 -182.5 60t-67.5 164v390h64zM105 600v-53h-2q-1 18 -14.5 30.5t-33.5 12.5h-7.5h-7.5v10h65zM230 600v-10h-7.5h-7.5q-19 0 -33.5 -12.5
t-14.5 -30.5h-2v53h65zM558 600v-53h-2q0 18 -14 30.5t-34 12.5h-7.5h-7.5v10h65zM665 600v-10h-7.5h-7.5q-19 0 -33 -12.5t-15 -30.5h-2v53h65z" />
    <glyph glyph-name="v" unicode="v" horiz-adv-x="663" 
d="M327 -14l-275 608h79l213 -519zM327 -14l-7 69l229 542h63l-237 -508l-5.5 -12t-13 -29.5t-13.5 -34.5t-7 -27h-9zM520 527q11 30 -3 46.5t-32 16.5h-7v10h190v-10h-4h-4q-21 0 -43 -14.5t-38 -48.5h-59zM158 527h-76q-15 34 -37 48.5t-42 14.5h-4h-4v10h205v-10h-8
q-17 0 -30.5 -16.5t-3.5 -46.5z" />
    <glyph glyph-name="w" unicode="w" horiz-adv-x="899" 
d="M57 594h80l162 -493l-9 -113zM468 616l8 -81l-155 -436l-5 -17.5t-10.5 -43t-6.5 -50.5h-9l-19 89l187 539h10zM468 615l192 -489l-23 -138l-203 519zM836 594l-166 -495l-5.5 -18t-11 -43.5t-6.5 -49.5h-10l-12 99l154 507h57zM759 530q11 32 -1.5 46t-28.5 14h-8v10
h183v-10h-3.5h-3.5q-31 0 -52 -17t-30 -43h-56zM158 531l-76 -1q-10 26 -30 43t-52 17h-4h-4v10h206v-10h-8q-16 0 -29 -13.5t-3 -45.5z" />
    <glyph glyph-name="x" unicode="x" horiz-adv-x="626" 
d="M152 599l417 -598h-81l-415 598h79zM162 64q-13 -19 0.5 -36.5t32.5 -17.5h6h6v-10h-218v10h13q30 0 55 15.5t41 35.5zM296 313l20 -41l-201 -271h-63zM445 63l82 -3q15 -19 41 -34.5t56 -15.5h13v-10h-237v10h6h6q20 0 32.5 17.5t0.5 35.5zM240 600v-10h-6h-6
q-19 0 -32 -17.5t-1 -35.5l-80 3q-15 20 -41 35t-56 15h-13v10h235zM553 599l-213 -296l-25 42l170 254h68zM620 600v-10h-14q-30 0 -55.5 -15t-40.5 -36l-67 -3q12 19 -0.5 36.5t-32.5 17.5h-6h-6v10h222z" />
    <glyph glyph-name="y" unicode="y" horiz-adv-x="640" 
d="M149 599l185 -329l-41 -35l-231 364h87zM349 258v-258h-65v258h65zM517 599h63l-238 -362l-37 11zM479 536q11 20 1 37t-32 17h-6h-6v10h209v-10h-12q-28 0 -52.5 -15.5t-38.5 -35.5zM184 537l-85 3q-16 23 -39.5 36.5t-52.5 13.5h-12v10h232v-10h-6h-6
q-22 0 -31.5 -17.5t0.5 -35.5zM287 64v-64h-73v10h6.5h5.5q24 0 40.5 16t17.5 38h3zM346 64h3q1 -22 17.5 -38t40.5 -16h6h6v-10h-73v64z" />
    <glyph glyph-name="z" unicode="z" horiz-adv-x="608" 
d="M520 614v-4.5v-4.5l-400 -605h-70v9l373 562h-358v30h342q21 0 45 2t43 5t25 6zM529 30l-7 -30h-407v30h414zM583 143l-54 -143h-150l34 30q49 1 78.5 15t48.5 39.5t33 58.5h10zM65 573h61v-2q-22 -1 -36 -15.5t-14 -36.5v-15h-11v69zM65 617q9 -3 28 -6.5t41.5 -6
t42.5 -3.5l-112 -10v26z" />
    <glyph glyph-name="braceleft" unicode="{" horiz-adv-x="337" 
d="M138 340q5 13 1 42t-9.5 65.5t-5.5 69.5q1 61 18.5 109.5t55.5 77.5t98 29l2 -8q-46 -12 -69 -40t-31 -70.5t-9 -97.5q0 -33 1.5 -66t-1 -60.5t-13 -47t-35.5 -27.5q26 -6 36.5 -25.5t13 -48.5t0.5 -61.5t-2 -64.5q1 -41 5 -75.5t15.5 -61t32.5 -44.5t56 -27l-2 -8
q-60 0 -98 29t-55.5 78t-18.5 109q0 33 5 69t8.5 65t-2.5 42q-5 13 -21 17t-29 5v10q14 1 30.5 3t22.5 13z" />
    <glyph glyph-name="bar" unicode="|" horiz-adv-x="245" 
d="M100 700h45v-880h-45v880z" />
    <glyph glyph-name="braceright" unicode="}" horiz-adv-x="337" 
d="M42 733q61 0 98.5 -29t55 -77.5t17.5 -109.5q1 -33 -5 -69.5t-9.5 -65.5t1.5 -42q5 -11 22.5 -13t30.5 -3v-10q-13 -1 -29 -5t-21 -17t-2 -42t8 -65t4 -69q0 -60 -17.5 -109t-55 -78t-98.5 -29l-2 8q35 9 56 27t32.5 44.5t15.5 61t4 75.5q0 32 -1.5 64.5t1 61.5
t13.5 48.5t36 25.5q-25 8 -36 27.5t-13.5 47t-1 60.5t1.5 66q0 55 -8 97.5t-30.5 70.5t-69.5 40z" />
    <glyph glyph-name="asciitilde" unicode="~" horiz-adv-x="493" 
d="M85 219h-45q-8 47 4.5 77t38.5 45.5t57 16.5q26 0 54 -14.5t55.5 -34t52.5 -35t44 -15.5q21 -1 39 10t25.5 32.5t-2.5 51.5h45q12 -48 -2 -79t-43 -45.5t-62 -14.5q-26 0 -53 14.5t-53.5 34t-51.5 34.5t-48 16q-28 1 -46 -21t-9 -73z" />
    <glyph glyph-name="exclamdown" unicode="&#xa1;" horiz-adv-x="230" 
d="M115 706q19 0 32 -13.5t13 -31.5q0 -19 -13 -32t-32 -13t-32 13t-13 32q0 18 13 31.5t32 13.5zM111 529h10l20 -230l12 -299h-75l12 299z" />
    <glyph glyph-name="cent" unicode="&#xa2;" horiz-adv-x="602" 
d="M563 304l-8 -118q-32 -52 -92 -81.5t-134 -29.5q-84 1 -146.5 33.5t-97.5 93.5t-35 144q0 84 35 145t97.5 93.5t146.5 32.5q52 0 103.5 -14t88.5 -38l18 -122h-7q-13 53 -41.5 84.5t-69.5 45.5t-92 14q-97 0 -150.5 -63.5t-53.5 -177.5q0 -112 53.5 -175.5t150.5 -65.5
q62 0 111 20.5t80 64.5t35 114h8zM343 701l30 -1l-58 -709l-29 3z" />
    <glyph glyph-name="sterling" unicode="&#xa3;" horiz-adv-x="577" 
d="M548 159l-46 -135q-32 -15 -66.5 -23t-66.5 -10t-59 1q-44 6 -77.5 16t-62.5 16.5t-61 -0.5q-4 -1 -11.5 -4.5t-15.5 -8.5t-14 -11h-10v10q28 22 52.5 71t39 122t9.5 167q-3 71 5.5 131.5t31.5 106t63.5 73t100.5 33.5q49 5 85.5 -13t56.5 -44l-27 -91h-10
q6 46 -7.5 72.5t-39.5 37.5t-58 8q-60 -6 -89 -45.5t-37 -106.5t-5 -155q3 -81 -5 -135t-23.5 -88.5t-35.5 -57.5t-40 -42q38 13 84.5 6t102.5 -12q40 -3 83 4.5t81 32.5t62 74h10zM62 365h351l-13 -36h-350z" />
    <glyph glyph-name="currency" unicode="&#xa4;" horiz-adv-x="541" 
d="M119 503q42 42 96.5 55.5t109 0t95.5 -55.5q42 -42 55.5 -96.5t0 -109t-55.5 -96.5q-41 -41 -95.5 -55t-109 0t-96.5 55q-41 42 -55 96.5t0 109t55 96.5zM140 481q-36 -35 -48 -82t0 -93.5t48 -82.5t82.5 -48t93.5 0t83 48t47.5 82.5t0 93.5t-47.5 82q-36 36 -83 48
t-93.5 0t-82.5 -48zM50 553l21 21l72 -71l-22 -22zM399 204l21 21l72 -71l-22 -22zM71 132l-21 22l71 71l22 -21zM420 481l-21 22l71 71l22 -21z" />
    <glyph glyph-name="yen" unicode="&#xa5;" horiz-adv-x="661" 
d="M150 699l196 -365l-43 -35l-239 400h86zM360 322v-322h-65v322h65zM538 699h61l-246 -398l-36 11zM497 628q9 14 5 28.5t-15 24t-25 9.5h-6h-6v10h222v-10h-14q-31 0 -58 -18t-43 -41zM188 628l-84 3q-14 23 -41 41t-59 18h-14v10h246v-10h-6.5h-6.5q-22 0 -33.5 -20.5
t-1.5 -41.5zM297 73v-73h-79v10h6h7q26 0 44.5 18.5t19.5 44.5h2zM357 73h3q0 -26 19 -44.5t45 -18.5h6h6v-10h-79v73zM104 295h446v-30h-446v30zM104 415h178v-30h-178v30zM391 415h159v-30h-159v30z" />
    <glyph glyph-name="brokenbar" unicode="&#xa6;" horiz-adv-x="245" 
d="M100 170h45v-350h-45v350zM100 700h45v-350h-45v350z" />
    <glyph glyph-name="section" unicode="&#xa7;" horiz-adv-x="511" 
d="M278 708q46 8 77 -1.5t47.5 -27.5t17 -36.5t-14.5 -30.5q-9 -7 -21 -2t-25.5 16t-29.5 23t-34.5 19.5t-39 6t-43.5 -18.5q-20 -14 -29.5 -31.5t-6.5 -40t21 -52.5t52 -71t87 -94q67 -67 92 -137t18.5 -134.5t-36.5 -117.5t-74 -87t-93 -42q-46 -7 -77.5 2t-48.5 26.5
t-17.5 37t15.5 31.5q10 7 21 2.5t25 -15.5t29.5 -23t33.5 -19.5t39 -6t44 17.5q35 24 35 62t-39.5 95t-123.5 138q-58 56 -85 114t-28.5 113t16.5 103.5t49 86.5t69.5 63t77.5 31zM139 583q-16 -30 -27 -66t-7 -77.5t31.5 -89t87.5 -102.5q64 -58 99 -105.5t46.5 -86
t1.5 -71.5q19 30 29 65.5t4.5 76.5t-32.5 88.5t-83 101.5q-48 46 -79 82.5t-47.5 67.5t-21.5 59t-2 57z" />
    <glyph glyph-name="dieresis" unicode="&#xa8;" horiz-adv-x="600" 
d="M186 700q-16 0 -27.5 11.5t-11.5 27.5q0 17 11.5 28t27.5 11q17 0 28 -11t11 -28q0 -16 -11 -27.5t-28 -11.5zM375 700q-16 0 -27.5 11.5t-11.5 27.5q0 17 11.5 28t27.5 11t27.5 -11t11.5 -28q0 -16 -11.5 -27.5t-27.5 -11.5z" />
    <glyph glyph-name="copyright" unicode="&#xa9;" horiz-adv-x="848" 
d="M424 714q75 0 141 -28.5t116 -78.5t78.5 -116t28.5 -141t-28.5 -141t-78.5 -116t-116 -78.5t-141 -28.5t-141 28.5t-116 78.5t-78.5 116t-28.5 141t28.5 141t78.5 116t116 78.5t141 28.5zM424 677q-68 0 -127 -25.5t-104 -70.5t-70.5 -104t-25.5 -127t25.5 -127
t70.5 -104t104 -70.5t127 -25.5t127 25.5t104 70.5t70.5 104t25.5 127t-25.5 127t-70.5 104t-104 70.5t-127 25.5zM622 316l-7 -98q-25 -42 -75 -66.5t-110 -24.5q-65 1 -117 30t-82 79.5t-30 113.5q0 64 30 114.5t82 79.5t117 29q43 0 85 -11.5t73 -31.5l14 -100h-6
q-13 54 -57 85.5t-109 31.5q-46 0 -83 -25.5t-58.5 -70t-21.5 -101.5q0 -55 21.5 -99.5t58.5 -70.5t83 -27q76 0 128 37.5t58 125.5h6z" />
    <glyph glyph-name="ordfeminine" unicode="&#xaa;" horiz-adv-x="368" 
d="M186 714l152 -333h-55l-107 278zM91 420q-7 -18 1 -27.5t18 -9.5h4v-5h-114v5h2h2q12 0 24 9t21 28h42zM186 714l5 -61l-117 -274h-44l130 276l5 11.5t10.5 26t5.5 21.5h5zM250 510v-24h-145v24h145zM269 420h52q9 -19 20.5 -28t22.5 -9h2h2v-5h-123v5h5q10 0 17.5 9.5
t1.5 27.5z" />
    <glyph glyph-name="guillemotleft" unicode="&#xab;" horiz-adv-x="453" 
d="M40 292l175 -202l9 5l-119 197l118 193l-8 5zM210 292l175 -202l9 5l-119 197l118 193l-8 5z" />
    <glyph glyph-name="logicalnot" unicode="&#xac;" horiz-adv-x="601" 
d="M40 397h522v-45h-522v45zM517 397h45v-202h-45v202z" />
    <glyph glyph-name="uni00AD" unicode="&#xad;" horiz-adv-x="380" 
d="M40 314h300l6 -22l-6 -23h-300l-6 23z" />
    <glyph glyph-name="registered" unicode="&#xae;" horiz-adv-x="245" 
d="M123 701q31 0 56.5 -15.5t41 -41t15.5 -56.5t-15.5 -56.5t-41 -41t-56.5 -15.5t-56.5 15.5t-41 41t-15.5 56.5t15.5 56.5t41 41t56.5 15.5zM84 532h-16v2h1h1q11 0 11 11zM105 545q0 -11 10 -11h1.5h1.5v-2h-16zM105 652v-120h-24v120h24zM84 652l-3 -13q0 11 -11 11h-1
h-1v2h16zM126 652q18 0 30 -8.5t12 -24.5q0 -13 -8 -22t-21 -11q7 -1 15 -13t13 -20q2 -3 7 -9.5t14 -9.5v-2h-12q-25 0 -35 15t-18 30q-3 5 -5.5 9t-6.5 4v2h3.5h7.5q1 0 7.5 2t10.5 15q2 6 1 12q0 22 -24 21l-13 1l-1 4.5l-1 4.5h24zM123 681q-38 0 -65.5 -27.5
t-27.5 -65.5t27.5 -65.5t65.5 -27.5t65.5 27.5t27.5 65.5t-27.5 65.5t-65.5 27.5z" />
    <glyph glyph-name="macron" unicode="&#xaf;" horiz-adv-x="600" 
d="M170 738h250v-35h-250v35z" />
    <glyph glyph-name="degree" unicode="&#xb0;" horiz-adv-x="257" 
d="M129 664q41 0 69.5 -28.5t28.5 -69.5t-28.5 -70t-69.5 -29t-70 29t-29 70t29 69.5t70 28.5zM129 625q-25 0 -42.5 -17t-17.5 -42t17.5 -42t42.5 -17t42 17t17 42t-17 42t-42 17z" />
    <glyph glyph-name="plusminus" unicode="&#xb1;" horiz-adv-x="481" 
d="M40 105h402v-45h-402v45zM218 179v402h45v-402h-45zM40 402h402v-45h-402v45z" />
    <glyph glyph-name="uni00B2" unicode="&#xb2;" horiz-adv-x="375" 
d="M51 595l-12 75q20 20 51.5 32t62.5 12q42 0 75.5 -15.5t53.5 -42.5t20 -64q0 -43 -20 -79.5t-50 -66.5t-62 -54t-57 -42h138q29 0 44.5 12.5t33.5 43.5h6l-31 -98h-274v7q29 27 66 58.5t71.5 67t57 73t22.5 75.5q0 48 -26.5 74.5t-67.5 25.5q-39 -1 -67.5 -25.5
t-27.5 -68.5h-7z" />
    <glyph glyph-name="uni00B3" unicode="&#xb3;" horiz-adv-x="310" 
d="M135 712q53 1 88 -24.5t35 -66.5q0 -26 -19.5 -48.5t-46.5 -34t-52 -5.5q30 4 60.5 -7t51 -33.5t20.5 -53.5q0 -44 -18.5 -77t-52 -53.5t-77 -26.5t-94.5 4l1 7q53 -1 95.5 14.5t67.5 48.5t25 81q0 32 -16 50.5t-45 27t-69 8.5l1 6q47 0 82 25t34 69q-1 30 -20.5 47.5
t-50.5 17.5q-38 0 -58 -16.5t-19 -58.5h-7l-11 62q14 17 37 27t58 10z" />
    <glyph glyph-name="acute" unicode="&#xb4;" horiz-adv-x="439" 
d="M201 753q21 23 42 45.5t42.5 44t42.5 41.5q11 -12 22 -25t19 -28l-54 -30t-53.5 -28.5t-53.5 -26.5z" />
    <glyph glyph-name="uni00B5" unicode="&#xb5;" horiz-adv-x="878" 
d="M698 614l9 -65l-234 -461l-7.5 -17t-15.5 -40.5t-12 -44.5h-10l-14 63zM112 67v-67h-104v10h7.5h7.5q26 0 45.5 15t22.5 42h21zM142 52q-1 -15 7 -28.5t30 -14.5h14v-9h-57v52h6zM169 614h10l20 -59l-62 -555h-55zM179 614l272 -523l-23 -105l-268 518zM707 614l90 -614
h-76l-65 503l42 111h9zM767 67h20q4 -27 24 -42t45 -15h7.5h7.5v-10h-104v67zM714 52h7v-52h-58v9h15q23 1 30.5 15t5.5 28z" />
    <glyph glyph-name="paragraph" unicode="&#xb6;" horiz-adv-x="520" 
d="M503 743l7 -6q-8 -18 -21.5 -33t-33.5 -24t-50 -10h-126v-670q0 -38 -4.5 -76t-22.5 -69.5t-59 -53.5l-7 9q28 29 41.5 54t17.5 56.5t4 79.5l-3 333q-55 0 -99.5 22.5t-70.5 63.5t-26 98q1 57 27 98t70.5 63t98.5 22h161q11 0 25.5 1t32.5 9.5t38 32.5zM392 687v-540
q0 -38 -4 -65t-14 -49t-30 -46l-9 8q15 25 20.5 46.5t6 46t0.5 57.5v542h30z" />
    <glyph glyph-name="periodcentered" unicode="&#xb7;" horiz-adv-x="170" 
d="M85 305q-19 0 -32 13t-13 32t13 32t32 13t32 -13t13 -32t-13 -32t-32 -13z" />
    <glyph glyph-name="cedilla" unicode="&#xb8;" horiz-adv-x="600" 
d="M296 1h27l-41 -49q13 5 30.5 6t34 -4.5t28 -19.5t12.5 -40q1 -31 -20.5 -51t-54 -26t-66.5 4l1 10q21 0 42 6t35 20t13 38q-1 21 -14.5 30.5t-32.5 10t-37 -7.5l-2.5 5l-2.5 5z" />
    <glyph glyph-name="uni00B9" unicode="&#xb9;" horiz-adv-x="211" 
d="M191 308v7h-14q-15 0 -25.5 10.5t-10.5 24.5v364h-7q-10 -12 -21 -19.5t-23 -12t-24.5 -7t-25.5 -4.5v-6h25q15 0 23 -8.5t8 -24.5v-281q0 -15 -11 -25.5t-26 -10.5h-14v-7h146z" />
    <glyph glyph-name="ordmasculine" unicode="&#xba;" horiz-adv-x="412" 
d="M206 714q49 0 89 -23t64 -62t24 -87t-24 -87t-64 -62t-89 -23q-48 0 -88 23t-64 62t-24 87t24 87t64 62t88 23zM206 391q53 0 87.5 43.5t34.5 107.5q0 65 -34.5 108t-87.5 43q-35 0 -62.5 -20t-43 -54t-15.5 -77t15.5 -77t43 -54t62.5 -20z" />
    <glyph glyph-name="guillemotright" unicode="&#xbb;" horiz-adv-x="453" 
d="M414 292l-175 198l-8 -5l118 -193l-119 -197l9 -5zM244 292l-175 198l-8 -5l118 -193l-119 -197l9 -5z" />
    <glyph glyph-name="onequarter" unicode="&#xbc;" horiz-adv-x="693" 
d="M191 308v7h-14q-15 0 -25.5 10.5t-10.5 24.5v364h-7q-10 -12 -21 -19.5t-23 -12t-24.5 -7t-25.5 -4.5v-6h25q15 0 23 -8.5t8 -24.5v-281q0 -15 -11 -25.5t-26 -10.5h-14v-7h146zM80 2l25 -16l477 711l-24 17zM553 339l38 67h6v-405h-44v338zM590 406l7 -27l-172 -214h201
q19 0 24.5 3t11.5 10h7l-14 -47h-284v7zM597 43q0 -15 11 -25.5t26 -10.5h7v-7h-132v7h7q15 0 26 10t11 26h44z" />
    <glyph glyph-name="onehalf" unicode="&#xbd;" horiz-adv-x="805" 
d="M211 308v7h-14q-15 0 -25.5 10.5t-10.5 24.5v364h-7q-10 -12 -21 -19.5t-23 -12t-24.5 -7t-25.5 -4.5v-6h25q15 0 23 -8.5t8 -24.5v-281q0 -15 -11 -25.5t-26 -10.5h-14v-7h146zM99 2l25 -16l477 711l-24 17zM481 287l-12 75q20 20 51.5 32t62.5 12q42 0 75.5 -15.5
t53.5 -42.5t20 -64q0 -43 -20 -79.5t-50 -66.5t-62 -54t-57 -42h138q29 0 44.5 12.5t33.5 43.5h6l-31 -98h-274v7q29 27 66 58.5t71.5 67t57 73t22.5 75.5q0 48 -26.5 74.5t-67.5 25.5q-39 -1 -67.5 -25.5t-27.5 -68.5h-7z" />
    <glyph glyph-name="threequarters" unicode="&#xbe;" horiz-adv-x="713" 
d="M135 712q53 1 88 -24.5t35 -66.5q0 -26 -19.5 -48.5t-46.5 -34t-52 -5.5q30 4 60.5 -7t51 -33.5t20.5 -53.5q0 -44 -18.5 -77t-52 -53.5t-77 -26.5t-94.5 4l1 7q53 -1 95.5 14.5t67.5 48.5t25 81q0 32 -16 50.5t-45 27t-69 8.5l1 6q47 0 82 25t34 69q-1 30 -20.5 47.5
t-50.5 17.5q-38 0 -58 -16.5t-19 -58.5h-7l-11 62q14 17 37 27t58 10zM143 2l25 -16l477 711l-24 17zM578 339l38 67h6v-405h-44v338zM615 406l7 -27l-172 -214h201q19 0 24.5 3t11.5 10h7l-14 -47h-284v7zM622 43q0 -15 11 -25.5t26 -10.5h7v-7h-132v7h7q15 0 26 10t11 26
h44z" />
    <glyph glyph-name="questiondown" unicode="&#xbf;" horiz-adv-x="433" 
d="M393 75q-22 -42 -60.5 -65.5t-86.5 -23.5q-91 0 -143.5 45.5t-52.5 124.5q0 40 15.5 71.5t39 57.5t49 49t45.5 47t28 52q5 16 7 31t-1 30t-16 31l6 5q26 -24 35.5 -48t9.5 -48q0 -28 -14.5 -53t-35.5 -49.5t-42.5 -50.5t-36 -56.5t-14.5 -68.5q0 -66 32.5 -103t88.5 -37
q59 0 94 41t33 113h10zM233 704q19 0 32 -13t13 -32t-13 -32t-32 -13t-32 13t-13 32t13 32t32 13z" />
    <glyph glyph-name="Agrave" unicode="&#xc0;" 
d="M359 714l296 -708h-85l-231 613zM144 73q-7 -20 -2 -34t16.5 -21.5t23.5 -7.5h9v-10h-201v10h4.5h4.5q23 0 47.5 14.5t40.5 48.5h57zM359 714l9 -70l-251 -641h-60l256 608l5.5 12.5t13 30.5t13 35t5.5 25h9zM500 273v-30h-313v30h313zM545 73h82q15 -34 40 -48.5
t48 -14.5h4h4v-10h-225v10h9q19 0 34 16.5t4 46.5zM364 771l-7 -7q-27 13 -54 26.5t-53.5 28.5t-53.5 30q8 16 18.5 29t22.5 24q21 -20 42 -41.5t42.5 -43.5t42.5 -46z" />
    <glyph glyph-name="Aacute" unicode="&#xc1;" 
d="M359 714l296 -708h-85l-231 613zM144 73q-7 -20 -2 -34t16.5 -21.5t23.5 -7.5h9v-10h-201v10h4.5h4.5q23 0 47.5 14.5t40.5 48.5h57zM359 714l9 -70l-251 -641h-60l256 608l5.5 12.5t13 30.5t13 35t5.5 25h9zM500 273v-30h-313v30h313zM545 73h82q15 -34 40 -48.5
t48 -14.5h4h4v-10h-225v10h9q19 0 34 16.5t4 46.5zM350 771q21 23 42 45.5t42.5 44t42.5 41.5q11 -12 22 -25t19 -28l-54 -30t-53.5 -28.5t-53.5 -26.5z" />
    <glyph glyph-name="Acircumflex" unicode="&#xc2;" 
d="M359 714l296 -708h-85l-231 613zM144 73q-7 -20 -2 -34t16.5 -21.5t23.5 -7.5h9v-10h-201v10h4.5h4.5q23 0 47.5 14.5t40.5 48.5h57zM359 714l9 -70l-251 -641h-60l256 608l5.5 12.5t13 30.5t13 35t5.5 25h9zM500 273v-30h-313v30h313zM545 73h82q15 -34 40 -48.5
t48 -14.5h4h4v-10h-225v10h9q19 0 34 16.5t4 46.5zM246 771l6 -8l104 66l114 -66l6 8l-114 119h-10z" />
    <glyph glyph-name="Atilde" unicode="&#xc3;" 
d="M359 714l296 -708h-85l-231 613zM144 73q-7 -20 -2 -34t16.5 -21.5t23.5 -7.5h9v-10h-201v10h4.5h4.5q23 0 47.5 14.5t40.5 48.5h57zM359 714l9 -70l-251 -641h-60l256 608l5.5 12.5t13 30.5t13 35t5.5 25h9zM500 273v-30h-313v30h313zM545 73h82q15 -34 40 -48.5
t48 -14.5h4h4v-10h-225v10h9q19 0 34 16.5t4 46.5zM242 767h10q6 14 13.5 23t18 13.5t22.5 4.5q17 0 36.5 -11t41.5 -22t43 -11q13 0 24 5.5t19.5 15.5t14 25t7.5 33h-10q-4 -11 -12 -19t-18.5 -11.5t-24.5 -3.5q-17 0 -36 11t-40.5 21.5t-44.5 10.5q-12 0 -22.5 -6
t-18.5 -17t-14 -26.5t-9 -35.5z" />
    <glyph glyph-name="Adieresis" unicode="&#xc4;" 
d="M359 714l296 -708h-85l-231 613zM144 73q-7 -20 -2 -34t16.5 -21.5t23.5 -7.5h9v-10h-201v10h4.5h4.5q23 0 47.5 14.5t40.5 48.5h57zM359 714l9 -70l-251 -641h-60l256 608l5.5 12.5t13 30.5t13 35t5.5 25h9zM500 273v-30h-313v30h313zM545 73h82q15 -34 40 -48.5
t48 -14.5h4h4v-10h-225v10h9q19 0 34 16.5t4 46.5zM262 764q-16 0 -27.5 11.5t-11.5 27.5q0 17 11.5 28t27.5 11q17 0 28 -11t11 -28q0 -16 -11 -27.5t-28 -11.5zM451 764q-16 0 -27.5 11.5t-11.5 27.5q0 17 11.5 28t27.5 11t27.5 -11t11.5 -28q0 -16 -11.5 -27.5
t-27.5 -11.5z" />
    <glyph glyph-name="Aring" unicode="&#xc5;" 
d="M359 714l296 -708h-85l-231 613zM144 73q-7 -20 -2 -34t16.5 -21.5t23.5 -7.5h9v-10h-201v10h4.5h4.5q23 0 47.5 14.5t40.5 48.5h57zM359 714l9 -70l-251 -641h-60l256 608l5.5 12.5t13 30.5t13 35t5.5 25h9zM500 273v-30h-313v30h313zM545 73h82q15 -34 40 -48.5
t48 -14.5h4h4v-10h-225v10h9q19 0 34 16.5t4 46.5zM356 837q36 0 60.5 -18t24.5 -50q0 -29 -24.5 -48.5t-60.5 -19.5q-37 0 -61 19.5t-24 48.5q0 30 24 49t61 19zM356 822q-19 0 -32 -13.5t-13 -39.5q0 -25 13 -38.5t32 -13.5t31.5 13.5t12.5 38.5q0 26 -12.5 39.5
t-31.5 13.5z" />
    <glyph glyph-name="AE" unicode="&#xc6;" horiz-adv-x="902" 
d="M153 67q-8 -14 -7.5 -27t9.5 -21.5t24 -8.5h10v-10h-199v10h3.5h3.5q25 0 51 19t41 42zM531 700v-700h-65v654zM468 58v-58h-62l1 10h4.5h4.5q20 0 34.5 14.5t15.5 33.5h2zM801 31v-31h-273v31h273zM758 350v-30h-465l5 30h460zM800 700v-31h-309l-3 -34l-373 -632h-69
l417 652q6 14 -0.5 24.5t-20.5 10.5h-4v10h362zM858 139l-56 -139h-139l30 31q60 0 97.5 30.5t57.5 77.5h10zM758 322v-66h-10v15q0 20 -14 34.5t-34 14.5v2h58zM758 414v-66h-58v2q20 1 34 15.5t14 34.5v14h10zM800 672v-67h-10l1 15q2 20 -13.5 34.5t-35.5 14.5v3h58z
M800 718v-29l-121 11q22 0 46.5 3t45 7t29.5 8z" />
    <glyph glyph-name="Ccedilla" unicode="&#xc7;" horiz-adv-x="760" 
d="M710 292l-12 -157q-26 -43 -65.5 -76.5t-93 -53t-122.5 -19.5q-104 1 -185 46t-126.5 126.5t-45.5 192.5q0 109 45 190.5t126.5 127t191.5 45.5q74 0 133.5 -19.5t103.5 -48.5l20 -141h-9q-22 88 -90 133.5t-158 45.5q-88 0 -152.5 -41.5t-100 -116t-35.5 -174.5
t35.5 -175t99 -117t147.5 -44q71 0 131.5 26.5t101.5 87t52 162.5h8zM408 -8h27l-41 -49q13 5 30.5 6t34 -4.5t28 -19.5t12.5 -40q1 -31 -20.5 -51t-54 -26t-66.5 4l1 10q21 0 42 6t35 20t13 38q-1 21 -14.5 30.5t-32.5 10t-37 -7.5l-2.5 5l-2.5 5z" />
    <glyph glyph-name="Egrave" unicode="&#xc8;" horiz-adv-x="577" 
d="M202 700v-700h-65v700h65zM472 31v-31h-273v31h273zM429 360v-30h-230v30h230zM472 700v-31h-273v31h273zM533 162l-58 -162h-166l36 31q53 0 86.5 16.5t54.5 46.5t37 68h10zM429 332v-66h-10v15q0 20 -14 34.5t-34 14.5v2h58zM429 424v-66h-58v2q20 1 34 15.5t14 34.5
v14h10zM472 672v-80h-10v18q0 24 -17 41.5t-42 18.5v2h69zM472 718v-29l-122 11q22 0 46.5 3t45.5 7t30 8zM140 73v-73h-80v10h6.5h6.5q26 0 44.5 18.5t19.5 44.5h3zM140 627h-3q0 26 -19 44.5t-45 18.5h-6h-6l-1 10h80v-73zM306 771l-7 -7q-27 13 -54 26.5t-53.5 28.5
t-53.5 30q8 16 18.5 29t22.5 24q21 -20 42 -41.5t42.5 -43.5t42.5 -46z" />
    <glyph glyph-name="Eacute" unicode="&#xc9;" horiz-adv-x="577" 
d="M202 700v-700h-65v700h65zM472 31v-31h-273v31h273zM429 360v-30h-230v30h230zM472 700v-31h-273v31h273zM533 162l-58 -162h-166l36 31q53 0 86.5 16.5t54.5 46.5t37 68h10zM429 332v-66h-10v15q0 20 -14 34.5t-34 14.5v2h58zM429 424v-66h-58v2q20 1 34 15.5t14 34.5
v14h10zM472 672v-80h-10v18q0 24 -17 41.5t-42 18.5v2h69zM472 718v-29l-122 11q22 0 46.5 3t45.5 7t30 8zM140 73v-73h-80v10h6.5h6.5q26 0 44.5 18.5t19.5 44.5h3zM140 627h-3q0 26 -19 44.5t-45 18.5h-6h-6l-1 10h80v-73zM292 771q21 23 42 45.5t42.5 44t42.5 41.5
q11 -12 22 -25t19 -28l-54 -30t-53.5 -28.5t-53.5 -26.5z" />
    <glyph glyph-name="Ecircumflex" unicode="&#xca;" horiz-adv-x="577" 
d="M202 700v-700h-65v700h65zM472 31v-31h-273v31h273zM429 360v-30h-230v30h230zM472 700v-31h-273v31h273zM533 162l-58 -162h-166l36 31q53 0 86.5 16.5t54.5 46.5t37 68h10zM429 332v-66h-10v15q0 20 -14 34.5t-34 14.5v2h58zM429 424v-66h-58v2q20 1 34 15.5t14 34.5
v14h10zM472 672v-80h-10v18q0 24 -17 41.5t-42 18.5v2h69zM472 718v-29l-122 11q22 0 46.5 3t45.5 7t30 8zM140 73v-73h-80v10h6.5h6.5q26 0 44.5 18.5t19.5 44.5h3zM140 627h-3q0 26 -19 44.5t-45 18.5h-6h-6l-1 10h80v-73zM187 771l6 -8l104 66l114 -66l6 8l-114 119h-10z
" />
    <glyph glyph-name="Edieresis" unicode="&#xcb;" horiz-adv-x="577" 
d="M202 700v-700h-65v700h65zM472 31v-31h-273v31h273zM429 360v-30h-230v30h230zM472 700v-31h-273v31h273zM533 162l-58 -162h-166l36 31q53 0 86.5 16.5t54.5 46.5t37 68h10zM429 332v-66h-10v15q0 20 -14 34.5t-34 14.5v2h58zM429 424v-66h-58v2q20 1 34 15.5t14 34.5
v14h10zM472 672v-80h-10v18q0 24 -17 41.5t-42 18.5v2h69zM472 718v-29l-122 11q22 0 46.5 3t45.5 7t30 8zM140 73v-73h-80v10h6.5h6.5q26 0 44.5 18.5t19.5 44.5h3zM140 627h-3q0 26 -19 44.5t-45 18.5h-6h-6l-1 10h80v-73zM204 764q-16 0 -27.5 11.5t-11.5 27.5
q0 17 11.5 28t27.5 11q17 0 28 -11t11 -28q0 -16 -11 -27.5t-28 -11.5zM393 764q-16 0 -27.5 11.5t-11.5 27.5q0 17 11.5 28t27.5 11t27.5 -11t11.5 -28q0 -16 -11.5 -27.5t-27.5 -11.5z" />
    <glyph glyph-name="Igrave" unicode="&#xcc;" horiz-adv-x="338" 
d="M202 700v-700h-65v700h65zM140 73v-73h-80v10h6.5h6.5q26 0 44.5 18.5t19.5 44.5h3zM140 627h-3q-1 26 -19.5 44.5t-44.5 18.5h-6.5h-6.5v10h80v-73zM199 73h3q1 -26 19.5 -44.5t44.5 -18.5h6h7v-10h-80v73zM199 627v73h80v-10h-7h-6q-26 0 -44.5 -18.5t-19.5 -44.5h-3z
M176 771l-7 -7l-53 26.5t-54 28.5l-54 30q8 16 19 29t22 24q22 -20 43 -41.5t42 -43.5t42 -46z" />
    <glyph glyph-name="Iacute" unicode="&#xcd;" horiz-adv-x="338" 
d="M202 700v-700h-65v700h65zM140 73v-73h-80v10h6.5h6.5q26 0 44.5 18.5t19.5 44.5h3zM140 627h-3q-1 26 -19.5 44.5t-44.5 18.5h-6.5h-6.5v10h80v-73zM199 73h3q1 -26 19.5 -44.5t44.5 -18.5h6h7v-10h-80v73zM199 627v73h80v-10h-7h-6q-26 0 -44.5 -18.5t-19.5 -44.5h-3z
M163 771q21 23 42 45.5t42.5 44t42.5 41.5q11 -12 22 -25t19 -28l-54 -30t-53.5 -28.5t-53.5 -26.5z" />
    <glyph glyph-name="Icircumflex" unicode="&#xce;" horiz-adv-x="338" 
d="M202 700v-700h-65v700h65zM140 73v-73h-80v10h6.5h6.5q26 0 44.5 18.5t19.5 44.5h3zM140 627h-3q-1 26 -19.5 44.5t-44.5 18.5h-6.5h-6.5v10h80v-73zM199 73h3q1 -26 19.5 -44.5t44.5 -18.5h6h7v-10h-80v73zM199 627v73h80v-10h-7h-6q-26 0 -44.5 -18.5t-19.5 -44.5h-3z
M58 771l6 -8l104 66l114 -66l6 8l-114 119h-10z" />
    <glyph glyph-name="Idieresis" unicode="&#xcf;" horiz-adv-x="338" 
d="M202 700v-700h-65v700h65zM140 73v-73h-80v10h6.5h6.5q26 0 44.5 18.5t19.5 44.5h3zM140 627h-3q-1 26 -19.5 44.5t-44.5 18.5h-6.5h-6.5v10h80v-73zM199 73h3q1 -26 19.5 -44.5t44.5 -18.5h6h7v-10h-80v73zM199 627v73h80v-10h-7h-6q-26 0 -44.5 -18.5t-19.5 -44.5h-3z
M75 764q-16 0 -27.5 11.5t-11.5 27.5q0 17 11.5 28t27.5 11q17 0 28 -11t11 -28q0 -16 -11 -27.5t-28 -11.5zM264 764q-16 0 -27.5 11.5t-11.5 27.5q0 17 11.5 28t27.5 11t27.5 -11t11.5 -28q0 -16 -11.5 -27.5t-27.5 -11.5z" />
    <glyph glyph-name="Eth" unicode="&#xd0;" horiz-adv-x="807" 
d="M60 365h310v-30h-310v30zM403 700q107 0 187 -43.5t124 -122.5t44 -184t-44 -183.5t-124 -122.5t-187 -44h-213l-1 30h21.5h53.5h64h53.5h21.5q86 0 150 40t99.5 112t35.5 168t-35.5 168t-99.5 112t-150 40h-22.5h-56h-67h-56h-22.5v30h224zM207 700v-700h-65v700h65z
M145 73v-73h-80v10h6.5h6.5q26 0 44.5 18.5t19.5 44.5h3zM145 627h-3q-1 26 -19.5 44.5t-44.5 18.5h-6h-7v10h80v-73z" />
    <glyph glyph-name="Ntilde" unicode="&#xd1;" horiz-adv-x="841" 
d="M126 715l581 -620l9 -109l-581 619zM128 71v-71h-83v10h9h10q25 0 43 18t18 43h3zM171 71q0 -25 18 -43t43 -18h10h9v-10h-83v71h3zM126 715l44 -56l1 -659h-46v590q0 51 -4.5 88l-4.5 37h10zM716 700v-586q0 -32 2 -61.5t4.5 -48l2.5 -18.5h-9l-45 53v661h45zM796 700
v-10h-9h-9q-25 0 -43 -17.5t-19 -43.5h-3v71h83zM590 700h83v-71h-2q-1 26 -18.5 43.5t-43.5 17.5h-9h-10v10zM311 767h10q6 14 13.5 23t18 13.5t22.5 4.5q17 0 36.5 -11t41.5 -22t43 -11q13 0 24 5.5t19.5 15.5t14 25t7.5 33h-10q-4 -11 -12 -19t-18.5 -11.5t-24.5 -3.5
q-17 0 -36 11t-40.5 21.5t-44.5 10.5q-12 0 -22.5 -6t-18.5 -17t-14 -26.5t-9 -35.5z" />
    <glyph glyph-name="Ograve" unicode="&#xd2;" horiz-adv-x="838" 
d="M429 714q107 0 188 -45.5t126.5 -127.5t45.5 -191t-45.5 -191t-126.5 -127.5t-188 -45.5q-106 0 -187 45.5t-126.5 127.5t-45.5 191t45.5 191t126.5 127.5t187 45.5zM429 16q85 0 148.5 42t99 117t35.5 175t-35.5 175t-99 117t-148.5 42q-84 0 -147.5 -42t-99 -117
t-35.5 -175t35.5 -175t99 -117t147.5 -42zM436 771l-7 -7q-27 13 -53.5 26.5t-53.5 28.5l-54 30q8 16 18.5 29t22.5 24q21 -20 42.5 -41.5t42.5 -43.5t42 -46z" />
    <glyph glyph-name="Oacute" unicode="&#xd3;" horiz-adv-x="838" 
d="M429 714q107 0 188 -45.5t126.5 -127.5t45.5 -191t-45.5 -191t-126.5 -127.5t-188 -45.5q-106 0 -187 45.5t-126.5 127.5t-45.5 191t45.5 191t126.5 127.5t187 45.5zM429 16q85 0 148.5 42t99 117t35.5 175t-35.5 175t-99 117t-148.5 42q-84 0 -147.5 -42t-99 -117
t-35.5 -175t35.5 -175t99 -117t147.5 -42zM422 771q21 23 42 45.5t42.5 44t42.5 41.5q11 -12 22 -25t19 -28l-54 -30t-53.5 -28.5t-53.5 -26.5z" />
    <glyph glyph-name="Ocircumflex" unicode="&#xd4;" horiz-adv-x="838" 
d="M429 714q107 0 188 -45.5t126.5 -127.5t45.5 -191t-45.5 -191t-126.5 -127.5t-188 -45.5q-106 0 -187 45.5t-126.5 127.5t-45.5 191t45.5 191t126.5 127.5t187 45.5zM429 16q85 0 148.5 42t99 117t35.5 175t-35.5 175t-99 117t-148.5 42q-84 0 -147.5 -42t-99 -117
t-35.5 -175t35.5 -175t99 -117t147.5 -42zM318 771l6 -8l104 66l114 -66l6 8l-114 119h-10z" />
    <glyph glyph-name="Otilde" unicode="&#xd5;" horiz-adv-x="838" 
d="M429 714q107 0 188 -45.5t126.5 -127.5t45.5 -191t-45.5 -191t-126.5 -127.5t-188 -45.5q-106 0 -187 45.5t-126.5 127.5t-45.5 191t45.5 191t126.5 127.5t187 45.5zM429 16q85 0 148.5 42t99 117t35.5 175t-35.5 175t-99 117t-148.5 42q-84 0 -147.5 -42t-99 -117
t-35.5 -175t35.5 -175t99 -117t147.5 -42zM314 767h10q6 14 13.5 23t18 13.5t22.5 4.5q17 0 36.5 -11t41.5 -22t43 -11q13 0 24 5.5t19.5 15.5t14 25t7.5 33h-10q-4 -11 -12 -19t-18.5 -11.5t-24.5 -3.5q-17 0 -36 11t-40.5 21.5t-44.5 10.5q-12 0 -22.5 -6t-18.5 -17
t-14 -26.5t-9 -35.5z" />
    <glyph glyph-name="Odieresis" unicode="&#xd6;" horiz-adv-x="838" 
d="M429 714q107 0 188 -45.5t126.5 -127.5t45.5 -191t-45.5 -191t-126.5 -127.5t-188 -45.5q-106 0 -187 45.5t-126.5 127.5t-45.5 191t45.5 191t126.5 127.5t187 45.5zM429 16q85 0 148.5 42t99 117t35.5 175t-35.5 175t-99 117t-148.5 42q-84 0 -147.5 -42t-99 -117
t-35.5 -175t35.5 -175t99 -117t147.5 -42zM334 764q-16 0 -27.5 11.5t-11.5 27.5q0 17 11.5 28t27.5 11q17 0 28 -11t11 -28q0 -16 -11 -27.5t-28 -11.5zM523 764q-16 0 -27.5 11.5t-11.5 27.5q0 17 11.5 28t27.5 11t27.5 -11t11.5 -28q0 -16 -11.5 -27.5t-27.5 -11.5z" />
    <glyph glyph-name="multiply" unicode="&#xd7;" horiz-adv-x="415" 
d="M82 468l284 -284l-32 -32l-284 284zM366 436l-284 -284l-32 32l284 284z" />
    <glyph glyph-name="Oslash" unicode="&#xd8;" horiz-adv-x="828" 
d="M424 714q107 0 186.5 -45.5t124 -127.5t44.5 -191t-44.5 -191t-124 -127.5t-186.5 -45.5q-106 0 -185.5 45.5t-124 127.5t-44.5 191t44.5 191t124 127.5t185.5 45.5zM424 16q85 0 148.5 42t99 117t35.5 175t-35.5 175t-99 117t-148.5 42q-84 0 -147.5 -42t-99 -117
t-35.5 -175t35.5 -175t99 -117t147.5 -42zM709 722l26 -22l-602 -723l-25 22z" />
    <glyph glyph-name="Ugrave" unicode="&#xd9;" horiz-adv-x="785" 
d="M184 700v-440q0 -72 26.5 -127t74.5 -85.5t111 -30.5q67 0 117 29t78 80.5t28 120.5v453h47v-453q0 -78 -33.5 -136.5t-94.5 -91.5t-142 -33q-83 0 -145.5 32.5t-97 91t-34.5 136.5v454h65zM122 700v-60h-3q0 22 -15.5 36t-37.5 14h-8h-8v10h72zM253 700v-10h-8h-8
q-22 0 -37.5 -14t-15.5 -36h-2v60h71zM622 700v-60h-3q0 22 -15.5 36t-37.5 14h-8h-8v10h72zM735 700v-10h-8h-8q-22 0 -37.5 -14t-15.5 -36h-2v60h71zM409 771l-7 -7q-27 13 -54 26.5t-53.5 28.5t-53.5 30q8 16 18.5 29t22.5 24q21 -20 42 -41.5t42.5 -43.5t42.5 -46z" />
    <glyph glyph-name="Uacute" unicode="&#xda;" horiz-adv-x="785" 
d="M184 700v-440q0 -72 26.5 -127t74.5 -85.5t111 -30.5q67 0 117 29t78 80.5t28 120.5v453h47v-453q0 -78 -33.5 -136.5t-94.5 -91.5t-142 -33q-83 0 -145.5 32.5t-97 91t-34.5 136.5v454h65zM122 700v-60h-3q0 22 -15.5 36t-37.5 14h-8h-8v10h72zM253 700v-10h-8h-8
q-22 0 -37.5 -14t-15.5 -36h-2v60h71zM622 700v-60h-3q0 22 -15.5 36t-37.5 14h-8h-8v10h72zM735 700v-10h-8h-8q-22 0 -37.5 -14t-15.5 -36h-2v60h71zM395 771q21 23 42 45.5t42.5 44t42.5 41.5q11 -12 22 -25t19 -28l-54 -30t-53.5 -28.5t-53.5 -26.5z" />
    <glyph glyph-name="Ucircumflex" unicode="&#xdb;" horiz-adv-x="785" 
d="M184 700v-440q0 -72 26.5 -127t74.5 -85.5t111 -30.5q67 0 117 29t78 80.5t28 120.5v453h47v-453q0 -78 -33.5 -136.5t-94.5 -91.5t-142 -33q-83 0 -145.5 32.5t-97 91t-34.5 136.5v454h65zM122 700v-60h-3q0 22 -15.5 36t-37.5 14h-8h-8v10h72zM253 700v-10h-8h-8
q-22 0 -37.5 -14t-15.5 -36h-2v60h71zM622 700v-60h-3q0 22 -15.5 36t-37.5 14h-8h-8v10h72zM735 700v-10h-8h-8q-22 0 -37.5 -14t-15.5 -36h-2v60h71zM291 771l6 -8l104 66l114 -66l6 8l-114 119h-10z" />
    <glyph glyph-name="Udieresis" unicode="&#xdc;" horiz-adv-x="785" 
d="M184 700v-440q0 -72 26.5 -127t74.5 -85.5t111 -30.5q67 0 117 29t78 80.5t28 120.5v453h47v-453q0 -78 -33.5 -136.5t-94.5 -91.5t-142 -33q-83 0 -145.5 32.5t-97 91t-34.5 136.5v454h65zM122 700v-60h-3q0 22 -15.5 36t-37.5 14h-8h-8v10h72zM253 700v-10h-8h-8
q-22 0 -37.5 -14t-15.5 -36h-2v60h71zM622 700v-60h-3q0 22 -15.5 36t-37.5 14h-8h-8v10h72zM735 700v-10h-8h-8q-22 0 -37.5 -14t-15.5 -36h-2v60h71zM307 764q-16 0 -27.5 11.5t-11.5 27.5q0 17 11.5 28t27.5 11q17 0 28 -11t11 -28q0 -16 -11 -27.5t-28 -11.5zM496 764
q-16 0 -27.5 11.5t-11.5 27.5q0 17 11.5 28t27.5 11t27.5 -11t11.5 -28q0 -16 -11.5 -27.5t-27.5 -11.5z" />
    <glyph glyph-name="Yacute" unicode="&#xdd;" horiz-adv-x="661" 
d="M150 699l196 -365l-43 -35l-239 400h86zM360 322v-322h-65v322h65zM538 699h61l-246 -398l-36 11zM497 628q9 14 5 28.5t-15 24t-25 9.5h-6h-6v10h222v-10h-14q-31 0 -58 -18t-43 -41zM188 628l-84 3q-14 23 -41 41t-59 18h-14v10h246v-10h-6.5h-6.5q-22 0 -33.5 -20.5
t-1.5 -41.5zM297 73v-73h-79v10h6h7q26 0 44.5 18.5t19.5 44.5h2zM357 73h3q0 -26 19 -44.5t45 -18.5h6h6v-10h-79v73zM333 771q21 23 42 45.5t42.5 44t42.5 41.5q11 -12 22 -25t19 -28l-54 -30t-53.5 -28.5t-53.5 -26.5z" />
    <glyph glyph-name="Thorn" unicode="&#xde;" horiz-adv-x="554" 
d="M185 700v-700h-65v700h65zM122 73v-73h-79v10h6h7q26 0 44.5 18.5t19.5 44.5h2zM122 627h-2q-1 26 -19.5 44.5t-44.5 18.5h-7h-6v10h79v-73zM182 73h3q0 -26 19 -44.5t45 -18.5h6h6v-10h-79v73zM182 627v73h79v-10h-6h-6q-26 0 -45 -18.5t-19 -44.5h-3zM172 548h132
q66 0 111 -23.5t67.5 -67t22.5 -102.5q0 -46 -17.5 -82.5t-47 -61.5t-67 -37.5t-77 -9.5t-77.5 23v10l17 -2.5t43.5 -1t55.5 11t54.5 33.5t38.5 67q4 11 5.5 27.5t1.5 32.5q-2 69 -36.5 111t-98.5 42h-118l-2.5 7.5l-5 15z" />
    <glyph glyph-name="germandbls" unicode="&#xdf;" horiz-adv-x="924" 
d="M234 614q28 0 49 -2t36.5 -4.5t27 -6t20.5 -6.5l1 -99h-12q0 41 -28 64.5t-87 23.5q-50 0 -85.5 -27.5t-34.5 -67.5q0 -13 3.5 -26.5t12 -26.5t23.5 -26l202 -156q23 -19 34 -48.5t12 -58.5q1 -44 -23 -81t-64.5 -58.5t-89.5 -21.5q-29 0 -62.5 5t-62.5 15.5t-48 26.5
q-3 14 -3 35.5t3.5 45.5t9.5 43h12q-4 -45 13 -77t50 -48.5t77 -15.5q62 2 97.5 31.5t35.5 78.5q0 24 -8.5 43.5t-27.5 36.5l-200 154q-28 24 -38 53t-10 55q0 41 22 74t59.5 52.5t83.5 19.5zM366 605l1 -18h-71v18h70zM696 614q28 0 49 -2t36.5 -4.5t27 -6t20.5 -6.5l1 -99
h-12q0 41 -28 64.5t-87 23.5q-50 0 -85.5 -27.5t-34.5 -67.5q0 -13 3.5 -26.5t12 -26.5t23.5 -26l202 -156q23 -19 34 -48.5t12 -58.5q1 -44 -23 -81t-64.5 -58.5t-89.5 -21.5q-29 0 -62.5 5t-62.5 15.5t-48 26.5q-3 14 -3 35.5t3.5 45.5t9.5 43h12q-4 -45 13 -77t50 -48.5
t77 -15.5q62 2 97.5 31.5t35.5 78.5q0 24 -8.5 43.5t-27.5 36.5l-200 154q-28 24 -38 53t-10 55q0 41 22 74t59.5 52.5t83.5 19.5zM828 605l1 -18h-71v18h70z" />
    <glyph glyph-name="agrave" unicode="&#xe0;" horiz-adv-x="663" 
d="M336 614l275 -608h-79l-213 519zM143 73q-11 -30 3 -46.5t32 -16.5h8v-10h-191v10h4h4q21 0 43 14.5t38 48.5h59zM336 614l7 -69l-229 -542h-63l237 508l5.5 12t13 29.5t13.5 34.5t7 27h9zM454 233v-30h-265v30h265zM505 73h76q15 -34 37 -48.5t42 -14.5h4h4v-10h-205v10
h8q17 0 31 16.5t3 46.5zM340 671l-7 -7q-27 13 -54 26.5t-53.5 28.5t-53.5 30q8 16 18.5 29t22.5 24q21 -20 42 -41.5t42.5 -43.5t42.5 -46z" />
    <glyph glyph-name="aacute" unicode="&#xe1;" horiz-adv-x="663" 
d="M336 614l275 -608h-79l-213 519zM143 73q-11 -30 3 -46.5t32 -16.5h8v-10h-191v10h4h4q21 0 43 14.5t38 48.5h59zM336 614l7 -69l-229 -542h-63l237 508l5.5 12t13 29.5t13.5 34.5t7 27h9zM454 233v-30h-265v30h265zM505 73h76q15 -34 37 -48.5t42 -14.5h4h4v-10h-205v10
h8q17 0 31 16.5t3 46.5zM325 671q21 23 42 45.5t42.5 44t42.5 41.5q11 -12 22 -25t19 -28l-54 -30t-53.5 -28.5t-53.5 -26.5z" />
    <glyph glyph-name="acircumflex" unicode="&#xe2;" horiz-adv-x="663" 
d="M336 614l275 -608h-79l-213 519zM143 73q-11 -30 3 -46.5t32 -16.5h8v-10h-191v10h4h4q21 0 43 14.5t38 48.5h59zM336 614l7 -69l-229 -542h-63l237 508l5.5 12t13 29.5t13.5 34.5t7 27h9zM454 233v-30h-265v30h265zM505 73h76q15 -34 37 -48.5t42 -14.5h4h4v-10h-205v10
h8q17 0 31 16.5t3 46.5zM221 671l6 -8l104 66l114 -66l6 8l-114 119h-10z" />
    <glyph glyph-name="atilde" unicode="&#xe3;" horiz-adv-x="663" 
d="M336 614l275 -608h-79l-213 519zM143 73q-11 -30 3 -46.5t32 -16.5h8v-10h-191v10h4h4q21 0 43 14.5t38 48.5h59zM336 614l7 -69l-229 -542h-63l237 508l5.5 12t13 29.5t13.5 34.5t7 27h9zM454 233v-30h-265v30h265zM505 73h76q15 -34 37 -48.5t42 -14.5h4h4v-10h-205v10
h8q17 0 31 16.5t3 46.5zM218 667h10q6 14 13.5 23t18 13.5t22.5 4.5q17 0 36.5 -11t41.5 -22t43 -11q13 0 24 5.5t19.5 15.5t14 25t7.5 33h-10q-4 -11 -12 -19t-18.5 -11.5t-24.5 -3.5q-17 0 -36 11t-40.5 21.5t-44.5 10.5q-12 0 -22.5 -6t-18.5 -17t-14 -26.5t-9 -35.5z
" />
    <glyph glyph-name="adieresis" unicode="&#xe4;" horiz-adv-x="663" 
d="M336 614l275 -608h-79l-213 519zM143 73q-11 -30 3 -46.5t32 -16.5h8v-10h-191v10h4h4q21 0 43 14.5t38 48.5h59zM336 614l7 -69l-229 -542h-63l237 508l5.5 12t13 29.5t13.5 34.5t7 27h9zM454 233v-30h-265v30h265zM505 73h76q15 -34 37 -48.5t42 -14.5h4h4v-10h-205v10
h8q17 0 31 16.5t3 46.5zM238 664q-16 0 -27.5 11.5t-11.5 27.5q0 17 11.5 28t27.5 11q17 0 28 -11t11 -28q0 -16 -11 -27.5t-28 -11.5zM427 664q-16 0 -27.5 11.5t-11.5 27.5q0 17 11.5 28t27.5 11t27.5 -11t11.5 -28q0 -16 -11.5 -27.5t-27.5 -11.5z" />
    <glyph glyph-name="aring" unicode="&#xe5;" horiz-adv-x="663" 
d="M336 614l275 -608h-79l-213 519zM143 73q-11 -30 3 -46.5t32 -16.5h8v-10h-191v10h4h4q21 0 43 14.5t38 48.5h59zM336 614l7 -69l-229 -542h-63l237 508l5.5 12t13 29.5t13.5 34.5t7 27h9zM454 233v-30h-265v30h265zM505 73h76q15 -34 37 -48.5t42 -14.5h4h4v-10h-205v10
h8q17 0 31 16.5t3 46.5zM332 814q41 0 67.5 -20t26.5 -55q0 -33 -26.5 -54t-67.5 -21q-40 0 -66.5 21t-26.5 54t26.5 54t66.5 21zM332 797q-20 0 -34.5 -15t-14.5 -43t14.5 -43t34.5 -15q21 0 35 15t14 43t-14 43t-35 15z" />
    <glyph glyph-name="ae" unicode="&#xe6;" horiz-adv-x="830" 
d="M143 58q-7 -12 -6 -23t8.5 -18t20.5 -7h8v-10h-179v10h3h3q22 0 44.5 15.5t35.5 36.5zM498 600v-600h-65v561zM435 50v-50h-53v10h4h4q17 0 29.5 11.5t13.5 28.5h2zM750 30v-30h-255v30h255zM715 302v-31h-451l4 31h447zM750 600v-32h-296l-2 -27l-343 -538h-68l390 559
q5 11 -1 20.5t-18 9.5h-3v8h341zM800 124l-48 -124h-120l25 30q53 0 84 26.5t48 67.5h11zM715 273v-54h-10v10q0 17 -12 29.5t-30 12.5v2h52zM715 357v-57h-52v2q18 0 30 12.5t12 29.5v13h10zM750 570v-57h-10v13q0 17 -12.5 29.5t-29.5 12.5v2h52zM750 616v-25l-105 9
q29 0 61 5.5t44 10.5z" />
    <glyph glyph-name="ccedilla" unicode="&#xe7;" horiz-adv-x="705" 
d="M666 252l-11 -137q-26 -40 -68 -69t-95 -44.5t-112 -15.5q-101 1 -175.5 39t-114.5 108t-40 167q0 98 40 168t114.5 108t175.5 38q62 0 125 -16t109 -45l22 -141h-9q-22 92 -88.5 132t-159.5 40q-79 0 -136.5 -34.5t-89 -98t-31.5 -151.5q0 -86 31.5 -149.5t89.5 -98
t137 -35.5q75 0 135.5 24.5t98.5 76.5t43 134h9zM370 -12h27l-41 -49q13 5 30.5 6t34 -4.5t28 -19.5t12.5 -40q1 -31 -20.5 -51t-54 -26t-66.5 4l1 10q21 0 42 6t35 20t13 38q-1 21 -14.5 30.5t-32.5 10t-37 -7.5l-2.5 5l-2.5 5z" />
    <glyph glyph-name="egrave" unicode="&#xe8;" horiz-adv-x="546" 
d="M191 600v-600h-64v600h64zM460 31l-2 -31h-269v31h271zM413 315v-30h-224v30h224zM459 600v-31h-270v31h270zM516 143l-55 -143h-152l34 31q50 0 80.5 14.5t49.5 40t33 57.5h10zM413 287v-57h-11v13q0 17 -10 29.5t-31 12.5v2h52zM413 370v-57h-52v2q21 0 31 12.5
t10 29.5v13h11zM459 572v-69h-11v15q0 21 -13.5 36t-36.5 15v3h61zM459 616v-26l-114 10q31 0 66 5.5t48 10.5zM129 64l13 -64h-87v10h7h7q25 0 41 16t17 38h2zM129 537h-2q-1 23 -17 38t-41 15h-7h-7v10h87zM304 671l-7 -7q-27 13 -54 26.5t-53.5 28.5t-53.5 30
q8 16 18.5 29t22.5 24q21 -20 42 -41.5t42.5 -43.5t42.5 -46z" />
    <glyph glyph-name="eacute" unicode="&#xe9;" horiz-adv-x="546" 
d="M191 600v-600h-64v600h64zM460 31l-2 -31h-269v31h271zM413 315v-30h-224v30h224zM459 600v-31h-270v31h270zM516 143l-55 -143h-152l34 31q50 0 80.5 14.5t49.5 40t33 57.5h10zM413 287v-57h-11v13q0 17 -10 29.5t-31 12.5v2h52zM413 370v-57h-52v2q21 0 31 12.5
t10 29.5v13h11zM459 572v-69h-11v15q0 21 -13.5 36t-36.5 15v3h61zM459 616v-26l-114 10q31 0 66 5.5t48 10.5zM129 64l13 -64h-87v10h7h7q25 0 41 16t17 38h2zM129 537h-2q-1 23 -17 38t-41 15h-7h-7v10h87zM290 671q21 23 42 45.5t42.5 44t42.5 41.5q11 -12 22 -25t19 -28
l-54 -30t-53.5 -28.5t-53.5 -26.5z" />
    <glyph glyph-name="ecircumflex" unicode="&#xea;" horiz-adv-x="546" 
d="M191 600v-600h-64v600h64zM460 31l-2 -31h-269v31h271zM413 315v-30h-224v30h224zM459 600v-31h-270v31h270zM516 143l-55 -143h-152l34 31q50 0 80.5 14.5t49.5 40t33 57.5h10zM413 287v-57h-11v13q0 17 -10 29.5t-31 12.5v2h52zM413 370v-57h-52v2q21 0 31 12.5
t10 29.5v13h11zM459 572v-69h-11v15q0 21 -13.5 36t-36.5 15v3h61zM459 616v-26l-114 10q31 0 66 5.5t48 10.5zM129 64l13 -64h-87v10h7h7q25 0 41 16t17 38h2zM129 537h-2q-1 23 -17 38t-41 15h-7h-7v10h87zM186 671l6 -8l104 66l114 -66l6 8l-114 119h-10z" />
    <glyph glyph-name="edieresis" unicode="&#xeb;" horiz-adv-x="546" 
d="M191 600v-600h-64v600h64zM460 31l-2 -31h-269v31h271zM413 315v-30h-224v30h224zM459 600v-31h-270v31h270zM516 143l-55 -143h-152l34 31q50 0 80.5 14.5t49.5 40t33 57.5h10zM413 287v-57h-11v13q0 17 -10 29.5t-31 12.5v2h52zM413 370v-57h-52v2q21 0 31 12.5
t10 29.5v13h11zM459 572v-69h-11v15q0 21 -13.5 36t-36.5 15v3h61zM459 616v-26l-114 10q31 0 66 5.5t48 10.5zM129 64l13 -64h-87v10h7h7q25 0 41 16t17 38h2zM129 537h-2q-1 23 -17 38t-41 15h-7h-7v10h87zM202 664q-16 0 -27.5 11.5t-11.5 27.5q0 17 11.5 28t27.5 11
q17 0 28 -11t11 -28q0 -16 -11 -27.5t-28 -11.5zM391 664q-16 0 -27.5 11.5t-11.5 27.5q0 17 11.5 28t27.5 11t27.5 -11t11.5 -28q0 -16 -11.5 -27.5t-27.5 -11.5z" />
    <glyph glyph-name="igrave" unicode="&#xec;" horiz-adv-x="306" 
d="M185 600v-600h-64v600h64zM124 64v-64h-69v10h5.5h5.5q23 0 39 16t16 38h3zM183 64h2q1 -22 17 -38t39 -16h5h5l1 -10h-69v64zM183 536v64h69l-1 -10h-5h-5q-23 0 -39 -15.5t-17 -38.5h-2zM124 536h-3q0 23 -16 38.5t-39 15.5h-5.5h-5.5v10h69v-64zM161 671l-7 -7
q-27 13 -54 26.5t-53.5 28.5t-53.5 30q8 16 18.5 29t22.5 24q21 -20 42 -41.5t42.5 -43.5t42.5 -46z" />
    <glyph glyph-name="iacute" unicode="&#xed;" horiz-adv-x="306" 
d="M185 600v-600h-64v600h64zM124 64v-64h-69v10h5.5h5.5q23 0 39 16t16 38h3zM183 64h2q1 -22 17 -38t39 -16h5h5l1 -10h-69v64zM183 536v64h69l-1 -10h-5h-5q-23 0 -39 -15.5t-17 -38.5h-2zM124 536h-3q0 23 -16 38.5t-39 15.5h-5.5h-5.5v10h69v-64zM147 671
q21 23 42 45.5t42.5 44t42.5 41.5q11 -12 22 -25t19 -28l-54 -30t-53.5 -28.5t-53.5 -26.5z" />
    <glyph glyph-name="icircumflex" unicode="&#xee;" horiz-adv-x="306" 
d="M185 600v-600h-64v600h64zM124 64v-64h-69v10h5.5h5.5q23 0 39 16t16 38h3zM183 64h2q1 -22 17 -38t39 -16h5h5l1 -10h-69v64zM183 536v64h69l-1 -10h-5h-5q-23 0 -39 -15.5t-17 -38.5h-2zM124 536h-3q0 23 -16 38.5t-39 15.5h-5.5h-5.5v10h69v-64zM42 671l6 -8l104 66
l114 -66l6 8l-114 119h-10z" />
    <glyph glyph-name="idieresis" unicode="&#xef;" horiz-adv-x="306" 
d="M185 600v-600h-64v600h64zM124 64v-64h-69v10h5.5h5.5q23 0 39 16t16 38h3zM183 64h2q1 -22 17 -38t39 -16h5h5l1 -10h-69v64zM183 536v64h69l-1 -10h-5h-5q-23 0 -39 -15.5t-17 -38.5h-2zM124 536h-3q0 23 -16 38.5t-39 15.5h-5.5h-5.5v10h69v-64zM59 664
q-16 0 -27.5 11.5t-11.5 27.5q0 17 11.5 28t27.5 11q17 0 28 -11t11 -28q0 -16 -11 -27.5t-28 -11.5zM248 664q-16 0 -27.5 11.5t-11.5 27.5q0 17 11.5 28t27.5 11t27.5 -11t11.5 -28q0 -16 -11.5 -27.5t-27.5 -11.5z" />
    <glyph glyph-name="eth" unicode="&#xf0;" horiz-adv-x="760" 
d="M389 600q99 0 171 -36t111 -103.5t39 -160.5t-39 -160t-111 -103.5t-171 -36.5h-213l-2 30h117.5h72.5h25q116 0 182.5 72.5t66.5 197.5t-66.5 197.5t-182.5 72.5h-26h-76h-123v30h225zM190 600v-600h-65v600h65zM127 65v-65h-72v10h6.5h6.5q24 0 40 16.5t17 38.5h2z
M127 535h-2q-1 24 -17.5 39.5t-40.5 15.5h-6h-6v10h72v-65zM62 315h285v-30h-285v30z" />
    <glyph glyph-name="ntilde" unicode="&#xf1;" horiz-adv-x="779" 
d="M108 615l554 -522l10 -107l-554 525zM110 62v-62h-75v10h8.5h8.5q23 0 39 15t16 37h3zM152 62q0 -22 16.5 -37t38.5 -15h8.5h8.5v-10h-75v62h3zM108 615l43 -56l1 -559h-45v490q0 51 -4.5 88l-4.5 37h10zM672 600v-486q0 -32 2 -61.5t4.5 -48l2.5 -18.5h-9l-44 53v561h44
zM669 538v62h75v-10h-8.5h-8.5q-22 0 -38.5 -15t-16.5 -37h-3zM628 538q-1 22 -17 37t-39 15h-8.5h-8.5v10h75v-62h-2zM273 667h10q6 14 13.5 23t18 13.5t22.5 4.5q17 0 36.5 -11t41.5 -22t43 -11q13 0 24 5.5t19.5 15.5t14 25t7.5 33h-10q-4 -11 -12 -19t-18.5 -11.5
t-24.5 -3.5q-17 0 -36 11t-40.5 21.5t-44.5 10.5q-12 0 -22.5 -6t-18.5 -17t-14 -26.5t-9 -35.5z" />
    <glyph glyph-name="ograve" unicode="&#xf2;" horiz-adv-x="774" 
d="M387 614q70 0 131.5 -22.5t108 -64.5t72.5 -99.5t26 -127.5t-26 -127.5t-72.5 -99.5t-108 -64.5t-131.5 -22.5t-131 22.5t-107.5 64.5t-72.5 99.5t-26 127.5t26 127.5t72.5 99.5t107.5 64.5t131 22.5zM387 16q74 0 134 36t95 100t35 148q0 85 -35 148.5t-95 99.5t-134 36
q-73 0 -133 -36t-95 -99.5t-35 -148.5q0 -84 35 -148t95 -100t133 -36zM395 671l-7 -7q-27 13 -54 26.5t-53.5 28.5t-53.5 30q8 16 18.5 29t22.5 24q21 -20 42 -41.5t42.5 -43.5t42.5 -46z" />
    <glyph glyph-name="oacute" unicode="&#xf3;" horiz-adv-x="774" 
d="M387 614q70 0 131.5 -22.5t108 -64.5t72.5 -99.5t26 -127.5t-26 -127.5t-72.5 -99.5t-108 -64.5t-131.5 -22.5t-131 22.5t-107.5 64.5t-72.5 99.5t-26 127.5t26 127.5t72.5 99.5t107.5 64.5t131 22.5zM387 16q74 0 134 36t95 100t35 148q0 85 -35 148.5t-95 99.5t-134 36
q-73 0 -133 -36t-95 -99.5t-35 -148.5q0 -84 35 -148t95 -100t133 -36zM381 671q21 23 42 45.5t42.5 44t42.5 41.5q11 -12 22 -25t19 -28l-54 -30t-53.5 -28.5t-53.5 -26.5z" />
    <glyph glyph-name="ocircumflex" unicode="&#xf4;" horiz-adv-x="774" 
d="M387 614q70 0 131.5 -22.5t108 -64.5t72.5 -99.5t26 -127.5t-26 -127.5t-72.5 -99.5t-108 -64.5t-131.5 -22.5t-131 22.5t-107.5 64.5t-72.5 99.5t-26 127.5t26 127.5t72.5 99.5t107.5 64.5t131 22.5zM387 16q74 0 134 36t95 100t35 148q0 85 -35 148.5t-95 99.5t-134 36
q-73 0 -133 -36t-95 -99.5t-35 -148.5q0 -84 35 -148t95 -100t133 -36zM276 671l6 -8l104 66l114 -66l6 8l-114 119h-10z" />
    <glyph glyph-name="otilde" unicode="&#xf5;" horiz-adv-x="774" 
d="M387 614q70 0 131.5 -22.5t108 -64.5t72.5 -99.5t26 -127.5t-26 -127.5t-72.5 -99.5t-108 -64.5t-131.5 -22.5t-131 22.5t-107.5 64.5t-72.5 99.5t-26 127.5t26 127.5t72.5 99.5t107.5 64.5t131 22.5zM387 16q74 0 134 36t95 100t35 148q0 85 -35 148.5t-95 99.5t-134 36
q-73 0 -133 -36t-95 -99.5t-35 -148.5q0 -84 35 -148t95 -100t133 -36zM273 667h10q6 14 13.5 23t18 13.5t22.5 4.5q17 0 36.5 -11t41.5 -22t43 -11q13 0 24 5.5t19.5 15.5t14 25t7.5 33h-10q-4 -11 -12 -19t-18.5 -11.5t-24.5 -3.5q-17 0 -36 11t-40.5 21.5t-44.5 10.5
q-12 0 -22.5 -6t-18.5 -17t-14 -26.5t-9 -35.5z" />
    <glyph glyph-name="odieresis" unicode="&#xf6;" horiz-adv-x="774" 
d="M387 614q70 0 131.5 -22.5t108 -64.5t72.5 -99.5t26 -127.5t-26 -127.5t-72.5 -99.5t-108 -64.5t-131.5 -22.5t-131 22.5t-107.5 64.5t-72.5 99.5t-26 127.5t26 127.5t72.5 99.5t107.5 64.5t131 22.5zM387 16q74 0 134 36t95 100t35 148q0 85 -35 148.5t-95 99.5t-134 36
q-73 0 -133 -36t-95 -99.5t-35 -148.5q0 -84 35 -148t95 -100t133 -36zM293 664q-16 0 -27.5 11.5t-11.5 27.5q0 17 11.5 28t27.5 11q17 0 28 -11t11 -28q0 -16 -11 -27.5t-28 -11.5zM482 664q-16 0 -27.5 11.5t-11.5 27.5q0 17 11.5 28t27.5 11t27.5 -11t11.5 -28
q0 -16 -11.5 -27.5t-27.5 -11.5z" />
    <glyph glyph-name="divide" unicode="&#xf7;" horiz-adv-x="481" 
d="M40 332h402v-45h-402v45zM241 117q-15 0 -25.5 10.5t-10.5 24.5q0 15 10.5 25t25.5 10q14 0 24.5 -10t10.5 -25q0 -14 -10.5 -24.5t-24.5 -10.5zM241 433q-15 0 -25.5 10.5t-10.5 24.5q0 15 10.5 25t25.5 10q14 0 24.5 -10t10.5 -25q0 -14 -10.5 -24.5t-24.5 -10.5z" />
    <glyph glyph-name="oslash" unicode="&#xf8;" horiz-adv-x="774" 
d="M613 631l26 -23l-526 -631l-25 22zM387 614q70 0 131.5 -22.5t108 -64.5t72.5 -99.5t26 -127.5t-26 -127.5t-72.5 -99.5t-108 -64.5t-131.5 -22.5t-131 22.5t-107.5 64.5t-72.5 99.5t-26 127.5t26 127.5t72.5 99.5t107.5 64.5t131 22.5zM387 16q74 0 134 36t95 100
t35 148q0 85 -35 148.5t-95 99.5t-134 36q-73 0 -133 -36t-95 -99.5t-35 -148.5q0 -84 35 -148t95 -100t133 -36z" />
    <glyph glyph-name="ugrave" unicode="&#xf9;" horiz-adv-x="700" 
d="M167 600v-378q0 -97 49.5 -153t135.5 -56q95 0 149.5 53t54.5 145v389h46v-389q0 -104 -66.5 -164.5t-182.5 -60.5q-115 0 -182.5 60t-67.5 164v390h64zM105 600v-53h-2q-1 18 -14.5 30.5t-33.5 12.5h-7.5h-7.5v10h65zM230 600v-10h-7.5h-7.5q-19 0 -33.5 -12.5
t-14.5 -30.5h-2v53h65zM558 600v-53h-2q0 18 -14 30.5t-34 12.5h-7.5h-7.5v10h65zM665 600v-10h-7.5h-7.5q-19 0 -33 -12.5t-15 -30.5h-2v53h65zM358 671l-7 -7q-27 13 -54 26.5t-53.5 28.5t-53.5 30q8 16 18.5 29t22.5 24q21 -20 42 -41.5t42.5 -43.5t42.5 -46z" />
    <glyph glyph-name="uacute" unicode="&#xfa;" horiz-adv-x="700" 
d="M167 600v-378q0 -97 49.5 -153t135.5 -56q95 0 149.5 53t54.5 145v389h46v-389q0 -104 -66.5 -164.5t-182.5 -60.5q-115 0 -182.5 60t-67.5 164v390h64zM105 600v-53h-2q-1 18 -14.5 30.5t-33.5 12.5h-7.5h-7.5v10h65zM230 600v-10h-7.5h-7.5q-19 0 -33.5 -12.5
t-14.5 -30.5h-2v53h65zM558 600v-53h-2q0 18 -14 30.5t-34 12.5h-7.5h-7.5v10h65zM665 600v-10h-7.5h-7.5q-19 0 -33 -12.5t-15 -30.5h-2v53h65zM344 671q21 23 42 45.5t42.5 44t42.5 41.5q11 -12 22 -25t19 -28l-54 -30t-53.5 -28.5t-53.5 -26.5z" />
    <glyph glyph-name="ucircumflex" unicode="&#xfb;" horiz-adv-x="700" 
d="M167 600v-378q0 -97 49.5 -153t135.5 -56q95 0 149.5 53t54.5 145v389h46v-389q0 -104 -66.5 -164.5t-182.5 -60.5q-115 0 -182.5 60t-67.5 164v390h64zM105 600v-53h-2q-1 18 -14.5 30.5t-33.5 12.5h-7.5h-7.5v10h65zM230 600v-10h-7.5h-7.5q-19 0 -33.5 -12.5
t-14.5 -30.5h-2v53h65zM558 600v-53h-2q0 18 -14 30.5t-34 12.5h-7.5h-7.5v10h65zM665 600v-10h-7.5h-7.5q-19 0 -33 -12.5t-15 -30.5h-2v53h65zM239 671l6 -8l104 66l114 -66l6 8l-114 119h-10z" />
    <glyph glyph-name="udieresis" unicode="&#xfc;" horiz-adv-x="700" 
d="M167 600v-378q0 -97 49.5 -153t135.5 -56q95 0 149.5 53t54.5 145v389h46v-389q0 -104 -66.5 -164.5t-182.5 -60.5q-115 0 -182.5 60t-67.5 164v390h64zM105 600v-53h-2q-1 18 -14.5 30.5t-33.5 12.5h-7.5h-7.5v10h65zM230 600v-10h-7.5h-7.5q-19 0 -33.5 -12.5
t-14.5 -30.5h-2v53h65zM558 600v-53h-2q0 18 -14 30.5t-34 12.5h-7.5h-7.5v10h65zM665 600v-10h-7.5h-7.5q-19 0 -33 -12.5t-15 -30.5h-2v53h65zM256 664q-16 0 -27.5 11.5t-11.5 27.5q0 17 11.5 28t27.5 11q17 0 28 -11t11 -28q0 -16 -11 -27.5t-28 -11.5zM445 664
q-16 0 -27.5 11.5t-11.5 27.5q0 17 11.5 28t27.5 11t27.5 -11t11.5 -28q0 -16 -11.5 -27.5t-27.5 -11.5z" />
    <glyph glyph-name="yacute" unicode="&#xfd;" horiz-adv-x="640" 
d="M149 599l185 -329l-41 -35l-231 364h87zM349 258v-258h-65v258h65zM517 599h63l-238 -362l-37 11zM479 536q11 20 1 37t-32 17h-6h-6v10h209v-10h-12q-28 0 -52.5 -15.5t-38.5 -35.5zM184 537l-85 3q-16 23 -39.5 36.5t-52.5 13.5h-12v10h232v-10h-6h-6
q-22 0 -31.5 -17.5t0.5 -35.5zM287 64v-64h-73v10h6.5h5.5q24 0 40.5 16t17.5 38h3zM346 64h3q1 -22 17.5 -38t40.5 -16h6h6v-10h-73v64zM327 671q21 23 42 45.5t42.5 44t42.5 41.5q11 -12 22 -25t19 -28l-54 -30t-53.5 -28.5t-53.5 -26.5z" />
    <glyph glyph-name="thorn" unicode="&#xfe;" horiz-adv-x="527" 
d="M172 475h112q65 0 111.5 -20.5t71.5 -59t25 -91.5q0 -57 -23 -97.5t-61.5 -61.5t-85 -20.5t-93.5 25.5v9l15 -3t38 -2.5t49.5 9t49.5 31.5t36 66q4 11 5.5 26t1.5 28q0 62 -38.5 96.5t-105.5 34.5h-98l-2.5 7.5l-5 15zM184 600v-600h-64v600h64zM122 64l11 -64h-80l1 10
h6h6q23 0 38 16t16 38h2zM122 537h-2q-1 23 -16 38t-38 15h-6h-6l-1 10h80zM181 64h3q0 -22 15.5 -38t37.5 -16h6.5h6.5v-10h-80zM181 537l-11 63h80v-10h-6.5h-6.5q-22 0 -37.5 -15t-15.5 -38h-3z" />
    <glyph glyph-name="ydieresis" unicode="&#xff;" horiz-adv-x="640" 
d="M149 599l185 -329l-41 -35l-231 364h87zM349 258v-258h-65v258h65zM517 599h63l-238 -362l-37 11zM479 536q11 20 1 37t-32 17h-6h-6v10h209v-10h-12q-28 0 -52.5 -15.5t-38.5 -35.5zM184 537l-85 3q-16 23 -39.5 36.5t-52.5 13.5h-12v10h232v-10h-6h-6
q-22 0 -31.5 -17.5t0.5 -35.5zM287 64v-64h-73v10h6.5h5.5q24 0 40.5 16t17.5 38h3zM346 64h3q1 -22 17.5 -38t40.5 -16h6h6v-10h-73v64zM239 664q-16 0 -27.5 11.5t-11.5 27.5q0 17 11.5 28t27.5 11q17 0 28 -11t11 -28q0 -16 -11 -27.5t-28 -11.5zM428 664
q-16 0 -27.5 11.5t-11.5 27.5q0 17 11.5 28t27.5 11t27.5 -11t11.5 -28q0 -16 -11.5 -27.5t-27.5 -11.5z" />
    <glyph glyph-name="Amacron" unicode="&#x100;" 
d="M359 714l296 -708h-85l-231 613zM144 73q-7 -20 -2 -34t16.5 -21.5t23.5 -7.5h9v-10h-201v10h4.5h4.5q23 0 47.5 14.5t40.5 48.5h57zM359 714l9 -70l-251 -641h-60l256 608l5.5 12.5t13 30.5t13 35t5.5 25h9zM500 273v-30h-313v30h313zM545 73h82q15 -34 40 -48.5
t48 -14.5h4h4v-10h-225v10h9q19 0 34 16.5t4 46.5zM234 830h250v-35h-250v35z" />
    <glyph glyph-name="amacron" unicode="&#x101;" horiz-adv-x="663" 
d="M336 614l275 -608h-79l-213 519zM143 73q-11 -30 3 -46.5t32 -16.5h8v-10h-191v10h4h4q21 0 43 14.5t38 48.5h59zM336 614l7 -69l-229 -542h-63l237 508l5.5 12t13 29.5t13.5 34.5t7 27h9zM454 233v-30h-265v30h265zM505 73h76q15 -34 37 -48.5t42 -14.5h4h4v-10h-205v10
h8q17 0 31 16.5t3 46.5zM210 730h250v-35h-250v35z" />
    <glyph glyph-name="Abreve" unicode="&#x102;" 
d="M359 714l296 -708h-85l-231 613zM144 73q-7 -20 -2 -34t16.5 -21.5t23.5 -7.5h9v-10h-201v10h4.5h4.5q23 0 47.5 14.5t40.5 48.5h57zM359 714l9 -70l-251 -641h-60l256 608l5.5 12.5t13 30.5t13 35t5.5 25h9zM500 273v-30h-313v30h313zM545 73h82q15 -34 40 -48.5
t48 -14.5h4h4v-10h-225v10h9q19 0 34 16.5t4 46.5zM460 868q0 -28 -14 -52t-37.5 -38t-51.5 -14t-51.5 14t-37.5 38t-14 52h10q8 -20 33.5 -37t59.5 -17q35 0 60.5 17t32.5 37h10z" />
    <glyph glyph-name="abreve" unicode="&#x103;" horiz-adv-x="663" 
d="M336 614l275 -608h-79l-213 519zM143 73q-11 -30 3 -46.5t32 -16.5h8v-10h-191v10h4h4q21 0 43 14.5t38 48.5h59zM336 614l7 -69l-229 -542h-63l237 508l5.5 12t13 29.5t13.5 34.5t7 27h9zM454 233v-30h-265v30h265zM505 73h76q15 -34 37 -48.5t42 -14.5h4h4v-10h-205v10
h8q17 0 31 16.5t3 46.5zM435 768q0 -28 -14 -52t-37.5 -38t-51.5 -14t-51.5 14t-37.5 38t-14 52h10q8 -20 33.5 -37t59.5 -17q35 0 60.5 17t32.5 37h10z" />
    <glyph glyph-name="Aogonek" unicode="&#x104;" horiz-adv-x="737" 
d="M373 714l310 -708l-85 -4l-245 617zM373 714l9 -70l-266 -641h-60l271 608l5.5 12.5t13 30.5t13 35t5.5 25h9zM513 273v-30h-312v30h312zM144 73q-7 -20 -2 -34t16.5 -21.5t23.5 -7.5h9v-10h-201v10h4.5h4.5q23 0 47.5 14.5t40.5 48.5h57zM612 0q-31 -5 -46.5 -26.5
t-15.5 -44.5q0 -28 20.5 -47t49.5 -19.5t54 24.5l6 -6q-9 -25 -29.5 -39t-45.5 -17.5t-48 5.5t-38.5 30t-15.5 56q-1 26 14.5 46t34.5 30q22 12 26 30.5t-8 49.5l86 -4q14 -31 37.5 -45t45.5 -14h4.5h4.5v-9q-31 0 -50.5 1t-32.5 1.5t-25 0.5t-28 -3z" />
    <glyph glyph-name="aogonek" unicode="&#x105;" horiz-adv-x="659" 
d="M143 73q-11 -30 3 -46.5t32 -16.5h8v-10h-191v10h4h4q21 0 43 14.5t38 48.5h59zM336 614l7 -69l-229 -542h-63l237 508l5.5 12t13 29.5t13.5 34.5t7 27h9zM336 614l275 -608h-79l-213 519zM454 233v-30h-265v30h265zM493 0q-30 -7 -41 -27t-10 -44q1 -28 21 -47
t48.5 -19.5t52.5 24.5l6 -6q-9 -25 -29 -39t-44.5 -17t-47.5 6t-38 30.5t-15 56.5q-1 29 19 54t57 38q18 6 31 19.5t2 43.5h76q11 -24 24 -38t28 -19.5t31 -5.5v-10q-19 0 -42 1.5t-47 2.5t-45.5 0.5t-36.5 -4.5z" />
    <glyph glyph-name="Cacute" unicode="&#x106;" horiz-adv-x="760" 
d="M710 292l-12 -157q-26 -43 -65.5 -76.5t-93 -53t-122.5 -19.5q-104 1 -185 46t-126.5 126.5t-45.5 192.5q0 109 45 190.5t126.5 127t191.5 45.5q74 0 133.5 -19.5t103.5 -48.5l20 -141h-9q-22 88 -90 133.5t-158 45.5q-88 0 -152.5 -41.5t-100 -116t-35.5 -174.5
t35.5 -175t99 -117t147.5 -44q71 0 131.5 26.5t101.5 87t52 162.5h8zM410 771q21 23 42 45.5t42.5 44t42.5 41.5q11 -12 22 -25t19 -28l-54 -30t-53.5 -28.5t-53.5 -26.5z" />
    <glyph glyph-name="cacute" unicode="&#x107;" horiz-adv-x="705" 
d="M666 252l-11 -137q-26 -40 -68 -69t-95 -44.5t-112 -15.5q-101 1 -175.5 39t-114.5 108t-40 167q0 98 40 168t114.5 108t175.5 38q62 0 125 -16t109 -45l22 -141h-9q-22 92 -88.5 132t-159.5 40q-79 0 -136.5 -34.5t-89 -98t-31.5 -151.5q0 -86 31.5 -149.5t89.5 -98
t137 -35.5q75 0 135.5 24.5t98.5 76.5t43 134h9zM373 671q21 23 42 45.5t42.5 44t42.5 41.5q11 -12 22 -25t19 -28l-54 -30t-53.5 -28.5t-53.5 -26.5z" />
    <glyph glyph-name="Cdotaccent" unicode="&#x10a;" horiz-adv-x="760" 
d="M710 292l-12 -157q-26 -43 -65.5 -76.5t-93 -53t-122.5 -19.5q-104 1 -185 46t-126.5 126.5t-45.5 192.5q0 109 45 190.5t126.5 127t191.5 45.5q74 0 133.5 -19.5t103.5 -48.5l20 -141h-9q-22 88 -90 133.5t-158 45.5q-88 0 -152.5 -41.5t-100 -116t-35.5 -174.5
t35.5 -175t99 -117t147.5 -44q71 0 131.5 26.5t101.5 87t52 162.5h8zM416 765q-18 0 -30.5 12.5t-12.5 30.5q0 17 12.5 30t30.5 13t30.5 -13t12.5 -30q0 -18 -12.5 -30.5t-30.5 -12.5z" />
    <glyph glyph-name="cdotaccent" unicode="&#x10b;" horiz-adv-x="705" 
d="M666 252l-11 -137q-26 -40 -68 -69t-95 -44.5t-112 -15.5q-101 1 -175.5 39t-114.5 108t-40 167q0 98 40 168t114.5 108t175.5 38q62 0 125 -16t109 -45l22 -141h-9q-22 92 -88.5 132t-159.5 40q-79 0 -136.5 -34.5t-89 -98t-31.5 -151.5q0 -86 31.5 -149.5t89.5 -98
t137 -35.5q75 0 135.5 24.5t98.5 76.5t43 134h9zM379 665q-18 0 -30.5 12.5t-12.5 30.5q0 17 12.5 30t30.5 13t30.5 -13t12.5 -30q0 -18 -12.5 -30.5t-30.5 -12.5z" />
    <glyph glyph-name="Ccaron" unicode="&#x10c;" horiz-adv-x="760" 
d="M710 292l-12 -157q-26 -43 -65.5 -76.5t-93 -53t-122.5 -19.5q-104 1 -185 46t-126.5 126.5t-45.5 192.5q0 109 45 190.5t126.5 127t191.5 45.5q74 0 133.5 -19.5t103.5 -48.5l20 -141h-9q-22 88 -90 133.5t-158 45.5q-88 0 -152.5 -41.5t-100 -116t-35.5 -174.5
t35.5 -175t99 -117t147.5 -44q71 0 131.5 26.5t101.5 87t52 162.5h8zM528 883l-6 8l-105 -66l-113 66l-6 -8l114 -119h10z" />
    <glyph glyph-name="ccaron" unicode="&#x10d;" horiz-adv-x="705" 
d="M666 252l-11 -137q-26 -40 -68 -69t-95 -44.5t-112 -15.5q-101 1 -175.5 39t-114.5 108t-40 167q0 98 40 168t114.5 108t175.5 38q62 0 125 -16t109 -45l22 -141h-9q-22 92 -88.5 132t-159.5 40q-79 0 -136.5 -34.5t-89 -98t-31.5 -151.5q0 -86 31.5 -149.5t89.5 -98
t137 -35.5q75 0 135.5 24.5t98.5 76.5t43 134h9zM491 783l-6 8l-105 -66l-113 66l-6 -8l114 -119h10z" />
    <glyph glyph-name="Dcaron" unicode="&#x10e;" horiz-adv-x="807" 
d="M399 700q107 0 187.5 -43.5t126 -122.5t45.5 -184t-45.5 -183.5t-126 -122.5t-187.5 -44h-214l-1 30h21.5h54h64.5h53.5h21.5q86 0 149.5 40t99 112t35.5 168t-35.5 168t-99.5 112t-149 40h-22.5h-56h-67h-56.5h-23v30h225zM202 700v-700h-65v700h65zM140 73v-73h-80v10
h6.5h6.5q26 0 44.5 18.5t19.5 44.5h3zM140 627h-3q0 26 -19 44.5t-45 18.5h-6h-6l-1 10h80v-73zM510 883l-6 8l-105 -66l-113 66l-6 -8l114 -119h10z" />
    <glyph glyph-name="dcaron" unicode="&#x10f;" horiz-adv-x="760" 
d="M389 600q99 0 171 -36t111 -103.5t39 -160.5t-39 -160t-111 -103.5t-171 -36.5h-213l-2 30h117.5h72.5h25q116 0 182.5 72.5t66.5 197.5t-66.5 197.5t-182.5 72.5h-26h-76h-123v30h225zM190 600v-600h-65v600h65zM127 65v-65h-72v10h6.5h6.5q24 0 40 16.5t17 38.5h2z
M127 535h-2q-1 24 -17.5 39.5t-40.5 15.5h-6h-6v10h72v-65zM499 784l-6 8l-105 -66l-113 66l-6 -8l114 -119h10z" />
    <glyph glyph-name="Dcroat" unicode="&#x110;" horiz-adv-x="807" 
d="M399 700q107 0 187.5 -43.5t126 -122.5t45.5 -184t-45.5 -183.5t-126 -122.5t-187.5 -44h-214l-1 30h21.5h54h64.5h53.5h21.5q86 0 149.5 40t99 112t35.5 168t-35.5 168t-99.5 112t-149 40h-22.5h-56h-67h-56.5h-23v30h225zM202 700v-700h-65v700h65zM140 73v-73h-80v10
h6.5h6.5q26 0 44.5 18.5t19.5 44.5h3zM140 627h-3q0 26 -19 44.5t-45 18.5h-6h-6l-1 10h80v-73zM277 830h250v-35h-250v35z" />
    <glyph glyph-name="dcroat" unicode="&#x111;" horiz-adv-x="760" 
d="M389 600q99 0 171 -36t111 -103.5t39 -160.5t-39 -160t-111 -103.5t-171 -36.5h-213l-2 30h117.5h72.5h25q116 0 182.5 72.5t66.5 197.5t-66.5 197.5t-182.5 72.5h-26h-76h-123v30h225zM190 600v-600h-65v600h65zM127 65v-65h-72v10h6.5h6.5q24 0 40 16.5t17 38.5h2z
M127 535h-2q-1 24 -17.5 39.5t-40.5 15.5h-6h-6v10h72v-65zM266 731h250v-35h-250v35z" />
    <glyph glyph-name="Emacron" unicode="&#x112;" horiz-adv-x="577" 
d="M202 700v-700h-65v700h65zM472 31v-31h-273v31h273zM429 360v-30h-230v30h230zM472 700v-31h-273v31h273zM533 162l-58 -162h-166l36 31q53 0 86.5 16.5t54.5 46.5t37 68h10zM429 332v-66h-10v15q0 20 -14 34.5t-34 14.5v2h58zM429 424v-66h-58v2q20 1 34 15.5t14 34.5
v14h10zM472 672v-80h-10v18q0 24 -17 41.5t-42 18.5v2h69zM472 718v-29l-122 11q22 0 46.5 3t45.5 7t30 8zM140 73v-73h-80v10h6.5h6.5q26 0 44.5 18.5t19.5 44.5h3zM140 627h-3q0 26 -19 44.5t-45 18.5h-6h-6l-1 10h80v-73zM176 830h250v-35h-250v35z" />
    <glyph glyph-name="emacron" unicode="&#x113;" horiz-adv-x="546" 
d="M191 600v-600h-64v600h64zM460 31l-2 -31h-269v31h271zM413 315v-30h-224v30h224zM459 600v-31h-270v31h270zM516 143l-55 -143h-152l34 31q50 0 80.5 14.5t49.5 40t33 57.5h10zM413 287v-57h-11v13q0 17 -10 29.5t-31 12.5v2h52zM413 370v-57h-52v2q21 0 31 12.5
t10 29.5v13h11zM459 572v-69h-11v15q0 21 -13.5 36t-36.5 15v3h61zM459 616v-26l-114 10q31 0 66 5.5t48 10.5zM129 64l13 -64h-87v10h7h7q25 0 41 16t17 38h2zM129 537h-2q-1 23 -17 38t-41 15h-7h-7v10h87zM175 730h250v-35h-250v35z" />
    <glyph glyph-name="Edotaccent" unicode="&#x116;" horiz-adv-x="577" 
d="M202 700v-700h-65v700h65zM472 31v-31h-273v31h273zM429 360v-30h-230v30h230zM472 700v-31h-273v31h273zM533 162l-58 -162h-166l36 31q53 0 86.5 16.5t54.5 46.5t37 68h10zM429 332v-66h-10v15q0 20 -14 34.5t-34 14.5v2h58zM429 424v-66h-58v2q20 1 34 15.5t14 34.5
v14h10zM472 672v-80h-10v18q0 24 -17 41.5t-42 18.5v2h69zM472 718v-29l-122 11q22 0 46.5 3t45.5 7t30 8zM140 73v-73h-80v10h6.5h6.5q26 0 44.5 18.5t19.5 44.5h3zM140 627h-3q0 26 -19 44.5t-45 18.5h-6h-6l-1 10h80v-73zM297 765q-18 0 -30.5 12.5t-12.5 30.5
q0 17 12.5 30t30.5 13t30.5 -13t12.5 -30q0 -18 -12.5 -30.5t-30.5 -12.5z" />
    <glyph glyph-name="edotaccent" unicode="&#x117;" horiz-adv-x="546" 
d="M191 600v-600h-64v600h64zM460 31l-2 -31h-269v31h271zM413 315v-30h-224v30h224zM459 600v-31h-270v31h270zM516 143l-55 -143h-152l34 31q50 0 80.5 14.5t49.5 40t33 57.5h10zM413 287v-57h-11v13q0 17 -10 29.5t-31 12.5v2h52zM413 370v-57h-52v2q21 0 31 12.5
t10 29.5v13h11zM459 572v-69h-11v15q0 21 -13.5 36t-36.5 15v3h61zM459 616v-26l-114 10q31 0 66 5.5t48 10.5zM129 64l13 -64h-87v10h7h7q25 0 41 16t17 38h2zM129 537h-2q-1 23 -17 38t-41 15h-7h-7v10h87zM296 665q-18 0 -30.5 12.5t-12.5 30.5q0 17 12.5 30t30.5 13
t30.5 -13t12.5 -30q0 -18 -12.5 -30.5t-30.5 -12.5z" />
    <glyph glyph-name="Eogonek" unicode="&#x118;" horiz-adv-x="577" 
d="M202 700v-700h-65v700h65zM472 31v-31h-273v31h273zM429 360v-30h-230v30h230zM472 700v-31h-273v31h273zM533 162l-58 -162h-166l36 31q53 0 86.5 16.5t54.5 46.5t37 68h10zM429 332v-66h-10v15q0 20 -14 34.5t-34 14.5v2h58zM429 424v-66h-58v2q20 1 34 15.5t14 34.5
v14h10zM472 672v-80h-10v18q0 24 -17 41.5t-42 18.5v2h69zM472 718v-29l-122 11q22 0 46.5 3t45.5 7t30 8zM140 73v-73h-80v10h6.5h6.5q26 0 44.5 18.5t19.5 44.5h3zM140 627h-3q0 26 -19 44.5t-45 18.5h-6h-6l-1 10h80v-73zM465 3l10 -3q-42 -10 -59 -29.5t-16 -48.5
q1 -28 21 -47t48.5 -19.5t52.5 24.5l6 -6q-9 -25 -29 -39t-44.5 -17t-47.5 6t-38 30.5t-15 56.5q0 27 15 47.5t40.5 32.5t55.5 12z" />
    <glyph glyph-name="eogonek" unicode="&#x119;" horiz-adv-x="546" 
d="M191 600v-600h-64v600h64zM460 31l-2 -31h-269v31h271zM413 315v-30h-224v30h224zM459 600v-31h-270v31h270zM516 143l-55 -143h-152l34 31q50 0 80.5 14.5t49.5 40t33 57.5h10zM413 287v-57h-11v13q0 17 -10 29.5t-31 12.5v2h52zM413 370v-57h-52v2q21 0 31 12.5
t10 29.5v13h11zM459 572v-69h-11v15q0 21 -13.5 36t-36.5 15v3h61zM459 616v-26l-114 10q31 0 66 5.5t48 10.5zM129 64l13 -64h-87v10h7h7q25 0 41 16t17 38h2zM129 537h-2q-1 23 -17 38t-41 15h-7h-7v10h87zM443 3l10 -3q-42 -10 -59 -29.5t-16 -48.5q1 -28 21 -47
t48.5 -19.5t52.5 24.5l6 -6q-9 -25 -29 -39t-44.5 -17t-47.5 6t-38 30.5t-15 56.5q0 27 15 47.5t40.5 32.5t55.5 12z" />
    <glyph glyph-name="Ecaron" unicode="&#x11a;" horiz-adv-x="577" 
d="M202 700v-700h-65v700h65zM472 31v-31h-273v31h273zM429 360v-30h-230v30h230zM472 700v-31h-273v31h273zM533 162l-58 -162h-166l36 31q53 0 86.5 16.5t54.5 46.5t37 68h10zM429 332v-66h-10v15q0 20 -14 34.5t-34 14.5v2h58zM429 424v-66h-58v2q20 1 34 15.5t14 34.5
v14h10zM472 672v-80h-10v18q0 24 -17 41.5t-42 18.5v2h69zM472 718v-29l-122 11q22 0 46.5 3t45.5 7t30 8zM140 73v-73h-80v10h6.5h6.5q26 0 44.5 18.5t19.5 44.5h3zM140 627h-3q0 26 -19 44.5t-45 18.5h-6h-6l-1 10h80v-73zM409 883l-6 8l-105 -66l-113 66l-6 -8l114 -119
h10z" />
    <glyph glyph-name="ecaron" unicode="&#x11b;" horiz-adv-x="546" 
d="M191 600v-600h-64v600h64zM460 31l-2 -31h-269v31h271zM413 315v-30h-224v30h224zM459 600v-31h-270v31h270zM516 143l-55 -143h-152l34 31q50 0 80.5 14.5t49.5 40t33 57.5h10zM413 287v-57h-11v13q0 17 -10 29.5t-31 12.5v2h52zM413 370v-57h-52v2q21 0 31 12.5
t10 29.5v13h11zM459 572v-69h-11v15q0 21 -13.5 36t-36.5 15v3h61zM459 616v-26l-114 10q31 0 66 5.5t48 10.5zM129 64l13 -64h-87v10h7h7q25 0 41 16t17 38h2zM129 537h-2q-1 23 -17 38t-41 15h-7h-7v10h87zM408 783l-6 8l-105 -66l-113 66l-6 -8l114 -119h10z" />
    <glyph glyph-name="Gbreve" unicode="&#x11e;" horiz-adv-x="798" 
d="M709 280v-165q-23 -30 -62 -60t-95.5 -49.5t-132.5 -19.5q-106 1 -187 46.5t-126.5 127t-45.5 190.5t45.5 191t126.5 127.5t187 45.5q55 0 99 -9t79.5 -24.5t64.5 -34.5l20 -141h-9q-15 58 -49.5 97.5t-86.5 60.5t-118 21q-84 0 -148 -42t-100 -117t-36 -175t36 -175
t100 -116.5t148 -42.5q44 0 84.5 10.5t76.5 30t64 46.5l1 177q0 45 -51 45h-16v10h196v-10h-15q-52 0 -50 -45zM522 868q0 -28 -14 -52t-37.5 -38t-51.5 -14t-51.5 14t-37.5 38t-14 52h10q8 -20 33.5 -37t59.5 -17q35 0 60.5 17t32.5 37h10z" />
    <glyph glyph-name="gbreve" unicode="&#x11f;" horiz-adv-x="742" 
d="M378 614q46 0 86.5 -6.5t77 -20t69.5 -34.5l22 -141h-9q-14 59 -45.5 97t-81.5 56.5t-120 18.5q-76 0 -133.5 -34.5t-89.5 -98t-32 -151.5q0 -87 32 -151t90 -98.5t134 -34.5q42 0 80 9t73.5 28.5t66.5 49.5l1 133q1 19 -11.5 29t-34.5 10h-14v10h183v-10h-14
q-45 0 -45 -40v-120q-23 -29 -63 -59t-95.5 -50t-126.5 -20q-99 1 -172.5 39t-114.5 108t-41 167q0 98 41 168t115 108t172 38zM481 768q0 -28 -14 -52t-37.5 -38t-51.5 -14t-51.5 14t-37.5 38t-14 52h10q8 -20 33.5 -37t59.5 -17q35 0 60.5 17t32.5 37h10z" />
    <glyph glyph-name="Gdotaccent" unicode="&#x120;" horiz-adv-x="798" 
d="M709 280v-165q-23 -30 -62 -60t-95.5 -49.5t-132.5 -19.5q-106 1 -187 46.5t-126.5 127t-45.5 190.5t45.5 191t126.5 127.5t187 45.5q55 0 99 -9t79.5 -24.5t64.5 -34.5l20 -141h-9q-15 58 -49.5 97.5t-86.5 60.5t-118 21q-84 0 -148 -42t-100 -117t-36 -175t36 -175
t100 -116.5t148 -42.5q44 0 84.5 10.5t76.5 30t64 46.5l1 177q0 45 -51 45h-16v10h196v-10h-15q-52 0 -50 -45zM418 765q-18 0 -30.5 12.5t-12.5 30.5q0 17 12.5 30t30.5 13t30.5 -13t12.5 -30q0 -18 -12.5 -30.5t-30.5 -12.5z" />
    <glyph glyph-name="gdotaccent" unicode="&#x121;" horiz-adv-x="742" 
d="M378 614q46 0 86.5 -6.5t77 -20t69.5 -34.5l22 -141h-9q-14 59 -45.5 97t-81.5 56.5t-120 18.5q-76 0 -133.5 -34.5t-89.5 -98t-32 -151.5q0 -87 32 -151t90 -98.5t134 -34.5q42 0 80 9t73.5 28.5t66.5 49.5l1 133q1 19 -11.5 29t-34.5 10h-14v10h183v-10h-14
q-45 0 -45 -40v-120q-23 -29 -63 -59t-95.5 -50t-126.5 -20q-99 1 -172.5 39t-114.5 108t-41 167q0 98 41 168t115 108t172 38zM377 665q-18 0 -30.5 12.5t-12.5 30.5q0 17 12.5 30t30.5 13t30.5 -13t12.5 -30q0 -18 -12.5 -30.5t-30.5 -12.5z" />
    <glyph glyph-name="uni0122" unicode="&#x122;" horiz-adv-x="798" 
d="M709 280v-165q-23 -30 -62 -60t-95.5 -49.5t-132.5 -19.5q-106 1 -187 46.5t-126.5 127t-45.5 190.5t45.5 191t126.5 127.5t187 45.5q55 0 99 -9t79.5 -24.5t64.5 -34.5l20 -141h-9q-15 58 -49.5 97.5t-86.5 60.5t-118 21q-84 0 -148 -42t-100 -117t-36 -175t36 -175
t100 -116.5t148 -42.5q44 0 84.5 10.5t76.5 30t64 46.5l1 177q0 45 -51 45h-16v10h196v-10h-15q-52 0 -50 -45zM389 -92q0 14 9.5 21t21.5 7q23 0 32.5 -21.5t9.5 -40.5q0 -34 -23 -57t-54 -25l-2 7q21 7 29.5 19t8.5 24q0 9 -3 17t-8 13q-6 8 -13.5 16.5t-7.5 19.5z" />
    <glyph glyph-name="uni0123" unicode="&#x123;" horiz-adv-x="742" 
d="M348 -81q5 12 17.5 15.5t25.5 -1.5t20 -22q10 -23 8 -44t-13 -38t-27.5 -26.5t-36.5 -10.5l-2 7q24 8 31.5 22t5 28.5t-9.5 22.5q-8 10 -17 21t-2 26zM378 614q46 0 86.5 -6.5t77 -20t69.5 -34.5l22 -141h-9q-14 59 -45.5 97t-81.5 56.5t-120 18.5q-76 0 -133.5 -34.5
t-89.5 -98t-32 -151.5q0 -87 32 -151t90 -98.5t134 -34.5q42 0 80 9t73.5 28.5t66.5 49.5l1 133q1 19 -11.5 29t-34.5 10h-14v10h183v-10h-14q-45 0 -45 -40v-120q-23 -29 -63 -59t-95.5 -50t-126.5 -20q-99 1 -172.5 39t-114.5 108t-41 167q0 98 41 168t115 108t172 38z
" />
    <glyph glyph-name="Hbar" unicode="&#x126;" horiz-adv-x="778" 
d="M725 528v-30h-669v30h669zM659 700v-700h-65v700h65zM185 700v-700h-65v700h65zM603 361v-30h-429v30h429zM122 73v-73h-79v10h6h7q26 0 44.5 18.5t19.5 44.5h2zM122 627h-2q-1 26 -19.5 44.5t-44.5 18.5h-7h-6v10h79v-73zM182 73h3q0 -26 19 -44.5t45 -18.5h6h6v-10h-79
v73zM182 627v73h79v-10h-6h-6q-26 0 -45 -18.5t-19 -44.5h-3zM597 73v-73h-80v10h6.5h6.5q26 0 44.5 18.5t19.5 44.5h3zM597 627h-3q-1 26 -19.5 44.5t-44.5 18.5h-6.5h-6.5v10h80v-73zM656 73h3q1 -26 19.5 -44.5t44.5 -18.5h6h7v-10h-80v73zM656 627v73h80v-10h-7h-6
q-26 0 -44.5 -18.5t-19.5 -44.5h-3z" />
    <glyph glyph-name="hbar" unicode="&#x127;" horiz-adv-x="748" 
d="M694 455v-30h-635v30h635zM622 600v-600h-64v600h64zM189 600v-600h-64v600h64zM568 311v-30h-390v30h390zM128 64v-64h-73v10h6h6q24 0 40.5 16t17.5 38h3zM186 64h3q0 -22 17 -38t41 -16h6h6v-10h-73v64zM186 536v64h73v-10h-6h-6q-24 0 -41 -15.5t-17 -38.5h-3z
M128 536h-3q-1 23 -17.5 38.5t-40.5 15.5h-6h-6v10h73v-64zM561 64v-64h-73v10h6h6q24 0 40.5 16t17.5 38h3zM619 64h3q1 -22 17.5 -38t40.5 -16h6h6v-10h-73v64zM619 536v64h73v-10h-6h-6q-24 0 -40.5 -15.5t-17.5 -38.5h-3zM561 536h-3q-1 23 -17.5 38.5t-40.5 15.5h-6h-6
v10h73v-64z" />
    <glyph glyph-name="Imacron" unicode="&#x12a;" horiz-adv-x="338" 
d="M202 700v-700h-65v700h65zM140 73v-73h-80v10h6.5h6.5q26 0 44.5 18.5t19.5 44.5h3zM140 627h-3q-1 26 -19.5 44.5t-44.5 18.5h-6.5h-6.5v10h80v-73zM199 73h3q1 -26 19.5 -44.5t44.5 -18.5h6h7v-10h-80v73zM199 627v73h80v-10h-7h-6q-26 0 -44.5 -18.5t-19.5 -44.5h-3z
M47 830h250v-35h-250v35z" />
    <glyph glyph-name="imacron" unicode="&#x12b;" horiz-adv-x="359" 
d="M209 600v-600h-64v600h64zM148 64v-64h-69v10h5.5h5.5q23 0 39 16t16 38h3zM207 64h2q1 -22 17 -38t39 -16h5h5l1 -10h-69v64zM207 536v64h69l-1 -10h-5h-5q-23 0 -39 -15.5t-17 -38.5h-2zM148 536h-3q0 23 -16 38.5t-39 15.5h-5.5h-5.5v10h69v-64zM55 730h250v-35h-250
v35z" />
    <glyph glyph-name="Iogonek" unicode="&#x12e;" horiz-adv-x="338" 
d="M202 700v-700h-65v700h65zM140 73v-73h-80v10h6.5h6.5q26 0 44.5 18.5t19.5 44.5h3zM140 627h-3q-1 26 -19.5 44.5t-44.5 18.5h-6.5h-6.5v10h80v-73zM199 73h3q1 -26 19.5 -44.5t44.5 -18.5h6h7v-10h-80v73zM199 627v73h80v-10h-7h-6q-26 0 -44.5 -18.5t-19.5 -44.5h-3z
M178 3l10 -3q-42 -10 -59 -29.5t-16 -48.5q1 -28 21 -47t48.5 -19.5t52.5 24.5l6 -6q-9 -25 -29 -39t-44.5 -17t-47.5 6t-38 30.5t-15 56.5q0 27 15 47.5t40.5 32.5t55.5 12z" />
    <glyph glyph-name="iogonek" unicode="&#x12f;" horiz-adv-x="308" 
d="M187 600v-600h-64v600h64zM126 64v-64h-69v10h5.5h5.5q23 0 39 16t16 38h3zM185 64h2q1 -22 17 -38t38 -16h6h5l1 -10h-69v64zM185 536v64h69l-1 -10h-5h-6q-22 0 -38 -15.5t-17 -38.5h-2zM126 536h-3q0 23 -16 38.5t-39 15.5h-5.5h-5.5v10h69v-64zM166 3l10 -3
q-42 -10 -59 -29.5t-16 -48.5q1 -28 21 -47t48.5 -19.5t52.5 24.5l6 -6q-9 -25 -29 -39t-44.5 -17t-47.5 6t-38 30.5t-15 56.5q0 27 15 47.5t40.5 32.5t55.5 12z" />
    <glyph glyph-name="Idotaccent" unicode="&#x130;" horiz-adv-x="338" 
d="M202 700v-700h-65v700h65zM140 73v-73h-80v10h6.5h6.5q26 0 44.5 18.5t19.5 44.5h3zM140 627h-3q-1 26 -19.5 44.5t-44.5 18.5h-6.5h-6.5v10h80v-73zM199 73h3q1 -26 19.5 -44.5t44.5 -18.5h6h7v-10h-80v73zM199 627v73h80v-10h-7h-6q-26 0 -44.5 -18.5t-19.5 -44.5h-3z
M168 765q-18 0 -30.5 12.5t-12.5 30.5q0 17 12.5 30t30.5 13t30.5 -13t12.5 -30q0 -18 -12.5 -30.5t-30.5 -12.5z" />
    <glyph glyph-name="dotlessi" unicode="&#x131;" horiz-adv-x="306" 
d="M185 600v-600h-64v600h64zM124 64v-64h-69v10h5.5h5.5q23 0 39 16t16 38h3zM183 64h2q1 -22 17 -38t39 -16h5h5l1 -10h-69v64zM183 536v64h69l-1 -10h-5h-5q-23 0 -39 -15.5t-17 -38.5h-2zM124 536h-3q0 23 -16 38.5t-39 15.5h-5.5h-5.5v10h69v-64z" />
    <glyph glyph-name="IJ" unicode="&#x132;" horiz-adv-x="662" 
d="M202 700v-700h-65v700h65zM140 73v-73h-80v10h6.5h6.5q26 0 44.5 18.5t19.5 44.5h3zM140 627h-3q-1 26 -19.5 44.5t-44.5 18.5h-6.5h-6.5v10h80v-73zM199 73h3q1 -26 19.5 -44.5t44.5 -18.5h6h7v-10h-80v73zM199 627v73h80v-10h-7h-6q-26 0 -44.5 -18.5t-19.5 -44.5h-3z
M540 700v-700q0 -42 -14 -78.5t-39 -63.5t-58 -42.5t-71 -15.5v9q33 12 59.5 41.5t42 69.5t15.5 83v697h65zM478 627h-3q-1 26 -19.5 44.5t-44.5 18.5h-6.5h-6.5v10h80v-73zM537 627v73h80v-10h-6.5h-6.5q-26 0 -44.5 -18.5t-19.5 -44.5h-3z" />
    <glyph glyph-name="ij" unicode="&#x133;" horiz-adv-x="645" 
d="M200 600v-600h-63v600h63zM140 64v-64h-85v10h7h7q28 0 47.5 16t20.5 38h3zM197 64h3q1 -22 20.5 -38t47.5 -16h6.5h6.5l1 -10h-85v64zM197 536v64h85l-1 -10h-6.5h-6.5q-28 0 -47.5 -15.5t-20.5 -38.5h-3zM140 536h-3q-1 23 -20.5 38.5t-47.5 15.5h-7.5h-6.5v10h85v-64z
M532 600v-600q0 -36 -14.5 -68.5t-40 -57t-58.5 -38.5t-70 -14v10q32 10 59 36t43.5 60.5t16.5 71.5v600h64zM472 600v-64h-3q-1 23 -20 38.5t-46 15.5h-12l-1 10h82zM610 600v-10h-13q-26 0 -45 -15.5t-20 -38.5h-3v64h81z" />
    <glyph glyph-name="uni0136" unicode="&#x136;" horiz-adv-x="657" 
d="M289 385l284 -334q21 -20 42.5 -30t52.5 -11v-10h-43q-10 0 -28.5 1.5t-40 7t-43 17t-38.5 31.5l-17.5 21l-45 54t-58 70.5t-58 70.5l-45 54l-17.5 21zM578 693l-299 -345h-45l275 345h69zM647 700v-9h-4q-33 0 -61.5 -13t-48.5 -36l-63 2q13 17 4.5 32t-28.5 15h-10v9
h207h4zM202 700v-700h-65v700h65zM140 73v-73h-80v10h6.5h6.5q26 0 44.5 18.5t19.5 44.5h3zM140 627h-3q-1 26 -19.5 44.5t-44.5 18.5h-6.5h-6.5v10h80v-73zM199 73h3q1 -26 19.5 -44.5t44.5 -18.5h6h7v-10h-80v73zM199 627v73h80v-10h-7h-6q-26 0 -44.5 -18.5t-19.5 -44.5
h-3zM356 -92q0 14 9.5 21t21.5 7q23 0 32.5 -21.5t9.5 -40.5q0 -34 -23 -57t-54 -25l-2 7q21 7 29.5 19t8.5 24q0 9 -3 17t-8 13q-6 8 -13.5 16.5t-7.5 19.5z" />
    <glyph glyph-name="uni0137" unicode="&#x137;" horiz-adv-x="624" 
d="M281 335l261 -284q17 -20 36 -30t51 -11v-10h-37q-12 0 -29.5 1.5t-38 7t-41 17t-38.5 31.5l-15.5 17.5t-40.5 45t-53.5 58t-53.5 58t-41 45l-16 17.5zM548 593l-276 -295h-47l251 295h72zM613 600v-10h-4q-31 0 -57.5 -10t-43.5 -30l-68 1q11 14 3.5 26.5t-25.5 12.5h-9
v10h200h4zM190 600v-600h-64v600h64zM128 64v-64h-73v10h6h6q24 0 41 16t18 38h2zM187 64h3q0 -22 17 -38t42 -16h5.5h5.5v-10h-73v64zM187 536v64h73v-10h-5.5h-6.5q-24 0 -41 -15.5t-17 -38.5h-3zM128 536h-2q-1 23 -18 38.5t-41 15.5h-6h-6v10h73v-64zM331 -92
q0 14 9.5 21t21.5 7q23 0 32.5 -21.5t9.5 -40.5q0 -34 -23 -57t-54 -25l-2 7q21 7 29.5 19t8.5 24q0 9 -3 17t-8 13q-6 8 -13.5 16.5t-7.5 19.5z" />
    <glyph glyph-name="Lacute" unicode="&#x139;" horiz-adv-x="562" 
d="M202 700v-700h-65v700h65zM472 31v-31h-273v31h273zM533 162l-58 -162h-166l36 31q53 0 86.5 16.5t54.5 46.5t37 68h10zM140 73v-73h-80v10h6.5h6.5q26 0 44.5 18.5t19.5 44.5h3zM140 627h-3q-1 26 -19.5 44.5t-44.5 18.5h-6.5h-6.5v10h80v-73zM199 627v73h80v-10h-7h-6
q-26 0 -44.5 -18.5t-19.5 -44.5h-3zM163 771q21 23 42 45.5t42.5 44t42.5 41.5q11 -12 22 -25t19 -28l-54 -30t-53.5 -28.5t-53.5 -26.5z" />
    <glyph glyph-name="lacute" unicode="&#x13a;" horiz-adv-x="536" 
d="M191 600v-600h-64v600h64zM460 31l-2 -31h-269v31h271zM516 143l-55 -143h-152l34 31q50 0 80.5 14.5t49.5 40t33 57.5h10zM129 64l13 -64h-87v10h7h7q25 0 41 16t17 38h2zM188 536v64h74v-10h-6h-6q-24 0 -41.5 -15.5t-17.5 -38.5h-3zM129 536h-2q-1 23 -18 38.5
t-42 15.5h-6h-6v10h74v-64zM151 671q21 23 42 45.5t42.5 44t42.5 41.5q11 -12 22 -25t19 -28l-54 -30t-53.5 -28.5t-53.5 -26.5z" />
    <glyph glyph-name="uni013B" unicode="&#x13b;" horiz-adv-x="562" 
d="M202 700v-700h-65v700h65zM472 31v-31h-273v31h273zM533 162l-58 -162h-166l36 31q53 0 86.5 16.5t54.5 46.5t37 68h10zM140 73v-73h-80v10h6.5h6.5q26 0 44.5 18.5t19.5 44.5h3zM140 627h-3q-1 26 -19.5 44.5t-44.5 18.5h-6.5h-6.5v10h80v-73zM199 627v73h80v-10h-7h-6
q-26 0 -44.5 -18.5t-19.5 -44.5h-3zM277 -92q0 14 9.5 21t21.5 7q23 0 32.5 -21.5t9.5 -40.5q0 -34 -23 -57t-54 -25l-2 7q21 7 29.5 19t8.5 24q0 9 -3 17t-8 13q-6 8 -13.5 16.5t-7.5 19.5z" />
    <glyph glyph-name="uni013C" unicode="&#x13c;" horiz-adv-x="536" 
d="M191 600v-600h-64v600h64zM460 31l-2 -31h-269v31h271zM516 143l-55 -143h-152l34 31q50 0 80.5 14.5t49.5 40t33 57.5h10zM129 64l13 -64h-87v10h7h7q25 0 41 16t17 38h2zM188 536v64h74v-10h-6h-6q-24 0 -41.5 -15.5t-17.5 -38.5h-3zM129 536h-2q-1 23 -18 38.5
t-42 15.5h-6h-6v10h74v-64zM298 -92q0 14 9.5 21t21.5 7q23 0 32.5 -21.5t9.5 -40.5q0 -34 -23 -57t-54 -25l-2 7q21 7 29.5 19t8.5 24q0 9 -3 17t-8 13q-6 8 -13.5 16.5t-7.5 19.5z" />
    <glyph glyph-name="Lcaron" unicode="&#x13d;" horiz-adv-x="562" 
d="M202 700v-700h-65v700h65zM472 31v-31h-273v31h273zM533 162l-58 -162h-166l36 31q53 0 86.5 16.5t54.5 46.5t37 68h10zM140 73v-73h-80v10h6.5h6.5q26 0 44.5 18.5t19.5 44.5h3zM140 627h-3q-1 26 -19.5 44.5t-44.5 18.5h-6.5h-6.5v10h80v-73zM199 627v73h80v-10h-7h-6
q-26 0 -44.5 -18.5t-19.5 -44.5h-3zM370 688q6 12 18.5 16t25.5 -1.5t19 -21.5q10 -23 8 -44.5t-13 -38t-27.5 -26.5t-36.5 -10l-2 6q24 8 31.5 22.5t5 29t-9.5 22.5q-8 9 -17 20t-2 26z" />
    <glyph glyph-name="lcaron" unicode="&#x13e;" horiz-adv-x="536" 
d="M191 600v-600h-64v600h64zM460 31l-2 -31h-269v31h271zM516 143l-55 -143h-152l34 31q50 0 80.5 14.5t49.5 40t33 57.5h10zM129 64l13 -64h-87v10h7h7q25 0 41 16t17 38h2zM188 536v64h74v-10h-6h-6q-24 0 -41.5 -15.5t-17.5 -38.5h-3zM129 536h-2q-1 23 -18 38.5
t-42 15.5h-6h-6v10h74v-64zM362 585q6 12 18.5 16t25.5 -1.5t19 -21.5q10 -23 8 -44.5t-13 -38t-27.5 -26.5t-36.5 -10l-2 6q24 8 31.5 22.5t5 29t-9.5 22.5q-8 9 -17 20t-2 26z" />
    <glyph glyph-name="Ldot" unicode="&#x13f;" horiz-adv-x="562" 
d="M202 700v-700h-65v700h65zM140 73v-73h-80v10h6.5h6.5q26 0 44.5 18.5t19.5 44.5h3zM472 31v-31h-273v31h273zM533 162l-58 -162h-166l36 31q53 0 86.5 16.5t54.5 46.5t37 68h10zM140 700v-73h-3q-1 26 -19.5 44.5t-44.5 18.5h-6.5h-6.5v10h80zM279 700v-10h-7h-6
q-26 0 -44.5 -18.5t-19.5 -44.5h-3v73h80zM334 403q-18 0 -31.5 13t-13.5 32t13.5 32t31.5 13q19 0 32 -13t13 -32t-13 -32t-32 -13z" />
    <glyph glyph-name="ldot" unicode="&#x140;" horiz-adv-x="536" 
d="M314 343q-18 0 -31.5 13t-13.5 32t13.5 32t31.5 13q19 0 32 -13t13 -32t-13 -32t-32 -13zM191 600v-600h-64v600h64zM460 31l-2 -31h-269v31h271zM516 143l-55 -143h-152l34 31q50 0 80.5 14.5t49.5 40t33 57.5h10zM129 64l13 -64h-87v10h7h7q25 0 41 16t17 38h2z
M188 536v64h74v-10h-6h-6q-24 0 -41.5 -15.5t-17.5 -38.5h-3zM129 536h-2q-1 23 -18 38.5t-42 15.5h-6h-6v10h74v-64z" />
    <glyph glyph-name="Lslash" unicode="&#x141;" horiz-adv-x="562" 
d="M202 700v-700h-65v700h65zM140 700v-73h-3q-1 26 -19.5 44.5t-44.5 18.5h-6.5h-6.5v10h80zM279 700v-10h-7h-6q-26 0 -44.5 -18.5t-19.5 -44.5h-3v73h80zM140 73v-73h-80v10h6.5h6.5q26 0 44.5 18.5t19.5 44.5h3zM472 31v-31h-273v31h273zM533 162l-58 -162h-166l36 31
q53 0 86.5 16.5t54.5 46.5t37 68h10zM18 274l308 178l15 -26l-308 -178z" />
    <glyph glyph-name="lslash" unicode="&#x142;" horiz-adv-x="536" 
d="M50 244l282 163l15 -24l-283 -164zM191 600v-600h-64v600h64zM460 31l-2 -31h-269v31h271zM516 143l-55 -143h-152l34 31q50 0 80.5 14.5t49.5 40t33 57.5h10zM129 64l13 -64h-87v10h7h7q25 0 41 16t17 38h2zM188 536v64h74v-10h-6h-6q-24 0 -41.5 -15.5t-17.5 -38.5h-3z
M129 536h-2q-1 23 -18 38.5t-42 15.5h-6h-6v10h74v-64z" />
    <glyph glyph-name="Nacute" unicode="&#x143;" horiz-adv-x="841" 
d="M126 715l581 -620l9 -109l-581 619zM128 71v-71h-83v10h9h10q25 0 43 18t18 43h3zM171 71q0 -25 18 -43t43 -18h10h9v-10h-83v71h3zM126 715l44 -56l1 -659h-46v590q0 51 -4.5 88l-4.5 37h10zM716 700v-586q0 -32 2 -61.5t4.5 -48l2.5 -18.5h-9l-45 53v661h45zM796 700
v-10h-9h-9q-25 0 -43 -17.5t-19 -43.5h-3v71h83zM590 700h83v-71h-2q-1 26 -18.5 43.5t-43.5 17.5h-9h-10v10zM419 771q21 23 42 45.5t42.5 44t42.5 41.5q11 -12 22 -25t19 -28l-54 -30t-53.5 -28.5t-53.5 -26.5z" />
    <glyph glyph-name="nacute" unicode="&#x144;" horiz-adv-x="779" 
d="M108 615l554 -522l10 -107l-554 525zM110 62v-62h-75v10h8.5h8.5q23 0 39 15t16 37h3zM152 62q0 -22 16.5 -37t38.5 -15h8.5h8.5v-10h-75v62h3zM108 615l43 -56l1 -559h-45v490q0 51 -4.5 88l-4.5 37h10zM672 600v-486q0 -32 2 -61.5t4.5 -48l2.5 -18.5h-9l-44 53v561h44
zM669 538v62h75v-10h-8.5h-8.5q-22 0 -38.5 -15t-16.5 -37h-3zM628 538q-1 22 -17 37t-39 15h-8.5h-8.5v10h75v-62h-2zM381 671q21 23 42 45.5t42.5 44t42.5 41.5q11 -12 22 -25t19 -28l-54 -30t-53.5 -28.5t-53.5 -26.5z" />
    <glyph glyph-name="uni0145" unicode="&#x145;" horiz-adv-x="841" 
d="M126 715l581 -620l9 -109l-581 619zM128 71v-71h-83v10h9h10q25 0 43 18t18 43h3zM171 71q0 -25 18 -43t43 -18h10h9v-10h-83v71h3zM126 715l44 -56l1 -659h-46v590q0 51 -4.5 88l-4.5 37h10zM716 700v-586q0 -32 2 -61.5t4.5 -48l2.5 -18.5h-9l-45 53v661h45zM796 700
v-10h-9h-9q-25 0 -43 -17.5t-19 -43.5h-3v71h83zM590 700h83v-71h-2q-1 26 -18.5 43.5t-43.5 17.5h-9h-10v10zM396 -92q0 14 9.5 21t21.5 7q23 0 32.5 -21.5t9.5 -40.5q0 -34 -23 -57t-54 -25l-2 7q21 7 29.5 19t8.5 24q0 9 -3 17t-8 13q-6 8 -13.5 16.5t-7.5 19.5z" />
    <glyph glyph-name="uni0146" unicode="&#x146;" horiz-adv-x="779" 
d="M108 615l554 -522l10 -107l-554 525zM110 62v-62h-75v10h8.5h8.5q23 0 39 15t16 37h3zM152 62q0 -22 16.5 -37t38.5 -15h8.5h8.5v-10h-75v62h3zM108 615l43 -56l1 -559h-45v490q0 51 -4.5 88l-4.5 37h10zM672 600v-486q0 -32 2 -61.5t4.5 -48l2.5 -18.5h-9l-44 53v561h44
zM669 538v62h75v-10h-8.5h-8.5q-22 0 -38.5 -15t-16.5 -37h-3zM628 538q-1 22 -17 37t-39 15h-8.5h-8.5v10h75v-62h-2zM368 -92q0 14 9.5 21t21.5 7q23 0 32.5 -21.5t9.5 -40.5q0 -34 -23 -57t-54 -25l-2 7q21 7 29.5 19t8.5 24q0 9 -3 17t-8 13q-6 8 -13.5 16.5t-7.5 19.5z
" />
    <glyph glyph-name="Ncaron" unicode="&#x147;" horiz-adv-x="841" 
d="M126 715l581 -620l9 -109l-581 619zM128 71v-71h-83v10h9h10q25 0 43 18t18 43h3zM171 71q0 -25 18 -43t43 -18h10h9v-10h-83v71h3zM126 715l44 -56l1 -659h-46v590q0 51 -4.5 88l-4.5 37h10zM716 700v-586q0 -32 2 -61.5t4.5 -48l2.5 -18.5h-9l-45 53v661h45zM796 700
v-10h-9h-9q-25 0 -43 -17.5t-19 -43.5h-3v71h83zM590 700h83v-71h-2q-1 26 -18.5 43.5t-43.5 17.5h-9h-10v10zM537 883l-6 8l-105 -66l-113 66l-6 -8l114 -119h10z" />
    <glyph glyph-name="ncaron" unicode="&#x148;" horiz-adv-x="779" 
d="M108 615l554 -522l10 -107l-554 525zM110 62v-62h-75v10h8.5h8.5q23 0 39 15t16 37h3zM152 62q0 -22 16.5 -37t38.5 -15h8.5h8.5v-10h-75v62h3zM108 615l43 -56l1 -559h-45v490q0 51 -4.5 88l-4.5 37h10zM672 600v-486q0 -32 2 -61.5t4.5 -48l2.5 -18.5h-9l-44 53v561h44
zM669 538v62h75v-10h-8.5h-8.5q-22 0 -38.5 -15t-16.5 -37h-3zM628 538q-1 22 -17 37t-39 15h-8.5h-8.5v10h75v-62h-2zM499 783l-6 8l-105 -66l-113 66l-6 -8l114 -119h10z" />
    <glyph glyph-name="Eng" unicode="&#x14a;" horiz-adv-x="819" 
d="M115 715l44 -56l1 -659h-46v590q0 51 -4.5 88l-4.5 37h10zM117 65v-65h-72v13h8h8q22 0 37.5 15t15.5 37h3zM160 65q0 -22 15.5 -37t37.5 -15h8h8v-13h-72v65h3zM703 -13l-579 618l-9 110l581 -619zM705 -32q0 -40 -10.5 -70t-28.5 -50t-41 -32t-48 -17l-5 8
q16 7 31.5 20t28.5 32.5t20.5 47t7.5 63.5v730h45v-732zM590 700h72v-65h-3q0 22 -15.5 37t-37.5 15h-8h-8v13zM774 700v-13h-8h-8q-22 0 -37.5 -15t-15.5 -37h-3v65h72z" />
    <glyph glyph-name="eng" unicode="&#x14b;" horiz-adv-x="779" 
d="M110 62v-62h-75v10h8.5h8.5q23 0 39 15t16 37h3zM152 62q0 -22 16.5 -37t38.5 -15h8.5h8.5v-10h-75v62h3zM108 615l43 -56l1 -559h-45v490q0 51 -4.5 88l-4.5 37h10zM108 615l554 -522l10 -107l-554 525zM675 -17q0 -48 -16.5 -81t-43 -51.5t-58.5 -25.5l-5 8
q16 7 30 20.5t25 32.5t17 44t6 55v615h45v-617zM630 538q-1 22 -16.5 37t-37.5 15h-7.5h-8.5v10h72v-62h-2zM672 538v62h72v-10h-8h-8q-22 0 -37.5 -15t-15.5 -37h-3z" />
    <glyph glyph-name="Omacron" unicode="&#x14c;" horiz-adv-x="838" 
d="M429 714q107 0 188 -45.5t126.5 -127.5t45.5 -191t-45.5 -191t-126.5 -127.5t-188 -45.5q-106 0 -187 45.5t-126.5 127.5t-45.5 191t45.5 191t126.5 127.5t187 45.5zM429 16q85 0 148.5 42t99 117t35.5 175t-35.5 175t-99 117t-148.5 42q-84 0 -147.5 -42t-99 -117
t-35.5 -175t35.5 -175t99 -117t147.5 -42zM307 830h250v-35h-250v35z" />
    <glyph glyph-name="omacron" unicode="&#x14d;" horiz-adv-x="774" 
d="M387 614q70 0 131.5 -22.5t108 -64.5t72.5 -99.5t26 -127.5t-26 -127.5t-72.5 -99.5t-108 -64.5t-131.5 -22.5t-131 22.5t-107.5 64.5t-72.5 99.5t-26 127.5t26 127.5t72.5 99.5t107.5 64.5t131 22.5zM387 16q74 0 134 36t95 100t35 148q0 85 -35 148.5t-95 99.5t-134 36
q-73 0 -133 -36t-95 -99.5t-35 -148.5q0 -84 35 -148t95 -100t133 -36zM265 730h250v-35h-250v35z" />
    <glyph glyph-name="Ohungarumlaut" unicode="&#x150;" horiz-adv-x="838" 
d="M429 714q107 0 188 -45.5t126.5 -127.5t45.5 -191t-45.5 -191t-126.5 -127.5t-188 -45.5q-106 0 -187 45.5t-126.5 127.5t-45.5 191t45.5 191t126.5 127.5t187 45.5zM429 16q85 0 148.5 42t99 117t35.5 175t-35.5 175t-99 117t-148.5 42q-84 0 -147.5 -42t-99 -117
t-35.5 -175t35.5 -175t99 -117t147.5 -42zM361 770q10 22 20.5 44t22.5 43.5t24 43.5q15 -1 30.5 -4t30.5 -9q-18 -20 -37 -40t-39 -40t-41 -40zM483 770q9 22 19.5 44t22.5 43.5t25 43.5q15 0 31 -4t30 -9q-18 -20 -37 -40t-38.5 -40t-41.5 -40z" />
    <glyph glyph-name="ohungarumlaut" unicode="&#x151;" horiz-adv-x="774" 
d="M387 614q70 0 131.5 -22.5t108 -64.5t72.5 -99.5t26 -127.5t-26 -127.5t-72.5 -99.5t-108 -64.5t-131.5 -22.5t-131 22.5t-107.5 64.5t-72.5 99.5t-26 127.5t26 127.5t72.5 99.5t107.5 64.5t131 22.5zM387 16q74 0 134 36t95 100t35 148q0 85 -35 148.5t-95 99.5t-134 36
q-73 0 -133 -36t-95 -99.5t-35 -148.5q0 -84 35 -148t95 -100t133 -36zM320 670q10 22 20.5 44t22.5 43.5t24 43.5q15 -1 30.5 -4t30.5 -9q-18 -20 -37 -40t-39 -40t-41 -40zM442 670q9 22 19.5 44t22.5 43.5t25 43.5q15 0 31 -4t30 -9q-18 -20 -37 -40t-38.5 -40t-41.5 -40
z" />
    <glyph glyph-name="OE" unicode="&#x152;" horiz-adv-x="972" 
d="M424 714q23 0 55 -2.5t58 -6.5q15 -2 30 -3.5t38 -1.5l1 -700h-21.5t-32.5 -2q-10 0 -33.5 -3t-49.5 -6t-45 -3q-106 0 -185.5 45.5t-124 127.5t-44.5 191t44.5 191t124 127.5t185.5 45.5zM424 16q27 0 55 5t47.5 16t19.5 27v572q0 19 -19.5 29t-47.5 14.5t-55 4.5
q-84 0 -147.5 -42t-99 -117t-35.5 -175t35.5 -175t99 -117t147.5 -42zM607 700v-700l-61 5v695h61zM881 31v-31h-275l-7 31h282zM839 360v-30h-235v30h235zM881 700v-31h-278v31h278zM942 162l-58 -162h-165l36 31q53 0 86.5 16.5t54.5 46.5t36 68h10zM839 332v-66h-10v15
q0 20 -14.5 34.5t-34.5 14.5v2h59zM839 424v-66h-59v2q20 1 34.5 15.5t14.5 34.5v14h10zM881 672v-80h-12v18q0 24 -17 41.5t-41 18.5v2h70zM881 718v-29l-122 11q22 0 46.5 3t45.5 7t30 8z" />
    <glyph glyph-name="oe" unicode="&#x153;" horiz-adv-x="881" 
d="M364 614q15 0 44 -2t57 -7q15 -2 30 -3.5t38 -1.5l1 -600h-21.5t-32.5 -2q-10 0 -30.5 -3t-43.5 -6t-42 -3q-94 0 -164.5 38t-110 108t-39.5 168q0 97 39.5 167.5t110 108.5t164.5 38zM364 15q27 0 52 5.5t41.5 17t16.5 27.5v471q0 19 -16.5 29.5t-41.5 15t-52 4.5
q-72 0 -126.5 -34.5t-85.5 -98.5t-31 -152t31 -152t85.5 -98.5t126.5 -34.5zM535 600v-600l-61 5v595h61zM797 31v-31h-263l-7 31h270zM755 314v-30h-223v30h223zM797 600v-31h-266v31h266zM851 143l-51 -143h-142l31 31q46 0 74.5 14.5t46.5 40t31 57.5h10zM755 286v-57
h-10v13q0 17 -10 29.5t-31 12.5v2h51zM755 369v-57h-51v2q21 1 31 13t10 30v12h10zM797 572v-69h-10v15q0 21 -13 36t-36 15v3h59zM797 616v-26l-105 10q29 0 61 5.5t44 10.5z" />
    <glyph glyph-name="Racute" unicode="&#x154;" horiz-adv-x="677" 
d="M189 700h141q45 0 81.5 -13t61.5 -37.5t38.5 -59t13.5 -78.5q0 -48 -22.5 -92t-61 -71.5t-86.5 -27.5q17 -7 37 -28.5t35 -41.5l13.5 -19.5t34 -47.5t41.5 -55t36 -43q20 -22 40 -39t43.5 -27t52.5 -10v-10h-55q-46 0 -79.5 14t-56.5 34.5t-39 39.5q-3 4 -16.5 23
t-32 45.5t-36.5 52.5t-31 44.5t-15 21.5q-19 25 -42 46t-50 21v10l15.5 -0.5t37.5 0.5q26 1 57 8t58 29t41 67q3 11 5 27.5t1 32.5q-1 68 -34.5 108.5t-89.5 43.5q-28 2 -57.5 1.5t-49.5 -0.5h-20q0 1 -2.5 8.5l-5 15zM202 700v-700h-65v700h65zM140 73v-73h-80v10h6.5h6.5
q26 0 44.5 18.5t19.5 44.5h3zM140 627h-3q-1 26 -19.5 44.5t-44.5 18.5h-6.5h-6.5v10h80v-73zM199 73h3q0 -26 19 -44.5t45 -18.5h6h6v-10h-79v73zM317 771q21 23 42 45.5t42.5 44t42.5 41.5q11 -12 22 -25t19 -28l-54 -30t-53.5 -28.5t-53.5 -26.5z" />
    <glyph glyph-name="racute" unicode="&#x155;" horiz-adv-x="627" 
d="M177 600h129q47 0 84.5 -11t64 -32t40.5 -51t14 -68q0 -42 -20 -78t-55.5 -59t-80.5 -28q17 -7 39.5 -31t38.5 -47l13 -17.5t33.5 -43t40.5 -48.5q21 -23 38.5 -40t38 -26.5t47.5 -9.5v-10h-31q-55 0 -90.5 14t-57.5 34.5t-38 39.5q-4 5 -18.5 25.5t-31.5 44.5t-31 43.5
t-17 23.5q-20 26 -46 46.5t-55 20.5v10l16 -0.5t41 0.5q28 1 56 4.5t52.5 21.5t38.5 60q4 11 6 26t1 31q-1 28 -10.5 50t-27 38t-41.5 25t-54 10q-47 2 -82 1t-35 0t-2.5 8.5l-5 15zM189 600v-600h-64v600h64zM128 64l12 -64h-85v10h7h7q24 0 40 16t17 38h2zM128 537h-2
q-1 23 -17 38t-40 15h-7h-7v10h85zM186 64h3q1 -22 17 -38t40 -16h6.5h6.5l1 -10h-86zM296 671q21 23 42 45.5t42.5 44t42.5 41.5q11 -12 22 -25t19 -28l-54 -30t-53.5 -28.5t-53.5 -26.5z" />
    <glyph glyph-name="uni0156" unicode="&#x156;" horiz-adv-x="677" 
d="M189 700h141q45 0 81.5 -13t61.5 -37.5t38.5 -59t13.5 -78.5q0 -48 -22.5 -92t-61 -71.5t-86.5 -27.5q17 -7 37 -28.5t35 -41.5l13.5 -19.5t34 -47.5t41.5 -55t36 -43q20 -22 40 -39t43.5 -27t52.5 -10v-10h-55q-46 0 -79.5 14t-56.5 34.5t-39 39.5q-3 4 -16.5 23
t-32 45.5t-36.5 52.5t-31 44.5t-15 21.5q-19 25 -42 46t-50 21v10l15.5 -0.5t37.5 0.5q26 1 57 8t58 29t41 67q3 11 5 27.5t1 32.5q-1 68 -34.5 108.5t-89.5 43.5q-28 2 -57.5 1.5t-49.5 -0.5h-20q0 1 -2.5 8.5l-5 15zM202 700v-700h-65v700h65zM140 73v-73h-80v10h6.5h6.5
q26 0 44.5 18.5t19.5 44.5h3zM140 627h-3q-1 26 -19.5 44.5t-44.5 18.5h-6.5h-6.5v10h80v-73zM199 73h3q0 -26 19 -44.5t45 -18.5h6h6v-10h-79v73zM348 -92q0 14 9.5 21t21.5 7q23 0 32.5 -21.5t9.5 -40.5q0 -34 -23 -57t-54 -25l-2 7q21 7 29.5 19t8.5 24q0 9 -3 17t-8 13
q-6 8 -13.5 16.5t-7.5 19.5z" />
    <glyph glyph-name="uni0157" unicode="&#x157;" horiz-adv-x="627" 
d="M177 600h129q47 0 84.5 -11t64 -32t40.5 -51t14 -68q0 -42 -20 -78t-55.5 -59t-80.5 -28q17 -7 39.5 -31t38.5 -47l13 -17.5t33.5 -43t40.5 -48.5q21 -23 38.5 -40t38 -26.5t47.5 -9.5v-10h-31q-55 0 -90.5 14t-57.5 34.5t-38 39.5q-4 5 -18.5 25.5t-31.5 44.5t-31 43.5
t-17 23.5q-20 26 -46 46.5t-55 20.5v10l16 -0.5t41 0.5q28 1 56 4.5t52.5 21.5t38.5 60q4 11 6 26t1 31q-1 28 -10.5 50t-27 38t-41.5 25t-54 10q-47 2 -82 1t-35 0t-2.5 8.5l-5 15zM189 600v-600h-64v600h64zM128 64l12 -64h-85v10h7h7q24 0 40 16t17 38h2zM128 537h-2
q-1 23 -17 38t-40 15h-7h-7v10h85zM186 64h3q1 -22 17 -38t40 -16h6.5h6.5l1 -10h-86zM337 -92q0 14 9.5 21t21.5 7q23 0 32.5 -21.5t9.5 -40.5q0 -34 -23 -57t-54 -25l-2 7q21 7 29.5 19t8.5 24q0 9 -3 17t-8 13q-6 8 -13.5 16.5t-7.5 19.5z" />
    <glyph glyph-name="Rcaron" unicode="&#x158;" horiz-adv-x="677" 
d="M189 700h141q45 0 81.5 -13t61.5 -37.5t38.5 -59t13.5 -78.5q0 -48 -22.5 -92t-61 -71.5t-86.5 -27.5q17 -7 37 -28.5t35 -41.5l13.5 -19.5t34 -47.5t41.5 -55t36 -43q20 -22 40 -39t43.5 -27t52.5 -10v-10h-55q-46 0 -79.5 14t-56.5 34.5t-39 39.5q-3 4 -16.5 23
t-32 45.5t-36.5 52.5t-31 44.5t-15 21.5q-19 25 -42 46t-50 21v10l15.5 -0.5t37.5 0.5q26 1 57 8t58 29t41 67q3 11 5 27.5t1 32.5q-1 68 -34.5 108.5t-89.5 43.5q-28 2 -57.5 1.5t-49.5 -0.5h-20q0 1 -2.5 8.5l-5 15zM202 700v-700h-65v700h65zM140 73v-73h-80v10h6.5h6.5
q26 0 44.5 18.5t19.5 44.5h3zM140 627h-3q-1 26 -19.5 44.5t-44.5 18.5h-6.5h-6.5v10h80v-73zM199 73h3q0 -26 19 -44.5t45 -18.5h6h6v-10h-79v73zM435 883l-6 8l-105 -66l-113 66l-6 -8l114 -119h10z" />
    <glyph glyph-name="rcaron" unicode="&#x159;" horiz-adv-x="627" 
d="M177 600h129q47 0 84.5 -11t64 -32t40.5 -51t14 -68q0 -42 -20 -78t-55.5 -59t-80.5 -28q17 -7 39.5 -31t38.5 -47l13 -17.5t33.5 -43t40.5 -48.5q21 -23 38.5 -40t38 -26.5t47.5 -9.5v-10h-31q-55 0 -90.5 14t-57.5 34.5t-38 39.5q-4 5 -18.5 25.5t-31.5 44.5t-31 43.5
t-17 23.5q-20 26 -46 46.5t-55 20.5v10l16 -0.5t41 0.5q28 1 56 4.5t52.5 21.5t38.5 60q4 11 6 26t1 31q-1 28 -10.5 50t-27 38t-41.5 25t-54 10q-47 2 -82 1t-35 0t-2.5 8.5l-5 15zM189 600v-600h-64v600h64zM128 64l12 -64h-85v10h7h7q24 0 40 16t17 38h2zM128 537h-2
q-1 23 -17 38t-40 15h-7h-7v10h85zM186 64h3q1 -22 17 -38t40 -16h6.5h6.5l1 -10h-86zM413 783l-6 8l-105 -66l-113 66l-6 -8l114 -119h10z" />
    <glyph glyph-name="Sacute" unicode="&#x15a;" horiz-adv-x="475" 
d="M251 714q16 0 34.5 -2t36 -5.5t32 -7t22.5 -7.5v-111h-9q0 48 -33 75.5t-80 27.5q-55 0 -89 -34.5t-34 -80.5q0 -19 8.5 -44.5t31.5 -47.5l197 -182q30 -28 40 -60t10 -62q0 -83 -50.5 -135t-136.5 -52q-24 0 -56.5 5t-63 17.5t-50.5 32.5q-3 16 -3 40t4 50.5t11 48.5h9
q-5 -51 13 -89t52.5 -57.5t78.5 -17.5q55 3 94.5 38.5t39.5 95.5q0 29 -10 52.5t-29 40.5l-192 178q-30 28 -42 61.5t-12 62.5q0 42 20 81t59.5 63.5t96.5 24.5zM376 704v-21h-76v21h76zM233 771q21 23 42 45.5t42.5 44t42.5 41.5q11 -12 22 -25t19 -28l-54 -30t-53.5 -28.5
t-53.5 -26.5z" />
    <glyph glyph-name="sacute" unicode="&#x15b;" horiz-adv-x="462" 
d="M234 614q28 0 49 -2t36.5 -4.5t27 -6t20.5 -6.5l1 -99h-12q0 41 -28 64.5t-87 23.5q-50 0 -85.5 -27.5t-34.5 -67.5q0 -13 3.5 -26.5t12 -26.5t23.5 -26l202 -156q23 -19 34 -48.5t12 -58.5q1 -44 -23 -81t-64.5 -58.5t-89.5 -21.5q-29 0 -62.5 5t-62.5 15.5t-48 26.5
q-3 14 -3 35.5t3.5 45.5t9.5 43h12q-4 -45 13 -77t50 -48.5t77 -15.5q62 2 97.5 31.5t35.5 78.5q0 24 -8.5 43.5t-27.5 36.5l-200 154q-28 24 -38 53t-10 55q0 41 22 74t59.5 52.5t83.5 19.5zM366 605l1 -18h-71v18h70zM226 671q21 23 42 45.5t42.5 44t42.5 41.5
q11 -12 22 -25t19 -28l-54 -30t-53.5 -28.5t-53.5 -26.5z" />
    <glyph glyph-name="Scedilla" unicode="&#x15e;" horiz-adv-x="475" 
d="M251 714q16 0 34.5 -2t36 -5.5t32 -7t22.5 -7.5v-111h-9q0 48 -33 75.5t-80 27.5q-55 0 -89 -34.5t-34 -80.5q0 -19 8.5 -44.5t31.5 -47.5l197 -182q30 -28 40 -60t10 -62q0 -83 -50.5 -135t-136.5 -52q-24 0 -56.5 5t-63 17.5t-50.5 32.5q-3 16 -3 40t4 50.5t11 48.5h9
q-5 -51 13 -89t52.5 -57.5t78.5 -17.5q55 3 94.5 38.5t39.5 95.5q0 29 -10 52.5t-29 40.5l-192 178q-30 28 -42 61.5t-12 62.5q0 42 20 81t59.5 63.5t96.5 24.5zM376 704v-21h-76v21h76zM226 -11h27l-41 -49q13 5 30.5 6t34 -4.5t28 -19.5t12.5 -40q1 -31 -20.5 -51t-54 -26
t-66.5 4l1 10q21 0 42 6t35 20t13 38q-1 21 -14.5 30.5t-32.5 10t-37 -7.5l-2.5 5l-2.5 5z" />
    <glyph glyph-name="scedilla" unicode="&#x15f;" horiz-adv-x="462" 
d="M213 -13h28l-42 -48q13 5 30.5 6t34.5 -4.5t28 -19.5t12 -40q1 -31 -20.5 -51t-54 -26t-66.5 4l1 10q21 0 42 6t35 20t13 38q0 21 -13.5 30.5t-33 10t-37.5 -7.5l-2.5 5l-2.5 5zM234 614q28 0 49 -2t36.5 -4.5t27 -6t20.5 -6.5l1 -99h-11q0 41 -28.5 64.5t-87.5 23.5
q-50 0 -85 -27.5t-35 -67.5q0 -13 3.5 -26.5t12 -26.5t23.5 -26l203 -156q23 -19 34 -48.5t11 -58.5q1 -44 -23 -81t-64 -58.5t-90 -21.5q-29 0 -62.5 5t-62.5 15.5t-47 26.5q-3 14 -3.5 35.5t3 45.5t9.5 43h12q-4 -45 13 -77t50 -48.5t77 -15.5q62 2 97.5 31.5t35.5 78.5
q0 24 -8 43.5t-28 36.5l-200 154q-28 24 -37.5 53t-10.5 55q0 41 22 74t59.5 52.5t83.5 19.5zM367 605v-18h-70v18h70z" />
    <glyph glyph-name="Scaron" unicode="&#x160;" horiz-adv-x="475" 
d="M251 714q16 0 34.5 -2t36 -5.5t32 -7t22.5 -7.5v-111h-9q0 48 -33 75.5t-80 27.5q-55 0 -89 -34.5t-34 -80.5q0 -19 8.5 -44.5t31.5 -47.5l197 -182q30 -28 40 -60t10 -62q0 -83 -50.5 -135t-136.5 -52q-24 0 -56.5 5t-63 17.5t-50.5 32.5q-3 16 -3 40t4 50.5t11 48.5h9
q-5 -51 13 -89t52.5 -57.5t78.5 -17.5q55 3 94.5 38.5t39.5 95.5q0 29 -10 52.5t-29 40.5l-192 178q-30 28 -42 61.5t-12 62.5q0 42 20 81t59.5 63.5t96.5 24.5zM376 704v-21h-76v21h76zM350 883l-6 8l-105 -66l-113 66l-6 -8l114 -119h10z" />
    <glyph glyph-name="scaron" unicode="&#x161;" horiz-adv-x="462" 
d="M234 614q28 0 49 -2t36.5 -4.5t27 -6t20.5 -6.5l1 -99h-12q0 41 -28 64.5t-87 23.5q-50 0 -85.5 -27.5t-34.5 -67.5q0 -13 3.5 -26.5t12 -26.5t23.5 -26l202 -156q23 -19 34 -48.5t12 -58.5q1 -44 -23 -81t-64.5 -58.5t-89.5 -21.5q-29 0 -62.5 5t-62.5 15.5t-48 26.5
q-3 14 -3 35.5t3.5 45.5t9.5 43h12q-4 -45 13 -77t50 -48.5t77 -15.5q62 2 97.5 31.5t35.5 78.5q0 24 -8.5 43.5t-27.5 36.5l-200 154q-28 24 -38 53t-10 55q0 41 22 74t59.5 52.5t83.5 19.5zM366 605l1 -18h-71v18h70zM343 783l-6 8l-105 -66l-113 66l-6 -8l114 -119h10z
" />
    <glyph glyph-name="uni0162" unicode="&#x162;" horiz-adv-x="618" 
d="M342 697v-697h-65v697h65zM599 701v-30h-579v30h579zM599 674v-81l-10 1v17q0 25 -17.5 42t-41.5 18v3h69zM599 719v-29l-122 11q22 0 46.5 3t45.5 7t30 8zM280 73v-73h-80v10h6.5h6.5q26 0 44.5 18.5t19.5 44.5h3zM339 73h3q1 -26 19.5 -44.5t44.5 -18.5h6.5h6.5v-10
h-80v73zM89 674v-3q-25 -1 -42 -18t-17 -42v-17l-10 -1v81h69zM20 719q10 -4 30.5 -8t45.5 -7t46 -3l-122 -11v29zM299 1h27l-41 -49q13 5 30.5 6t34 -4.5t28 -19.5t12.5 -40q1 -31 -20.5 -51t-54 -26t-66.5 4l1 10q21 0 42 6t35 20t13 38q-1 21 -14.5 30.5t-32.5 10
t-37 -7.5l-2.5 5l-2.5 5z" />
    <glyph glyph-name="uni0163" unicode="&#x163;" horiz-adv-x="578" 
d="M322 597v-597h-65v597h65zM564 601v-30h-549v30h549zM564 573v-69h-11v16q0 21 -13.5 35.5t-36.5 15.5v2h61zM564 617v-26l-112 10q20 0 42.5 2.5t41.5 6.5t28 7zM259 64v-64h-73v10h6.5h5.5q24 0 41 16t18 38h2zM319 64h3q1 -22 18 -38t41 -16h5.5h5.5v-10h-73v64z
M76 573v-2q-23 -1 -36.5 -15.5t-13.5 -35.5v-16h-11v69h61zM15 617q9 -3 27.5 -7t41.5 -6.5t43 -2.5l-112 -10v26zM277 1h27l-41 -49q13 5 30.5 6t34 -4.5t28 -19.5t12.5 -40q1 -31 -20.5 -51t-54 -26t-66.5 4l1 10q21 0 42 6t35 20t13 38q-1 21 -14.5 30.5t-32.5 10
t-37 -7.5l-2.5 5l-2.5 5z" />
    <glyph glyph-name="Tcaron" unicode="&#x164;" horiz-adv-x="618" 
d="M342 697v-697h-65v697h65zM599 701v-30h-579v30h579zM599 674v-81l-10 1v17q0 25 -17.5 42t-41.5 18v3h69zM599 719v-29l-122 11q22 0 46.5 3t45.5 7t30 8zM280 73v-73h-80v10h6.5h6.5q26 0 44.5 18.5t19.5 44.5h3zM339 73h3q1 -26 19.5 -44.5t44.5 -18.5h6.5h6.5v-10
h-80v73zM89 674v-3q-25 -1 -42 -18t-17 -42v-17l-10 -1v81h69zM20 719q10 -4 30.5 -8t45.5 -7t46 -3l-122 -11v29zM420 883l-6 8l-105 -66l-113 66l-6 -8l114 -119h10z" />
    <glyph glyph-name="tcaron" unicode="&#x165;" horiz-adv-x="578" 
d="M401 784l-6 8l-105 -66l-114 66l-6 -8l115 -119h10zM322 597v-597h-65v597h65zM564 601v-30h-549v30h549zM564 573v-69h-11v16q0 21 -13.5 35.5t-36.5 15.5v2h61zM564 617v-26l-112 10q20 0 42.5 2.5t41.5 6.5t28 7zM259 64v-64h-73v10h6.5h5.5q24 0 41 16t18 38h2z
M319 64h3q1 -22 18 -38t41 -16h5.5h5.5v-10h-73v64zM76 573v-2q-23 -1 -36.5 -15.5t-13.5 -35.5v-16h-11v69h61zM15 617q9 -3 27.5 -7t41.5 -6.5t43 -2.5l-112 -10v26z" />
    <glyph glyph-name="Tbar" unicode="&#x166;" horiz-adv-x="618" 
d="M342 697v-697h-65v697h65zM599 701v-30h-579v30h579zM599 674v-81l-10 1v17q0 25 -17.5 42t-41.5 18v3h69zM599 719v-29l-122 11q22 0 46.5 3t45.5 7t30 8zM280 73v-73h-80v10h6.5h6.5q26 0 44.5 18.5t19.5 44.5h3zM339 73h3q1 -26 19.5 -44.5t44.5 -18.5h6.5h6.5v-10
h-80v73zM89 674v-3q-25 -1 -42 -18t-17 -42v-17l-10 -1v81h69zM20 719q10 -4 30.5 -8t45.5 -7t46 -3l-122 -11v29zM504 401v-30h-388v30h388z" />
    <glyph glyph-name="tbar" unicode="&#x167;" horiz-adv-x="578" 
d="M322 597v-597h-65v597h65zM564 601v-30h-549v30h549zM564 573v-69h-11v16q0 21 -13.5 35.5t-36.5 15.5v2h61zM564 617v-26l-112 10q20 0 42.5 2.5t41.5 6.5t28 7zM259 64v-64h-73v10h6.5h5.5q24 0 41 16t18 38h2zM319 64h3q1 -22 18 -38t41 -16h5.5h5.5v-10h-73v64z
M76 573v-2q-23 -1 -36.5 -15.5t-13.5 -35.5v-16h-11v69h61zM15 617q9 -3 27.5 -7t41.5 -6.5t43 -2.5l-112 -10v26zM470 338v-30h-358v30h358z" />
    <glyph glyph-name="Umacron" unicode="&#x16a;" horiz-adv-x="785" 
d="M184 700v-440q0 -72 26.5 -127t74.5 -85.5t111 -30.5q67 0 117 29t78 80.5t28 120.5v453h47v-453q0 -78 -33.5 -136.5t-94.5 -91.5t-142 -33q-83 0 -145.5 32.5t-97 91t-34.5 136.5v454h65zM122 700v-60h-3q0 22 -15.5 36t-37.5 14h-8h-8v10h72zM253 700v-10h-8h-8
q-22 0 -37.5 -14t-15.5 -36h-2v60h71zM622 700v-60h-3q0 22 -15.5 36t-37.5 14h-8h-8v10h72zM735 700v-10h-8h-8q-22 0 -37.5 -14t-15.5 -36h-2v60h71zM279 830h250v-35h-250v35z" />
    <glyph glyph-name="umacron" unicode="&#x16b;" horiz-adv-x="700" 
d="M167 600v-378q0 -97 49.5 -153t135.5 -56q95 0 149.5 53t54.5 145v389h46v-389q0 -104 -66.5 -164.5t-182.5 -60.5q-115 0 -182.5 60t-67.5 164v390h64zM105 600v-53h-2q-1 18 -14.5 30.5t-33.5 12.5h-7.5h-7.5v10h65zM230 600v-10h-7.5h-7.5q-19 0 -33.5 -12.5
t-14.5 -30.5h-2v53h65zM558 600v-53h-2q0 18 -14 30.5t-34 12.5h-7.5h-7.5v10h65zM665 600v-10h-7.5h-7.5q-19 0 -33 -12.5t-15 -30.5h-2v53h65zM228 730h250v-35h-250v35z" />
    <glyph glyph-name="Uring" unicode="&#x16e;" horiz-adv-x="785" 
d="M184 700v-440q0 -72 26.5 -127t74.5 -85.5t111 -30.5q67 0 117 29t78 80.5t28 120.5v453h47v-453q0 -78 -33.5 -136.5t-94.5 -91.5t-142 -33q-83 0 -145.5 32.5t-97 91t-34.5 136.5v454h65zM122 700v-60h-3q0 22 -15.5 36t-37.5 14h-8h-8v10h72zM253 700v-10h-8h-8
q-22 0 -37.5 -14t-15.5 -36h-2v60h71zM622 700v-60h-3q0 22 -15.5 36t-37.5 14h-8h-8v10h72zM735 700v-10h-8h-8q-22 0 -37.5 -14t-15.5 -36h-2v60h71zM402 914q41 0 67.5 -20t26.5 -55q0 -33 -26.5 -54t-67.5 -21q-40 0 -66.5 21t-26.5 54t26.5 54t66.5 21zM402 897
q-20 0 -34.5 -15t-14.5 -43t14.5 -43t34.5 -15q21 0 35 15t14 43t-14 43t-35 15z" />
    <glyph glyph-name="uring" unicode="&#x16f;" horiz-adv-x="700" 
d="M167 600v-378q0 -97 49.5 -153t135.5 -56q95 0 149.5 53t54.5 145v389h46v-389q0 -104 -66.5 -164.5t-182.5 -60.5q-115 0 -182.5 60t-67.5 164v390h64zM105 600v-53h-2q-1 18 -14.5 30.5t-33.5 12.5h-7.5h-7.5v10h65zM230 600v-10h-7.5h-7.5q-19 0 -33.5 -12.5
t-14.5 -30.5h-2v53h65zM558 600v-53h-2q0 18 -14 30.5t-34 12.5h-7.5h-7.5v10h65zM665 600v-10h-7.5h-7.5q-19 0 -33 -12.5t-15 -30.5h-2v53h65zM350 814q41 0 67.5 -20t26.5 -55q0 -33 -26.5 -54t-67.5 -21q-40 0 -66.5 21t-26.5 54t26.5 54t66.5 21zM350 797
q-20 0 -34.5 -15t-14.5 -43t14.5 -43t34.5 -15q21 0 35 15t14 43t-14 43t-35 15z" />
    <glyph glyph-name="Uhungarumlaut" unicode="&#x170;" horiz-adv-x="785" 
d="M184 700v-440q0 -72 26.5 -127t74.5 -85.5t111 -30.5q67 0 117 29t78 80.5t28 120.5v453h47v-453q0 -78 -33.5 -136.5t-94.5 -91.5t-142 -33q-83 0 -145.5 32.5t-97 91t-34.5 136.5v454h65zM122 700v-60h-3q0 22 -15.5 36t-37.5 14h-8h-8v10h72zM253 700v-10h-8h-8
q-22 0 -37.5 -14t-15.5 -36h-2v60h71zM622 700v-60h-3q0 22 -15.5 36t-37.5 14h-8h-8v10h72zM735 700v-10h-8h-8q-22 0 -37.5 -14t-15.5 -36h-2v60h71zM334 770q10 22 20.5 44t22.5 43.5t24 43.5q15 -1 30.5 -4t30.5 -9q-18 -20 -37 -40t-39 -40t-41 -40zM456 770
q9 22 19.5 44t22.5 43.5t25 43.5q15 0 31 -4t30 -9q-18 -20 -37 -40t-38.5 -40t-41.5 -40z" />
    <glyph glyph-name="uhungarumlaut" unicode="&#x171;" horiz-adv-x="700" 
d="M167 600v-378q0 -97 49.5 -153t135.5 -56q95 0 149.5 53t54.5 145v389h46v-389q0 -104 -66.5 -164.5t-182.5 -60.5q-115 0 -182.5 60t-67.5 164v390h64zM105 600v-53h-2q-1 18 -14.5 30.5t-33.5 12.5h-7.5h-7.5v10h65zM230 600v-10h-7.5h-7.5q-19 0 -33.5 -12.5
t-14.5 -30.5h-2v53h65zM558 600v-53h-2q0 18 -14 30.5t-34 12.5h-7.5h-7.5v10h65zM665 600v-10h-7.5h-7.5q-19 0 -33 -12.5t-15 -30.5h-2v53h65zM283 670q10 22 20.5 44t22.5 43.5t24 43.5q15 -1 30.5 -4t30.5 -9q-18 -20 -37 -40t-39 -40t-41 -40zM405 670q9 22 19.5 44
t22.5 43.5t25 43.5q15 0 31 -4t30 -9q-18 -20 -37 -40t-38.5 -40t-41.5 -40z" />
    <glyph glyph-name="Uogonek" unicode="&#x172;" horiz-adv-x="785" 
d="M184 700v-440q0 -72 26.5 -127t74.5 -85.5t111 -30.5q67 0 117 29t78 80.5t28 120.5v453h47v-453q0 -78 -33.5 -136.5t-94.5 -91.5t-142 -33q-83 0 -145.5 32.5t-97 91t-34.5 136.5v454h65zM122 700v-60h-3q0 22 -15.5 36t-37.5 14h-8h-8v10h72zM253 700v-10h-8h-8
q-22 0 -37.5 -14t-15.5 -36h-2v60h71zM622 700v-60h-3q0 22 -15.5 36t-37.5 14h-8h-8v10h72zM735 700v-10h-8h-8q-22 0 -37.5 -14t-15.5 -36h-2v60h71zM437 -7l10 -3q-42 -10 -59 -29.5t-16 -48.5q1 -28 21 -47t48.5 -19.5t52.5 24.5l6 -6q-9 -25 -29 -39t-44.5 -17t-47.5 6
t-38 30.5t-15 56.5q0 27 15 47.5t40.5 32.5t55.5 12z" />
    <glyph glyph-name="uogonek" unicode="&#x173;" horiz-adv-x="700" 
d="M167 600v-378q0 -97 49.5 -153t135.5 -56q95 0 149.5 53t54.5 145v389h46v-389q0 -104 -66.5 -164.5t-182.5 -60.5q-115 0 -182.5 60t-67.5 164v390h64zM105 600v-53h-2q-1 18 -14.5 30.5t-33.5 12.5h-7.5h-7.5v10h65zM230 600v-10h-7.5h-7.5q-19 0 -33.5 -12.5
t-14.5 -30.5h-2v53h65zM558 600v-53h-2q0 18 -14 30.5t-34 12.5h-7.5h-7.5v10h65zM665 600v-10h-7.5h-7.5q-19 0 -33 -12.5t-15 -30.5h-2v53h65zM378 -11l10 -3q-42 -10 -59 -29.5t-16 -48.5q1 -28 21 -47t48.5 -19.5t52.5 24.5l6 -6q-9 -25 -29 -39t-44.5 -17t-47.5 6
t-38 30.5t-15 56.5q0 27 15 47.5t40.5 32.5t55.5 12z" />
    <glyph glyph-name="Wcircumflex" unicode="&#x174;" horiz-adv-x="982" 
d="M63 694h81l186 -597l-17 -109zM511 716l8 -81l-176 -536l-5 -17.5t-10 -43t-6 -50.5h-9l-18 89l207 639h9zM511 715l210 -589l-22 -138l-222 619zM917 694l-187 -595l-5 -18t-10.5 -43.5t-6.5 -49.5h-9l-12 99l174 607h56zM842 628q8 30 -5 46t-33 16h-9v10h197v-10h-4
h-4q-23 0 -50 -14.5t-38 -47.5h-54zM165 628h-79q-12 33 -38.5 47.5t-49.5 14.5h-4h-4v10h222v-10h-9q-19 0 -33.5 -16t-4.5 -46zM396 771l6 -8l104 66l114 -66l6 8l-114 119h-10z" />
    <glyph glyph-name="wcircumflex" unicode="&#x175;" horiz-adv-x="899" 
d="M57 594h80l162 -493l-9 -113zM468 616l8 -81l-155 -436l-5 -17.5t-10.5 -43t-6.5 -50.5h-9l-19 89l187 539h10zM468 615l192 -489l-23 -138l-203 519zM836 594l-166 -495l-5.5 -18t-11 -43.5t-6.5 -49.5h-10l-12 99l154 507h57zM759 530q11 32 -1.5 46t-28.5 14h-8v10
h183v-10h-3.5h-3.5q-31 0 -52 -17t-30 -43h-56zM158 531l-76 -1q-10 26 -30 43t-52 17h-4h-4v10h206v-10h-8q-16 0 -29 -13.5t-3 -45.5zM352 673l6 -8l104 66l114 -66l6 8l-114 119h-10z" />
    <glyph glyph-name="Ycircumflex" unicode="&#x176;" horiz-adv-x="661" 
d="M150 699l196 -365l-43 -35l-239 400h86zM360 322v-322h-65v322h65zM538 699h61l-246 -398l-36 11zM497 628q9 14 5 28.5t-15 24t-25 9.5h-6h-6v10h222v-10h-14q-31 0 -58 -18t-43 -41zM188 628l-84 3q-14 23 -41 41t-59 18h-14v10h246v-10h-6.5h-6.5q-22 0 -33.5 -20.5
t-1.5 -41.5zM297 73v-73h-79v10h6h7q26 0 44.5 18.5t19.5 44.5h2zM357 73h3q0 -26 19 -44.5t45 -18.5h6h6v-10h-79v73zM229 771l6 -8l104 66l114 -66l6 8l-114 119h-10z" />
    <glyph glyph-name="ycircumflex" unicode="&#x177;" horiz-adv-x="640" 
d="M149 599l185 -329l-41 -35l-231 364h87zM349 258v-258h-65v258h65zM517 599h63l-238 -362l-37 11zM479 536q11 20 1 37t-32 17h-6h-6v10h209v-10h-12q-28 0 -52.5 -15.5t-38.5 -35.5zM184 537l-85 3q-16 23 -39.5 36.5t-52.5 13.5h-12v10h232v-10h-6h-6
q-22 0 -31.5 -17.5t0.5 -35.5zM287 64v-64h-73v10h6.5h5.5q24 0 40.5 16t17.5 38h3zM346 64h3q1 -22 17.5 -38t40.5 -16h6h6v-10h-73v64zM222 671l6 -8l104 66l114 -66l6 8l-114 119h-10z" />
    <glyph glyph-name="Ydieresis" unicode="&#x178;" horiz-adv-x="661" 
d="M150 699l196 -365l-43 -35l-239 400h86zM360 322v-322h-65v322h65zM538 699h61l-246 -398l-36 11zM497 628q9 14 5 28.5t-15 24t-25 9.5h-6h-6v10h222v-10h-14q-31 0 -58 -18t-43 -41zM188 628l-84 3q-14 23 -41 41t-59 18h-14v10h246v-10h-6.5h-6.5q-22 0 -33.5 -20.5
t-1.5 -41.5zM297 73v-73h-79v10h6h7q26 0 44.5 18.5t19.5 44.5h2zM357 73h3q0 -26 19 -44.5t45 -18.5h6h6v-10h-79v73zM246 764q-16 0 -27.5 11.5t-11.5 27.5q0 17 11.5 28t27.5 11q17 0 28 -11t11 -28q0 -16 -11 -27.5t-28 -11.5zM435 764q-16 0 -27.5 11.5t-11.5 27.5
q0 17 11.5 28t27.5 11t27.5 -11t11.5 -28q0 -16 -11.5 -27.5t-27.5 -11.5z" />
    <glyph glyph-name="Zacute" unicode="&#x179;" horiz-adv-x="651" 
d="M580 714v-4.5v-4.5l-446 -705h-74v9l420 662h-406v30h400q20 0 42.5 2t40 5t23.5 6zM587 30l-6 -30h-457v30h463zM617 154l-33 -154h-132l7 25l11 5q56 0 89.5 36t47.5 88h10zM143 671q-25 -1 -42 -18t-17 -42v-18h-10v81h69v-3zM74 719q10 -4 30.5 -8t45.5 -7t46 -3
l-122 -11v29zM317 771q21 23 42 45.5t42.5 44t42.5 41.5q11 -12 22 -25t19 -28l-54 -30t-53.5 -28.5t-53.5 -26.5z" />
    <glyph glyph-name="zacute" unicode="&#x17a;" horiz-adv-x="608" 
d="M520 614v-4.5v-4.5l-400 -605h-70v9l373 562h-358v30h342q21 0 45 2t43 5t25 6zM529 30l-7 -30h-407v30h414zM583 143l-54 -143h-150l34 30q49 1 78.5 15t48.5 39.5t33 58.5h10zM65 573h61v-2q-22 -1 -36 -15.5t-14 -36.5v-15h-11v69zM65 617q9 -3 28 -6.5t41.5 -6
t42.5 -3.5l-112 -10v26zM293 671q21 23 42 45.5t42.5 44t42.5 41.5q11 -12 22 -25t19 -28l-54 -30t-53.5 -28.5t-53.5 -26.5z" />
    <glyph glyph-name="Zdotaccent" unicode="&#x17b;" horiz-adv-x="651" 
d="M580 714v-4.5v-4.5l-446 -705h-74v9l420 662h-406v30h400q20 0 42.5 2t40 5t23.5 6zM587 30l-6 -30h-457v30h463zM617 154l-33 -154h-132l7 25l11 5q56 0 89.5 36t47.5 88h10zM143 671q-25 -1 -42 -18t-17 -42v-18h-10v81h69v-3zM74 719q10 -4 30.5 -8t45.5 -7t46 -3
l-122 -11v29zM323 765q-18 0 -30.5 12.5t-12.5 30.5q0 17 12.5 30t30.5 13t30.5 -13t12.5 -30q0 -18 -12.5 -30.5t-30.5 -12.5z" />
    <glyph glyph-name="zdotaccent" unicode="&#x17c;" horiz-adv-x="608" 
d="M520 614v-4.5v-4.5l-400 -605h-70v9l373 562h-358v30h342q21 0 45 2t43 5t25 6zM529 30l-7 -30h-407v30h414zM583 143l-54 -143h-150l34 30q49 1 78.5 15t48.5 39.5t33 58.5h10zM65 573h61v-2q-22 -1 -36 -15.5t-14 -36.5v-15h-11v69zM65 617q9 -3 28 -6.5t41.5 -6
t42.5 -3.5l-112 -10v26zM299 665q-18 0 -30.5 12.5t-12.5 30.5q0 17 12.5 30t30.5 13t30.5 -13t12.5 -30q0 -18 -12.5 -30.5t-30.5 -12.5z" />
    <glyph glyph-name="Zcaron" unicode="&#x17d;" horiz-adv-x="651" 
d="M580 714v-4.5v-4.5l-446 -705h-74v9l420 662h-406v30h400q20 0 42.5 2t40 5t23.5 6zM587 30l-6 -30h-457v30h463zM617 154l-33 -154h-132l7 25l11 5q56 0 89.5 36t47.5 88h10zM143 671q-25 -1 -42 -18t-17 -42v-18h-10v81h69v-3zM74 719q10 -4 30.5 -8t45.5 -7t46 -3
l-122 -11v29zM435 883l-6 8l-105 -66l-113 66l-6 -8l114 -119h10z" />
    <glyph glyph-name="zcaron" unicode="&#x17e;" horiz-adv-x="608" 
d="M520 614v-4.5v-4.5l-400 -605h-70v9l373 562h-358v30h342q21 0 45 2t43 5t25 6zM529 30l-7 -30h-407v30h414zM583 143l-54 -143h-150l34 30q49 1 78.5 15t48.5 39.5t33 58.5h10zM65 573h61v-2q-22 -1 -36 -15.5t-14 -36.5v-15h-11v69zM65 617q9 -3 28 -6.5t41.5 -6
t42.5 -3.5l-112 -10v26zM411 783l-6 8l-105 -66l-113 66l-6 -8l114 -119h10z" />
    <glyph glyph-name="florin" unicode="&#x192;" horiz-adv-x="493" 
d="M390 315v-30h-207v30h207zM433 600v-31h-250v31h250zM390 287v-57h-10v13q0 17 -10 29.5t-30 12.5v2h50zM390 370v-57h-50v2q20 0 30 12.5t10 29.5v13h10zM433 572v-69h-10v15q0 21 -13 36t-36 15v3h59zM433 616v-26l-105 10q28 0 60.5 5.5t44.5 10.5zM124 537h-3
q0 23 -15 38t-38 15h-6.5h-6.5v10h80zM185 600v-600q0 -36 -13 -68.5t-36.5 -57t-53 -38.5t-62.5 -14v10q29 10 51.5 36t36 60.5t13.5 71.5v600h64z" />
    <glyph glyph-name="uni0218" unicode="&#x218;" horiz-adv-x="473" 
d="M238 714q20 0 38.5 -1t35.5 -3.5t32.5 -7t29.5 -10.5v-96h-9q0 14 -13 34.5t-34 34.5q-15 11 -35 15t-39 4q-33 0 -59 -16t-41 -42t-15 -56q0 -22 9 -47t31 -47l196 -182q27 -27 39 -57.5t12 -62.5q0 -84 -50 -135.5t-132 -52.5q-48 0 -97 13.5t-77 41.5q-2 18 -2 37
t2.5 40t8.5 42h9q0 -43 19.5 -75.5t54.5 -50.5t82 -18q56 3 90 39.5t34 93.5q0 27 -9 51t-29 44l-191 178q-30 30 -42.5 61.5t-12.5 62.5q0 45 22 83.5t59.5 61.5t82.5 23zM374 704v-21h-76v21h76zM205 -92q0 14 9.5 21t21.5 7q23 0 32.5 -21.5t9.5 -40.5q0 -34 -23 -57
t-54 -25l-2 7q21 7 29.5 19t8.5 24q0 9 -3 17t-8 13q-6 8 -13.5 16.5t-7.5 19.5z" />
    <glyph glyph-name="uni0219" unicode="&#x219;" horiz-adv-x="462" 
d="M234 614q28 0 49 -2t36.5 -4.5t27 -6t20.5 -6.5l1 -99h-12q0 41 -28 64.5t-87 23.5q-50 0 -85.5 -27.5t-34.5 -67.5q0 -13 3.5 -26.5t12 -26.5t23.5 -26l202 -156q23 -19 34 -48.5t12 -58.5q1 -44 -23 -81t-64.5 -58.5t-89.5 -21.5q-29 0 -62.5 5t-62.5 15.5t-48 26.5
q-3 14 -3 35.5t3.5 45.5t9.5 43h12q-4 -45 13 -77t50 -48.5t77 -15.5q62 2 97.5 31.5t35.5 78.5q0 24 -8.5 43.5t-27.5 36.5l-200 154q-28 24 -38 53t-10 55q0 41 22 74t59.5 52.5t83.5 19.5zM366 605l1 -18h-71v18h70zM199 -92q0 14 9.5 21t21.5 7q23 0 32.5 -21.5
t9.5 -40.5q0 -34 -23 -57t-54 -25l-2 7q21 7 29.5 19t8.5 24q0 9 -3 17t-8 13q-6 8 -13.5 16.5t-7.5 19.5z" />
    <glyph glyph-name="uni021A" unicode="&#x21a;" horiz-adv-x="618" 
d="M342 697v-697h-65v697h65zM599 701v-30h-579v30h579zM599 674v-81l-10 1v17q0 25 -17.5 42t-41.5 18v3h69zM599 719v-29l-122 11q22 0 46.5 3t45.5 7t30 8zM280 73v-73h-80v10h6.5h6.5q26 0 44.5 18.5t19.5 44.5h3zM339 73h3q1 -26 19.5 -44.5t44.5 -18.5h6.5h6.5v-10
h-80v73zM89 674v-3q-25 -1 -42 -18t-17 -42v-17l-10 -1v81h69zM20 719q10 -4 30.5 -8t45.5 -7t46 -3l-122 -11v29zM279 -92q0 14 9.5 21t21.5 7q23 0 32.5 -21.5t9.5 -40.5q0 -34 -23 -57t-54 -25l-2 7q21 7 29.5 19t8.5 24q0 9 -3 17t-8 13q-6 8 -13.5 16.5t-7.5 19.5z" />
    <glyph glyph-name="uni021B" unicode="&#x21b;" horiz-adv-x="578" 
d="M322 597v-597h-65v597h65zM564 601v-30h-549v30h549zM564 573v-69h-11v16q0 21 -13.5 35.5t-36.5 15.5v2h61zM564 617v-26l-112 10q20 0 42.5 2.5t41.5 6.5t28 7zM259 64v-64h-73v10h6.5h5.5q24 0 41 16t18 38h2zM319 64h3q1 -22 18 -38t41 -16h5.5h5.5v-10h-73v64z
M76 573v-2q-23 -1 -36.5 -15.5t-13.5 -35.5v-16h-11v69h61zM15 617q9 -3 27.5 -7t41.5 -6.5t43 -2.5l-112 -10v26zM257 -92q0 14 9.5 21t21.5 7q23 0 32.5 -21.5t9.5 -40.5q0 -34 -23 -57t-54 -25l-2 7q21 7 29.5 19t8.5 24q0 9 -3 17t-8 13q-6 8 -13.5 16.5t-7.5 19.5z" />
    <glyph glyph-name="circumflex" unicode="&#x2c6;" horiz-adv-x="600" 
d="M166 737l6 -8l104 66l114 -66l6 8l-114 119h-10z" />
    <glyph glyph-name="caron" unicode="&#x2c7;" horiz-adv-x="600" 
d="M396 848l-6 8l-105 -66l-113 66l-6 -8l114 -119h10z" />
    <glyph glyph-name="breve" unicode="&#x2d8;" horiz-adv-x="440" 
d="M323 854q0 -28 -14 -52t-37.5 -38t-51.5 -14t-51.5 14t-37.5 38t-14 52h10q8 -20 33.5 -37t59.5 -17q35 0 60.5 17t32.5 37h10z" />
    <glyph glyph-name="dotaccent" unicode="&#x2d9;" horiz-adv-x="600" 
d="M301 701q-18 0 -30.5 12.5t-12.5 30.5q0 17 12.5 30t30.5 13t30.5 -13t12.5 -30q0 -18 -12.5 -30.5t-30.5 -12.5z" />
    <glyph glyph-name="ring" unicode="&#x2da;" horiz-adv-x="600" 
d="M301 849q41 0 67.5 -20t26.5 -55q0 -33 -26.5 -54t-67.5 -21q-40 0 -66.5 21t-26.5 54t26.5 54t66.5 21zM301 832q-20 0 -34.5 -15t-14.5 -43t14.5 -43t34.5 -15q21 0 35 15t14 43t-14 43t-35 15z" />
    <glyph glyph-name="ogonek" unicode="&#x2db;" horiz-adv-x="600" 
d="M368 16l10 -3q-42 -10 -59 -29.5t-16 -48.5q1 -28 21 -47t48.5 -19.5t52.5 24.5l6 -6q-9 -25 -29 -39t-44.5 -17t-47.5 6t-38 30.5t-15 56.5q0 27 15 47.5t40.5 32.5t55.5 12z" />
    <glyph glyph-name="tilde" unicode="&#x2dc;" horiz-adv-x="600" 
d="M162 703h10q6 14 13.5 23t18 13.5t22.5 4.5q17 0 36.5 -11t41.5 -22t43 -11q13 0 24 5.5t19.5 15.5t14 25t7.5 33h-10q-4 -11 -12 -19t-18.5 -11.5t-24.5 -3.5q-17 0 -36 11t-40.5 21.5t-44.5 10.5q-12 0 -22.5 -6t-18.5 -17t-14 -26.5t-9 -35.5z" />
    <glyph glyph-name="hungarumlaut" unicode="&#x2dd;" horiz-adv-x="600" 
d="M201 753q10 22 20.5 44t22.5 43.5t24 43.5q15 -1 30.5 -4t30.5 -9q-18 -20 -37 -40t-39 -40t-41 -40zM323 753q9 22 19.5 44t22.5 43.5t25 43.5q15 0 31 -4t30 -9q-18 -20 -37 -40t-38.5 -40t-41.5 -40z" />
    <glyph glyph-name="gravecomb" unicode="&#x300;" horiz-adv-x="0" 
d="M240 753l-7 -7q-27 13 -54 26.5t-53.5 28.5t-53.5 30q8 16 18.5 29t22.5 24q21 -20 42 -41.5t42.5 -43.5t42.5 -46z" />
    <glyph glyph-name="acutecomb" unicode="&#x301;" horiz-adv-x="0" 
d="M201 753q21 23 42 45.5t42.5 44t42.5 41.5q11 -12 22 -25t19 -28l-54 -30t-53.5 -28.5t-53.5 -26.5z" />
    <glyph glyph-name="uni0302" unicode="&#x302;" horiz-adv-x="0" 
d="M166 737l6 -8l104 66l114 -66l6 8l-114 119h-10z" />
    <glyph glyph-name="tildecomb" unicode="&#x303;" horiz-adv-x="0" 
d="M162 703h10q6 14 13.5 23t18 13.5t22.5 4.5q17 0 36.5 -11t41.5 -22t43 -11q13 0 24 5.5t19.5 15.5t14 25t7.5 33h-10q-4 -11 -12 -19t-18.5 -11.5t-24.5 -3.5q-17 0 -36 11t-40.5 21.5t-44.5 10.5q-12 0 -22.5 -6t-18.5 -17t-14 -26.5t-9 -35.5z" />
    <glyph glyph-name="uni0304" unicode="&#x304;" horiz-adv-x="0" 
d="M170 738h250v-35h-250v35z" />
    <glyph glyph-name="uni0306" unicode="&#x306;" horiz-adv-x="0" 
d="M323 854q0 -28 -14 -52t-37.5 -38t-51.5 -14t-51.5 14t-37.5 38t-14 52h10q8 -20 33.5 -37t59.5 -17q35 0 60.5 17t32.5 37h10z" />
    <glyph glyph-name="uni0307" unicode="&#x307;" horiz-adv-x="0" 
d="M301 701q-18 0 -30.5 12.5t-12.5 30.5q0 17 12.5 30t30.5 13t30.5 -13t12.5 -30q0 -18 -12.5 -30.5t-30.5 -12.5z" />
    <glyph glyph-name="uni0308" unicode="&#x308;" horiz-adv-x="0" 
d="M186 700q-16 0 -27.5 11.5t-11.5 27.5q0 17 11.5 28t27.5 11q17 0 28 -11t11 -28q0 -16 -11 -27.5t-28 -11.5zM375 700q-16 0 -27.5 11.5t-11.5 27.5q0 17 11.5 28t27.5 11t27.5 -11t11.5 -28q0 -16 -11.5 -27.5t-27.5 -11.5z" />
    <glyph glyph-name="uni030A" unicode="&#x30a;" horiz-adv-x="0" 
d="M301 849q41 0 67.5 -20t26.5 -55q0 -33 -26.5 -54t-67.5 -21q-40 0 -66.5 21t-26.5 54t26.5 54t66.5 21zM301 832q-20 0 -34.5 -15t-14.5 -43t14.5 -43t34.5 -15q21 0 35 15t14 43t-14 43t-35 15z" />
    <glyph glyph-name="uni030B" unicode="&#x30b;" horiz-adv-x="0" 
d="M201 753q10 22 20.5 44t22.5 43.5t24 43.5q15 -1 30.5 -4t30.5 -9q-18 -20 -37 -40t-39 -40t-41 -40zM323 753q9 22 19.5 44t22.5 43.5t25 43.5q15 0 31 -4t30 -9q-18 -20 -37 -40t-38.5 -40t-41.5 -40z" />
    <glyph glyph-name="uni030C" unicode="&#x30c;" horiz-adv-x="0" 
d="M396 848l-6 8l-105 -66l-113 66l-6 -8l114 -119h10z" />
    <glyph glyph-name="uni0326" unicode="&#x326;" horiz-adv-x="0" 
d="M36 -92q0 14 9.5 21t21.5 7q23 0 32.5 -21.5t9.5 -40.5q0 -34 -23 -57t-54 -25l-2 7q21 7 29.5 19t8.5 24q0 9 -3 17t-8 13q-6 8 -13.5 16.5t-7.5 19.5z" />
    <glyph glyph-name="uni0327" unicode="&#x327;" horiz-adv-x="0" 
d="M296 1h27l-41 -49q13 5 30.5 6t34 -4.5t28 -19.5t12.5 -40q1 -31 -20.5 -51t-54 -26t-66.5 4l1 10q21 0 42 6t35 20t13 38q-1 21 -14.5 30.5t-32.5 10t-37 -7.5l-2.5 5l-2.5 5z" />
    <glyph glyph-name="uni0328" unicode="&#x328;" horiz-adv-x="0" 
d="M368 16l10 -3q-42 -10 -59 -29.5t-16 -48.5q1 -28 21 -47t48.5 -19.5t52.5 24.5l6 -6q-9 -25 -29 -39t-44.5 -17t-47.5 6t-38 30.5t-15 56.5q0 27 15 47.5t40.5 32.5t55.5 12z" />
    <glyph glyph-name="uni0394" unicode="&#x394;" horiz-adv-x="652" 
d="M331 714l316 -704v-10h-642v10l316 704h10zM307 612l-258 -582h509z" />
    <glyph glyph-name="uni03A9" unicode="&#x3a9;" horiz-adv-x="808" 
d="M693 0h-228v65q35 20 72 51t68.5 72t51.5 91t21 107q2 63 -18 117t-57.5 94.5t-87.5 63.5t-109 23q-58 0 -108 -23t-88 -63.5t-59 -94.5t-21 -117q0 -76 31 -138t79 -108t98 -75v-65h-227v55h197q-72 24 -120 64.5t-75.5 88.5t-39.5 94.5t-13 83.5q-2 69 23.5 128.5
t73 104.5t111.5 70t139 25q72 0 134 -25t108.5 -70t72.5 -104.5t26 -128.5q0 -37 -16.5 -85t-48.5 -97t-79 -89t-108 -60h197v-55zM63 140q18 -32 33.5 -50.5t35 -26.5t48.5 -8h11v-55h-90l-48 140h10zM753 140l-48 -140h-90v55h11q30 0 49 8t35 26.5t33 50.5h10z" />
    <glyph glyph-name="uni03BC" unicode="&#x3bc;" horiz-adv-x="878" 
d="M698 614l9 -65l-234 -461l-7.5 -17t-15.5 -40.5t-12 -44.5h-10l-14 63zM112 67v-67h-104v10h7.5h7.5q26 0 45.5 15t22.5 42h21zM142 52q-1 -15 7 -28.5t30 -14.5h14v-9h-57v52h6zM169 614h10l20 -59l-62 -555h-55zM179 614l272 -523l-23 -105l-268 518zM707 614l90 -614
h-76l-65 503l42 111h9zM767 67h20q4 -27 24 -42t45 -15h7.5h7.5v-10h-104v67zM714 52h7v-52h-58v9h15q23 1 30.5 15t5.5 28z" />
    <glyph glyph-name="pi" unicode="&#x3c0;" horiz-adv-x="703" 
d="M185 600v-600h-64v600h64zM124 64v-64h-69v10h5.5h5.5q23 0 39 16t16 38h3zM183 64h2q1 -22 17 -38t39 -16h5h5l1 -10h-69v64zM124 536h-3q0 23 -16 38.5t-39 15.5h-5.5h-5.5v10h69v-64zM583 600v-600h-64v600h64zM521 64v-64h-69l1 10h5h5q23 0 39 16t17 38h2zM580 64h3
q0 -22 16.5 -38t38.5 -16h5.5h5.5v-10h-69v64zM580 536v64h69v-10h-5.5h-5.5q-22 0 -38.5 -15.5t-16.5 -38.5h-3zM542 570h-21v-54h-2q-1 22 -16.5 38t-37.5 16h-226q-22 0 -37.5 -16t-16.5 -38h-2v54h-24v30h383v-30z" />
    <glyph glyph-name="Wgrave" unicode="&#x1e80;" horiz-adv-x="982" 
d="M63 694h81l186 -597l-17 -109zM511 716l8 -81l-176 -536l-5 -17.5t-10 -43t-6 -50.5h-9l-18 89l207 639h9zM511 715l210 -589l-22 -138l-222 619zM917 694l-187 -595l-5 -18t-10.5 -43.5t-6.5 -49.5h-9l-12 99l174 607h56zM842 628q8 30 -5 46t-33 16h-9v10h197v-10h-4
h-4q-23 0 -50 -14.5t-38 -47.5h-54zM165 628h-79q-12 33 -38.5 47.5t-49.5 14.5h-4h-4v10h222v-10h-9q-19 0 -33.5 -16t-4.5 -46zM514 771l-7 -7q-27 13 -54 26.5t-53.5 28.5t-53.5 30q8 16 18.5 29t22.5 24q21 -20 42 -41.5t42.5 -43.5t42.5 -46z" />
    <glyph glyph-name="wgrave" unicode="&#x1e81;" horiz-adv-x="899" 
d="M57 594h80l162 -493l-9 -113zM468 616l8 -81l-155 -436l-5 -17.5t-10.5 -43t-6.5 -50.5h-9l-19 89l187 539h10zM468 615l192 -489l-23 -138l-203 519zM836 594l-166 -495l-5.5 -18t-11 -43.5t-6.5 -49.5h-10l-12 99l154 507h57zM759 530q11 32 -1.5 46t-28.5 14h-8v10
h183v-10h-3.5h-3.5q-31 0 -52 -17t-30 -43h-56zM158 531l-76 -1q-10 26 -30 43t-52 17h-4h-4v10h206v-10h-8q-16 0 -29 -13.5t-3 -45.5zM471 673l-7 -7q-27 13 -54 26.5t-53.5 28.5t-53.5 30q8 16 18.5 29t22.5 24q21 -20 42 -41.5t42.5 -43.5t42.5 -46z" />
    <glyph glyph-name="Wacute" unicode="&#x1e82;" horiz-adv-x="982" 
d="M63 694h81l186 -597l-17 -109zM511 716l8 -81l-176 -536l-5 -17.5t-10 -43t-6 -50.5h-9l-18 89l207 639h9zM511 715l210 -589l-22 -138l-222 619zM917 694l-187 -595l-5 -18t-10.5 -43.5t-6.5 -49.5h-9l-12 99l174 607h56zM842 628q8 30 -5 46t-33 16h-9v10h197v-10h-4
h-4q-23 0 -50 -14.5t-38 -47.5h-54zM165 628h-79q-12 33 -38.5 47.5t-49.5 14.5h-4h-4v10h222v-10h-9q-19 0 -33.5 -16t-4.5 -46zM500 771q21 23 42 45.5t42.5 44t42.5 41.5q11 -12 22 -25t19 -28l-54 -30t-53.5 -28.5t-53.5 -26.5z" />
    <glyph glyph-name="wacute" unicode="&#x1e83;" horiz-adv-x="899" 
d="M57 594h80l162 -493l-9 -113zM468 616l8 -81l-155 -436l-5 -17.5t-10.5 -43t-6.5 -50.5h-9l-19 89l187 539h10zM468 615l192 -489l-23 -138l-203 519zM836 594l-166 -495l-5.5 -18t-11 -43.5t-6.5 -49.5h-10l-12 99l154 507h57zM759 530q11 32 -1.5 46t-28.5 14h-8v10
h183v-10h-3.5h-3.5q-31 0 -52 -17t-30 -43h-56zM158 531l-76 -1q-10 26 -30 43t-52 17h-4h-4v10h206v-10h-8q-16 0 -29 -13.5t-3 -45.5zM456 673q21 23 42 45.5t42.5 44t42.5 41.5q11 -12 22 -25t19 -28l-54 -30t-53.5 -28.5t-53.5 -26.5z" />
    <glyph glyph-name="Wdieresis" unicode="&#x1e84;" horiz-adv-x="982" 
d="M63 694h81l186 -597l-17 -109zM511 716l8 -81l-176 -536l-5 -17.5t-10 -43t-6 -50.5h-9l-18 89l207 639h9zM511 715l210 -589l-22 -138l-222 619zM917 694l-187 -595l-5 -18t-10.5 -43.5t-6.5 -49.5h-9l-12 99l174 607h56zM842 628q8 30 -5 46t-33 16h-9v10h197v-10h-4
h-4q-23 0 -50 -14.5t-38 -47.5h-54zM165 628h-79q-12 33 -38.5 47.5t-49.5 14.5h-4h-4v10h222v-10h-9q-19 0 -33.5 -16t-4.5 -46zM412 764q-16 0 -27.5 11.5t-11.5 27.5q0 17 11.5 28t27.5 11q17 0 28 -11t11 -28q0 -16 -11 -27.5t-28 -11.5zM601 764q-16 0 -27.5 11.5
t-11.5 27.5q0 17 11.5 28t27.5 11t27.5 -11t11.5 -28q0 -16 -11.5 -27.5t-27.5 -11.5z" />
    <glyph glyph-name="wdieresis" unicode="&#x1e85;" horiz-adv-x="899" 
d="M57 594h80l162 -493l-9 -113zM468 616l8 -81l-155 -436l-5 -17.5t-10.5 -43t-6.5 -50.5h-9l-19 89l187 539h10zM468 615l192 -489l-23 -138l-203 519zM836 594l-166 -495l-5.5 -18t-11 -43.5t-6.5 -49.5h-10l-12 99l154 507h57zM759 530q11 32 -1.5 46t-28.5 14h-8v10
h183v-10h-3.5h-3.5q-31 0 -52 -17t-30 -43h-56zM158 531l-76 -1q-10 26 -30 43t-52 17h-4h-4v10h206v-10h-8q-16 0 -29 -13.5t-3 -45.5zM369 666q-16 0 -27.5 11.5t-11.5 27.5q0 17 11.5 28t27.5 11q17 0 28 -11t11 -28q0 -16 -11 -27.5t-28 -11.5zM558 666
q-16 0 -27.5 11.5t-11.5 27.5q0 17 11.5 28t27.5 11t27.5 -11t11.5 -28q0 -16 -11.5 -27.5t-27.5 -11.5z" />
    <glyph glyph-name="Ygrave" unicode="&#x1ef2;" horiz-adv-x="661" 
d="M150 699l196 -365l-43 -35l-239 400h86zM360 322v-322h-65v322h65zM538 699h61l-246 -398l-36 11zM497 628q9 14 5 28.5t-15 24t-25 9.5h-6h-6v10h222v-10h-14q-31 0 -58 -18t-43 -41zM188 628l-84 3q-14 23 -41 41t-59 18h-14v10h246v-10h-6.5h-6.5q-22 0 -33.5 -20.5
t-1.5 -41.5zM297 73v-73h-79v10h6h7q26 0 44.5 18.5t19.5 44.5h2zM357 73h3q0 -26 19 -44.5t45 -18.5h6h6v-10h-79v73zM348 771l-7 -7q-27 13 -54 26.5t-53.5 28.5t-53.5 30q8 16 18.5 29t22.5 24q21 -20 42 -41.5t42.5 -43.5t42.5 -46z" />
    <glyph glyph-name="ygrave" unicode="&#x1ef3;" horiz-adv-x="640" 
d="M149 599l185 -329l-41 -35l-231 364h87zM349 258v-258h-65v258h65zM517 599h63l-238 -362l-37 11zM479 536q11 20 1 37t-32 17h-6h-6v10h209v-10h-12q-28 0 -52.5 -15.5t-38.5 -35.5zM184 537l-85 3q-16 23 -39.5 36.5t-52.5 13.5h-12v10h232v-10h-6h-6
q-22 0 -31.5 -17.5t0.5 -35.5zM287 64v-64h-73v10h6.5h5.5q24 0 40.5 16t17.5 38h3zM346 64h3q1 -22 17.5 -38t40.5 -16h6h6v-10h-73v64zM341 671l-7 -7q-27 13 -54 26.5t-53.5 28.5t-53.5 30q8 16 18.5 29t22.5 24q21 -20 42 -41.5t42.5 -43.5t42.5 -46z" />
    <glyph glyph-name="endash" unicode="&#x2013;" horiz-adv-x="500" 
d="M0 311h500v-40h-500v40z" />
    <glyph glyph-name="emdash" unicode="&#x2014;" horiz-adv-x="800" 
d="M0 311h800v-40h-800v40z" />
    <glyph glyph-name="quoteleft" unicode="&#x2018;" horiz-adv-x="193" 
d="M138 615q-6 -15 -22.5 -20t-34 2t-26.5 28q-13 31 -10 59t17.5 50.5t36.5 35.5t48 14l2 -9q-32 -10 -42 -29.5t-6 -38.5t13 -30q7 -8 14.5 -17t11.5 -20t-2 -25z" />
    <glyph glyph-name="quoteright" unicode="&#x2019;" horiz-adv-x="193" 
d="M56 757q7 15 23 20t33.5 -1.5t26.5 -28.5q13 -31 10 -59t-17.5 -50.5t-36.5 -35.5t-48 -14l-2 9q32 11 42 30t6 38t-13 30q-6 8 -14 17t-12 20.5t2 24.5z" />
    <glyph glyph-name="quotesinglbase" unicode="&#x201a;" horiz-adv-x="193" 
d="M56 71q7 15 23 20t33.5 -1.5t26.5 -28.5q13 -31 10 -59t-17.5 -50.5t-36.5 -35.5t-48 -14l-2 9q32 11 42 30t6 38t-13 30q-6 8 -14 17t-12 20.5t2 24.5z" />
    <glyph glyph-name="quotedblleft" unicode="&#x201c;" horiz-adv-x="333" 
d="M275 615q-6 -15 -22.5 -20t-34 2t-26.5 28q-13 31 -10 59t17.5 50.5t36.5 35.5t48 14l2 -9q-32 -10 -42 -29.5t-6 -38.5t13 -30q7 -8 14.5 -17t11.5 -20t-2 -25zM135 615q-6 -15 -22.5 -20t-34 2t-26.5 28q-13 31 -10 59t17.5 50.5t36.5 35.5t48 14l2 -9
q-32 -10 -42 -29.5t-6 -38.5t13 -30q7 -8 14.5 -17t11.5 -20t-2 -25z" />
    <glyph glyph-name="quotedblright" unicode="&#x201d;" horiz-adv-x="333" 
d="M196 757q7 15 23 20t33.5 -1.5t26.5 -28.5q13 -31 10 -59t-17.5 -50.5t-36.5 -35.5t-48 -14l-2 9q32 11 42 30t6 38t-13 30q-6 8 -14 17t-12 20.5t2 24.5zM56 757q7 15 23 20t33.5 -1.5t26.5 -28.5q13 -31 10 -59t-17.5 -50.5t-36.5 -35.5t-48 -14l-2 9q32 11 42 30t6 38
t-13 30q-6 8 -14 17t-12 20.5t2 24.5z" />
    <glyph glyph-name="quotedblbase" unicode="&#x201e;" horiz-adv-x="333" 
d="M196 76q7 15 23 20t33.5 -1.5t26.5 -28.5q13 -31 10 -59t-17.5 -50.5t-36.5 -35.5t-48 -14l-2 9q32 11 42 30t6 38t-13 30q-6 8 -14 17t-12 20.5t2 24.5zM56 76q7 15 23 20t33.5 -1.5t26.5 -28.5q13 -31 10 -59t-17.5 -50.5t-36.5 -35.5t-48 -14l-2 9q32 11 42 30t6 38
t-13 30q-6 8 -14 17t-12 20.5t2 24.5z" />
    <glyph glyph-name="dagger" unicode="&#x2020;" horiz-adv-x="517" 
d="M464 401l-156 18l-45 15l16 -43l12 -236l-27 -335h-10l-28 335l13 236l15 43l-45 -16l-155 -17l-14 37l14 38l155 -18l45 -14l-15 41l-18 215l39 14l36 -14l-17 -215l-15 -41l44 15l156 17l14 -38z" />
    <glyph glyph-name="daggerdbl" unicode="&#x2021;" horiz-adv-x="518" 
d="M479 95l-14 -38l-155 18l-45 15l15 -42l17 -215l-38 -14l-37 14l18 215l15 42l-45 -15l-155 -18l-14 38l14 37l155 -17l45 -15l-15 42l-18 125l17 124l15 43l-45 -16l-155 -17l-14 37l14 38l155 -18l45 -14l-15 41l-18 215l39 14l36 -14l-17 -215l-15 -41l44 15l156 17
l14 -38l-14 -37l-156 18l-45 15l16 -43l18 -124l-17 -125l-15 -42l45 15l155 17z" />
    <glyph glyph-name="bullet" unicode="&#x2022;" horiz-adv-x="335" 
d="M181 237q-13 -4 -27 0q-21 7 -34 13t-21 14t-13.5 21t-13.5 34q-4 14 0 27q8 22 13.5 35t13.5 20.5t21 13.5t34 13q14 6 27 0q22 -7 35 -13t20.5 -13.5t13.5 -20.5t13 -35q3 -7 3 -13.5t-3 -15.5q-7 -21 -13 -33.5t-13.5 -20.5t-20.5 -13.5t-35 -12.5z" />
    <glyph glyph-name="ellipsis" unicode="&#x2026;" horiz-adv-x="569" 
d="M290 -4q-19 0 -32 13t-13 32t13 32t32 13t32 -13t13 -32t-13 -32t-32 -13zM480 -4q-19 0 -32 13t-13 32t13 32t32 13t32 -13t13 -32t-13 -32t-32 -13zM90 -4q-19 0 -32 13t-13 32t13 32t32 13t32 -13t13 -32t-13 -32t-32 -13z" />
    <glyph glyph-name="perthousand" unicode="&#x2030;" horiz-adv-x="1015" 
d="M217 714q60 0 89.5 -47t15.5 -130q-14 -82 -60.5 -129t-107.5 -47q-60 0 -89.5 47t-15.5 129q14 83 60.5 130t107.5 47zM213 694q-39 0 -68.5 -42t-42.5 -115t2 -114.5t54 -41.5t68.5 41.5t42.5 114.5t-2 115t-54 42zM168 -11l-25 11l356 676q-25 -13 -55 -27t-68 -11
q-30 3 -56.5 17.5t-52.5 27.5t-55 11v20q29 0 50 -7.5t38.5 -18.5t35.5 -20t41 -11q29 -2 55 8t48.5 23.5t38.5 20.5l22 -9zM531 339q60 0 89.5 -47t15.5 -130q-14 -82 -60.5 -129t-107.5 -47q-60 0 -89.5 47t-15.5 129q14 83 60.5 130t107.5 47zM527 319q-39 0 -68.5 -42
t-42.5 -115t2 -114.5t54 -41.5t68.5 41.5t42.5 114.5t-2 115t-54 42zM861 339q60 0 89.5 -47t15.5 -130q-14 -82 -60.5 -129t-107.5 -47q-60 0 -89.5 47t-15.5 129q14 83 60.5 130t107.5 47zM857 319q-39 0 -68.5 -42t-42.5 -115t2 -114.5t54 -41.5t68.5 41.5t42.5 114.5
t-2 115t-54 42z" />
    <glyph glyph-name="guilsinglleft" unicode="&#x2039;" horiz-adv-x="283" 
d="M40 292l175 -202l9 5l-119 197l118 193l-8 5z" />
    <glyph glyph-name="guilsinglright" unicode="&#x203a;" horiz-adv-x="283" 
d="M244 292l-175 198l-8 -5l118 -193l-119 -197l9 -5z" />
    <glyph glyph-name="fraction" unicode="&#x2044;" horiz-adv-x="542" 
d="M20 2l25 -16l477 711l-24 17z" />
    <glyph glyph-name="uni2074" unicode="&#x2074;" horiz-adv-x="397" 
d="M222 647l38 67h6v-405h-44v338zM259 714l7 -27l-172 -214h201q19 0 24.5 3t11.5 10h7l-14 -47h-284v7zM266 351q0 -15 11 -25.5t26 -10.5h7v-7h-132v7h7q15 0 26 10t11 26h44z" />
    <glyph glyph-name="Euro" unicode="&#x20ac;" horiz-adv-x="733" 
d="M96 350q0 77 28 143t78 115.5t117 77.5t144 28q51 0 94 -6t75.5 -19t49.5 -34l-32 -96h-10q9 41 -7 65.5t-45.5 37.5t-63.5 17.5t-61 4.5q-61 0 -114.5 -25.5t-93 -71t-62 -106t-22.5 -130.5t22.5 -130.5t62 -106.5t93 -71.5t114.5 -25.5q92 0 144.5 32t65.5 105h10
l-1 -105q-21 -22 -56.5 -35.5t-78 -20t-84.5 -6.5q-77 0 -144 28t-117 77.5t-78 115.5t-28 142zM1 414h600l-11 -30h-600zM1 314h565l-10 -30h-566z" />
    <glyph glyph-name="trademark" unicode="&#x2122;" horiz-adv-x="446" 
d="M107 699v-196h-31v196h31zM173 700v-14h-163v14h163zM173 686v-22h-3v5q0 15 -17 17h20zM173 705v-8l-35 3q10 0 20.5 2t14.5 3zM77 503h-22v3h1.5h1.5q8 0 13 5t5 12zM107 523q0 -7 5.5 -12t12.5 -5h1.5h1.5v-3h-22zM10 686h19q-16 -2 -16 -17v-5h-3v22zM10 705
q4 -1 14.5 -3t19.5 -2l-34 -3v8zM378 704l3 -27l-71 -149l-4 -10t-6 -19h-2l-4 23zM205 523v-20h-31v3h2.5h2.5q8 0 13.5 4.5t6.5 12.5h6zM220 519v-1v0q0 -12 11 -12h4v-3h-17v16h2zM220 704h3l9 -27l-13 -174h-22zM223 704l87 -164l-12 -41l-80 155zM381 704l34 -201h-32
l-23 152l18 49h3zM406 523h6q3 -17 20 -17h2.5h2.5v-3h-31v20zM381 519h2l10 -16h-27v3h4q5 0 8 4t3 8v0v1z" />
    <glyph glyph-name="partialdiff" unicode="&#x2202;" horiz-adv-x="566" 
d="M293 714q-53 7 -94 -6t-72.5 -44t-56.5 -80l9 -7q26 37 54 56.5t55.5 26.5t53 5.5t47.5 -6.5q55 -13 89 -62t47.5 -118.5t8.5 -145.5q-6 -93 -31 -163t-61.5 -110t-78.5 -44q-51 -5 -84.5 24.5t-44.5 80.5t4 110q12 48 35.5 87.5t60.5 60t89.5 15.5t121.5 -45l1 10
q-52 48 -102 64t-94.5 7.5t-81 -34.5t-61 -61t-35.5 -73q-14 -49 -11.5 -99t24.5 -91.5t66 -65.5t112 -20q108 6 170.5 96t72.5 251q6 99 -19 182.5t-74.5 137t-119.5 61.5z" />
    <glyph glyph-name="product" unicode="&#x220f;" horiz-adv-x="763" 
d="M185 700v-900h-64v900h64zM124 -136v-64h-69v10h5.5h5.5q23 0 39 16t16 38h3zM183 -136h2q1 -22 17 -38t39 -16h5h5l1 -10h-69v64zM124 636h-3q0 23 -16 38.5t-39 15.5h-5.5h-5.5v10h69v-64zM643 700v-900h-64v900h64zM581 -136v-64h-69l1 10h5h5q23 0 39 16t17 38h2z
M640 -136h3q0 -22 16.5 -38t38.5 -16h5.5h5.5v-10h-69v64zM640 636v64h69v-10h-5.5h-5.5q-22 0 -38.5 -15.5t-16.5 -38.5h-3zM602 670h-21v-54h-2q-1 22 -16.5 38t-37.5 16h-286q-22 0 -37.5 -16t-16.5 -38h-2v54h-24v30h443v-30z" />
    <glyph glyph-name="summation" unicode="&#x2211;" horiz-adv-x="635" 
d="M570 700v-30h-438l228 -391l-245 -394l445 -1v-64l-520 -1v11l264 422l-258 438v10h524zM570 673v-81l-10 1v17q0 25 -17 42t-42 18v3h69zM570 718v-29l-122 11q22 0 46.5 3t45.5 7t30 8zM601 9l-33 -189h-132l18 64q56 0 89.5 36.5t47.5 88.5h10z" />
    <glyph glyph-name="minus" unicode="&#x2212;" horiz-adv-x="481" 
d="M40 332h402v-45h-402v45z" />
    <glyph glyph-name="radical" unicode="&#x221a;" horiz-adv-x="594" 
d="M20 430l139 20l123 -441l262 834l30 -2l-307 -988l-160 559l-82 -12z" />
    <glyph glyph-name="infinity" unicode="&#x221e;" horiz-adv-x="593" 
d="M162 208q38 0 72 28.5t55 61.5q-23 32 -56 60t-71 28q-31 0 -54 -26t-23 -63t23 -63t54 -26zM316 263q-23 -40 -64 -69t-90 -29q-35 0 -63 17t-43.5 47t-15.5 68q1 38 17 68t43.5 47t61.5 17q44 0 85.5 -28.5t69.5 -66.5q28 37 69 66t85 29q35 0 62 -17t43.5 -47
t16.5 -68q1 -38 -15 -68t-43.5 -47t-63.5 -17q-49 0 -90.5 30.5t-64.5 67.5zM471 208q32 0 54.5 26t22.5 63t-22.5 63t-54.5 26q-25 0 -49 -14t-43.5 -34t-34.5 -40q23 -35 56 -62.5t71 -27.5z" />
    <glyph glyph-name="integral" unicode="&#x222b;" horiz-adv-x="440" 
d="M314 792q12 1 25 0t26 -4.5t23.5 -10.5t16.5 -17q7 -11 5.5 -24t-9.5 -22q-13 -14 -29 -13.5t-26 10.5q-8 8 -13.5 18t-11 17.5t-17.5 7.5q-14 0 -23.5 -19t-11.5 -71q-1 -11 -2.5 -48t-4.5 -91t-6 -117t-6.5 -126.5t-6.5 -120.5t-5.5 -99t-3.5 -60q-2 -29 -8.5 -61.5
t-19.5 -61t-34.5 -48t-54.5 -22.5q-15 -1 -33 1.5t-33.5 10t-24.5 20.5q-4 8 -5 16t1 16t7 14q14 14 30 14t26 -11q9 -8 14 -18t11 -17.5t17 -7.5q14 0 23 19t12 71q1 11 2.5 48t4.5 91t6 117t6.5 126.5t6.5 120.5t5.5 99t3.5 60q2 29 8.5 61.5t19.5 61t34.5 48t54.5 22.5z
" />
    <glyph glyph-name="approxequal" unicode="&#x2248;" horiz-adv-x="481" 
d="M40 204q7 9 18 20.5t26 21.5t32.5 15.5t38.5 2.5q33 -4 61.5 -17t54 -25.5t48.5 -17.5q29 -6 54 10.5t42 29.5l27 -25q-8 -8 -25.5 -25t-42 -28.5t-55.5 -6.5q-32 6 -59.5 18t-52.5 24.5t-52 17.5q-34 6 -51 -6.5t-37 -32.5zM40 374q7 9 18 20.5t26 21.5t32.5 15.5
t38.5 2.5q33 -4 61.5 -17t54 -25.5t48.5 -17.5q29 -6 54 10.5t42 29.5l27 -25q-8 -8 -25.5 -25t-42 -28.5t-55.5 -6.5q-32 6 -59.5 18t-52.5 24.5t-52 17.5q-34 6 -51 -6.5t-37 -32.5z" />
    <glyph glyph-name="notequal" unicode="&#x2260;" horiz-adv-x="481" 
d="M40 409h402v-45h-402v45zM40 234h402v-45h-402v45zM328 519l40 -19l-210 -433l-41 18z" />
    <glyph glyph-name="lessequal" unicode="&#x2264;" horiz-adv-x="481" 
d="M442 541l-387 -187l1 43l386 -187v-48l-402 191v45l402 191v-48zM442 88v-45h-402v45h402z" />
    <glyph glyph-name="greaterequal" unicode="&#x2265;" horiz-adv-x="481" 
d="M40 541v48l402 -191v-45l-402 -191v48l386 187l1 -43zM40 88h402v-45h-402v45z" />
    <glyph glyph-name="lozenge" unicode="&#x25ca;" horiz-adv-x="530" 
d="M259 714l-209 -364l209 -364l222 364zM259 645l179 -295l-179 -295l-166 295z" />
    <glyph glyph-name="fi" unicode="&#xfb01;" horiz-adv-x="859" 
d="M191 600v-600h-63v600h63zM416 315v-30h-227v30h227zM463 600v-31h-274v31h274zM416 287v-57h-11v13q0 17 -9.5 29.5t-31.5 12.5v2h52zM416 370v-57h-52v2q22 0 31.5 12.5t9.5 29.5v13h11zM463 572v-69h-11v15q0 21 -13.5 36t-36.5 15v3h61zM463 616v-26l-115 10
q21 0 44 2.5t42.5 6.5t28.5 7zM130 64l13 -64h-88v10h7h7q25 0 41.5 16t17.5 38h2zM130 537h-2q-1 23 -17.5 38t-41.5 15h-7h-7v10h88zM189 64h2q1 -22 17.5 -38t41.5 -16h7h7v-10h-88zM723 600v-600h-63v600h63zM663 64v-64h-85v10h7h7q28 0 47.5 16t20.5 38h3zM720 64h3
q1 -22 20.5 -38t47.5 -16h6.5h6.5l1 -10h-85v64zM720 536v64h85l-1 -10h-6.5h-6.5q-28 0 -47.5 -15.5t-20.5 -38.5h-3zM663 536h-3q-1 23 -20.5 38.5t-47.5 15.5h-7.5h-6.5v10h85v-64z" />
    <glyph glyph-name="fl" unicode="&#xfb02;" horiz-adv-x="1059" 
d="M191 600v-600h-63v600h63zM416 315v-30h-227v30h227zM463 600v-31h-274v31h274zM416 287v-57h-11v13q0 17 -9.5 29.5t-31.5 12.5v2h52zM416 370v-57h-52v2q22 0 31.5 12.5t9.5 29.5v13h11zM463 572v-69h-11v15q0 21 -13.5 36t-36.5 15v3h61zM463 616v-26l-115 10
q21 0 44 2.5t42.5 6.5t28.5 7zM130 64l13 -64h-88v10h7h7q25 0 41.5 16t17.5 38h2zM130 537h-2q-1 23 -17.5 38t-41.5 15h-7h-7v10h88zM189 64h2q1 -22 17.5 -38t41.5 -16h7h7v-10h-88zM714 600v-600h-64v600h64zM983 31l-2 -31h-269v31h271zM1039 143l-55 -143h-152l34 31
q50 0 80.5 14.5t49.5 40t33 57.5h10zM652 64l13 -64h-87v10h7h7q25 0 41 16t17 38h2zM711 536v64h74v-10h-6h-6q-24 0 -41.5 -15.5t-17.5 -38.5h-3zM652 536h-2q-1 23 -18 38.5t-42 15.5h-6h-6v10h74v-64z" />
    <glyph glyph-name="A.salt" 
d="M144 73q-7 -20 -2 -34t16.5 -21.5t23.5 -7.5h9v-10h-201v10h4.5h4.5q23 0 47.5 14.5t40.5 48.5h57zM371 655l-254 -652h-60l283 679zM520 281v-30h-333v30h333zM118 734q71 30 123 28t89.5 -26.5t63.5 -63.5t44.5 -84t33.5 -87l122 -346q17 -48 41 -100.5t55 -101.5
t69 -85.5t84.5 -53.5t100.5 -5l1 -10q-59 -22 -117 -14t-113 48.5t-102.5 116t-85.5 187.5l-128 377q-13 37 -28.5 75t-37 70.5t-51 53.5t-69 25.5t-92.5 -14.5z" />
    <glyph glyph-name="AE.salt" horiz-adv-x="872" 
d="M650 700v-31h-189l-33 -34l-338 -580q-39 -67 -91 -102.5t-104.5 -44.5t-94.5 1l1 10q36 2 67.5 11.5t60 28.5t55.5 49t53 71l366 576q6 14 -0.5 24.5t-20.5 10.5h-4v10h272zM471 700v-700h-65v654zM723 350v-30h-490l5 30h485zM408 58v-58h-62l1 10h4.5h4.5
q20 0 34.5 14.5t15.5 33.5h2zM811 31v-31h-343v31h343zM868 139l-56 -139h-139l30 31q60 0 97.5 30.5t57.5 77.5h10zM723 322v-66h-10v15q0 20 -14 34.5t-34 14.5v2h58zM723 414v-66h-58v2q20 1 34 15.5t14 34.5v14h10zM650 672v-67h-10l1 15q0 20 -14.5 34.5t-34.5 14.5v3
h58zM650 718v-29l-121 11q22 0 46.5 3t45 7t29.5 8z" />
    <glyph glyph-name="Aacute.salt" 
d="M144 73q-7 -20 -2 -34t16.5 -21.5t23.5 -7.5h9v-10h-201v10h4.5h4.5q23 0 47.5 14.5t40.5 48.5h57zM371 655l-254 -652h-60l283 679zM520 281v-30h-333v30h333zM118 734q71 30 123 28t89.5 -26.5t63.5 -63.5t44.5 -84t33.5 -87l122 -346q17 -48 41 -100.5t55 -101.5
t69 -85.5t84.5 -53.5t100.5 -5l1 -10q-59 -22 -117 -14t-113 48.5t-102.5 116t-85.5 187.5l-128 377q-13 37 -28.5 75t-37 70.5t-51 53.5t-69 25.5t-92.5 -14.5zM360 781q21 23 42 45.5t42.5 44t42.5 41.5q11 -12 22 -25t19 -28l-54 -30t-53.5 -28.5t-53.5 -26.5z" />
    <glyph glyph-name="Abreve.salt" 
d="M144 73q-7 -20 -2 -34t16.5 -21.5t23.5 -7.5h9v-10h-201v10h4.5h4.5q23 0 47.5 14.5t40.5 48.5h57zM371 655l-254 -652h-60l283 679zM520 281v-30h-333v30h333zM118 734q71 30 123 28t89.5 -26.5t63.5 -63.5t44.5 -84t33.5 -87l122 -346q17 -48 41 -100.5t55 -101.5
t69 -85.5t84.5 -53.5t100.5 -5l1 -10q-59 -22 -117 -14t-113 48.5t-102.5 116t-85.5 187.5l-128 377q-13 37 -28.5 75t-37 70.5t-51 53.5t-69 25.5t-92.5 -14.5zM470 878q0 -28 -14 -52t-37.5 -38t-51.5 -14t-51.5 14t-37.5 38t-14 52h10q8 -20 33.5 -37t59.5 -17
q35 0 60.5 17t32.5 37h10z" />
    <glyph glyph-name="Acircumflex.salt" 
d="M144 73q-7 -20 -2 -34t16.5 -21.5t23.5 -7.5h9v-10h-201v10h4.5h4.5q23 0 47.5 14.5t40.5 48.5h57zM371 655l-254 -652h-60l283 679zM520 281v-30h-333v30h333zM118 734q71 30 123 28t89.5 -26.5t63.5 -63.5t44.5 -84t33.5 -87l122 -346q17 -48 41 -100.5t55 -101.5
t69 -85.5t84.5 -53.5t100.5 -5l1 -10q-59 -22 -117 -14t-113 48.5t-102.5 116t-85.5 187.5l-128 377q-13 37 -28.5 75t-37 70.5t-51 53.5t-69 25.5t-92.5 -14.5zM256 781l6 -8l104 66l114 -66l6 8l-114 119h-10z" />
    <glyph glyph-name="Adieresis.salt" 
d="M144 73q-7 -20 -2 -34t16.5 -21.5t23.5 -7.5h9v-10h-201v10h4.5h4.5q23 0 47.5 14.5t40.5 48.5h57zM371 655l-254 -652h-60l283 679zM520 281v-30h-333v30h333zM118 734q71 30 123 28t89.5 -26.5t63.5 -63.5t44.5 -84t33.5 -87l122 -346q17 -48 41 -100.5t55 -101.5
t69 -85.5t84.5 -53.5t100.5 -5l1 -10q-59 -22 -117 -14t-113 48.5t-102.5 116t-85.5 187.5l-128 377q-13 37 -28.5 75t-37 70.5t-51 53.5t-69 25.5t-92.5 -14.5zM272 774q-16 0 -27.5 11.5t-11.5 27.5q0 17 11.5 28t27.5 11q17 0 28 -11t11 -28q0 -16 -11 -27.5t-28 -11.5z
M461 774q-16 0 -27.5 11.5t-11.5 27.5q0 17 11.5 28t27.5 11t27.5 -11t11.5 -28q0 -16 -11.5 -27.5t-27.5 -11.5z" />
    <glyph glyph-name="Agrave.salt" 
d="M144 73q-7 -20 -2 -34t16.5 -21.5t23.5 -7.5h9v-10h-201v10h4.5h4.5q23 0 47.5 14.5t40.5 48.5h57zM371 655l-254 -652h-60l283 679zM520 281v-30h-333v30h333zM118 734q71 30 123 28t89.5 -26.5t63.5 -63.5t44.5 -84t33.5 -87l122 -346q17 -48 41 -100.5t55 -101.5
t69 -85.5t84.5 -53.5t100.5 -5l1 -10q-59 -22 -117 -14t-113 48.5t-102.5 116t-85.5 187.5l-128 377q-13 37 -28.5 75t-37 70.5t-51 53.5t-69 25.5t-92.5 -14.5zM374 781l-7 -7q-27 13 -54 26.5t-53.5 28.5t-53.5 30q8 16 18.5 29t22.5 24q21 -20 42 -41.5t42.5 -43.5
t42.5 -46z" />
    <glyph glyph-name="Amacron.salt" 
d="M144 73q-7 -20 -2 -34t16.5 -21.5t23.5 -7.5h9v-10h-201v10h4.5h4.5q23 0 47.5 14.5t40.5 48.5h57zM371 655l-254 -652h-60l283 679zM520 281v-30h-333v30h333zM118 734q71 30 123 28t89.5 -26.5t63.5 -63.5t44.5 -84t33.5 -87l122 -346q17 -48 41 -100.5t55 -101.5
t69 -85.5t84.5 -53.5t100.5 -5l1 -10q-59 -22 -117 -14t-113 48.5t-102.5 116t-85.5 187.5l-128 377q-13 37 -28.5 75t-37 70.5t-51 53.5t-69 25.5t-92.5 -14.5zM244 840h250v-35h-250v35z" />
    <glyph glyph-name="Aogonek.salt" horiz-adv-x="698" 
d="M144 73q-7 -20 -2 -34t16.5 -21.5t23.5 -7.5h9v-10h-201v10h4.5h4.5q23 0 47.5 14.5t40.5 48.5h57zM371 655l-254 -652h-60l283 679zM520 281v-30h-333v30h333zM103 720q70 20 121.5 15.5t89.5 -27t65 -56.5t46.5 -74t35.5 -79l138 -341q19 -47 41.5 -92t50 -84.5
t62.5 -69t78.5 -45t98.5 -14.5l1 -10q-59 -9 -113 -5t-103.5 32.5t-95 92t-87.5 174.5l-141 373q-13 34 -29.5 67t-39 60.5t-53 47t-71 27t-92.5 -1.5zM632 -5l8 -6q-43 5 -65.5 -8t-31.5 -40t3.5 -52t39 -35t57.5 6l4 -8q-17 -20 -41 -26.5t-48 -1t-42 22t-24.5 41.5
t4.5 58q9 25 30.5 39.5t49.5 17.5t56 -8z" />
    <glyph glyph-name="Aring.salt" 
d="M144 73q-7 -20 -2 -34t16.5 -21.5t23.5 -7.5h9v-10h-201v10h4.5h4.5q23 0 47.5 14.5t40.5 48.5h57zM371 655l-254 -652h-60l283 679zM520 281v-30h-333v30h333zM118 734q71 30 123 28t89.5 -26.5t63.5 -63.5t44.5 -84t33.5 -87l122 -346q17 -48 41 -100.5t55 -101.5
t69 -85.5t84.5 -53.5t100.5 -5l1 -10q-59 -22 -117 -14t-113 48.5t-102.5 116t-85.5 187.5l-128 377q-13 37 -28.5 75t-37 70.5t-51 53.5t-69 25.5t-92.5 -14.5zM367 924q41 0 67.5 -20t26.5 -55q0 -33 -26.5 -54t-67.5 -21q-40 0 -66.5 21t-26.5 54t26.5 54t66.5 21z
M367 907q-20 0 -34.5 -15t-14.5 -43t14.5 -43t34.5 -15q21 0 35 15t14 43t-14 43t-35 15z" />
    <glyph glyph-name="Atilde.salt" 
d="M144 73q-7 -20 -2 -34t16.5 -21.5t23.5 -7.5h9v-10h-201v10h4.5h4.5q23 0 47.5 14.5t40.5 48.5h57zM371 655l-254 -652h-60l283 679zM520 281v-30h-333v30h333zM118 734q71 30 123 28t89.5 -26.5t63.5 -63.5t44.5 -84t33.5 -87l122 -346q17 -48 41 -100.5t55 -101.5
t69 -85.5t84.5 -53.5t100.5 -5l1 -10q-59 -22 -117 -14t-113 48.5t-102.5 116t-85.5 187.5l-128 377q-13 37 -28.5 75t-37 70.5t-51 53.5t-69 25.5t-92.5 -14.5zM252 777h10q6 14 13.5 23t18 13.5t22.5 4.5q17 0 36.5 -11t41.5 -22t43 -11q13 0 24 5.5t19.5 15.5t14 25
t7.5 33h-10q-4 -11 -12 -19t-18.5 -11.5t-24.5 -3.5q-17 0 -36 11t-40.5 21.5t-44.5 10.5q-12 0 -22.5 -6t-18.5 -17t-14 -26.5t-9 -35.5z" />
    <glyph glyph-name="B.salt" horiz-adv-x="594" 
d="M150 700h76q62 0 108.5 -19t72.5 -55.5t26 -87.5q0 -47 -22 -81.5t-57 -48.5q67 -10 111.5 -39t66.5 -71.5t22 -94.5q0 -49 -20.5 -89t-58 -68.5t-89.5 -44t-115 -15.5q-49 0 -91 10t-76 29.5t-57.5 49.5t-35.5 70.5t-11 90.5l11 2q7 -53 23.5 -90.5t40.5 -62t55 -38.5
t67.5 -19.5t77.5 -5.5q67 0 112 24.5t68.5 66.5t23.5 95q0 58 -24.5 94t-62 55t-80 26t-78.5 7l-1 9q23 0 45 7t40 23t29 42.5t11 64.5q0 70 -38 101t-107 31h-53q0 1 -2.5 8.5t-5 15.5zM200 700v-675h-65v675h65zM137 627h-2q-1 29 -20.5 46t-44.5 17h-5.5h-6.5v10h79v-73z
" />
    <glyph glyph-name="C.salt" horiz-adv-x="821" 
d="M796 375q3 -97 -20.5 -170t-70 -121.5t-113 -73t-149.5 -24.5q-87 0 -160 27.5t-126.5 77t-82.5 116t-29 144.5t29 144t80.5 115t122 76.5t152.5 27.5q46 0 93 -8.5t89.5 -23.5t73.5 -36l20 -141h-9q-15 59 -56 98.5t-96 60t-114 20.5q-67 0 -123.5 -25t-98.5 -69.5
t-65 -105t-23 -131.5q0 -94 41 -170.5t115 -121.5t172 -45q99 0 175.5 42.5t119.5 123t43 193.5h10z" />
    <glyph glyph-name="Cacute.salt" horiz-adv-x="821" 
d="M796 375q3 -97 -20.5 -170t-70 -121.5t-113 -73t-149.5 -24.5q-87 0 -160 27.5t-126.5 77t-82.5 116t-29 144.5t29 144t80.5 115t122 76.5t152.5 27.5q46 0 93 -8.5t89.5 -23.5t73.5 -36l20 -141h-9q-15 59 -56 98.5t-96 60t-114 20.5q-67 0 -123.5 -25t-98.5 -69.5
t-65 -105t-23 -131.5q0 -94 41 -170.5t115 -121.5t172 -45q99 0 175.5 42.5t119.5 123t43 193.5h10zM435 771q21 23 42 45.5t42.5 44t42.5 41.5q11 -12 22 -25t19 -28l-54 -30t-53.5 -28.5t-53.5 -26.5z" />
    <glyph glyph-name="Ccaron.salt" horiz-adv-x="821" 
d="M796 375q3 -97 -20.5 -170t-70 -121.5t-113 -73t-149.5 -24.5q-87 0 -160 27.5t-126.5 77t-82.5 116t-29 144.5t29 144t80.5 115t122 76.5t152.5 27.5q46 0 93 -8.5t89.5 -23.5t73.5 -36l20 -141h-9q-15 59 -56 98.5t-96 60t-114 20.5q-67 0 -123.5 -25t-98.5 -69.5
t-65 -105t-23 -131.5q0 -94 41 -170.5t115 -121.5t172 -45q99 0 175.5 42.5t119.5 123t43 193.5h10zM553 883l-6 8l-105 -66l-113 66l-6 -8l114 -119h10z" />
    <glyph glyph-name="Ccedilla.salt" horiz-adv-x="821" 
d="M796 375q3 -97 -20.5 -170t-70 -121.5t-113 -73t-149.5 -24.5q-87 0 -160 27.5t-126.5 77t-82.5 116t-29 144.5t29 144t80.5 115t122 76.5t152.5 27.5q46 0 93 -8.5t89.5 -23.5t73.5 -36l20 -141h-9q-15 59 -56 98.5t-96 60t-114 20.5q-67 0 -123.5 -25t-98.5 -69.5
t-65 -105t-23 -131.5q0 -94 41 -170.5t115 -121.5t172 -45q99 0 175.5 42.5t119.5 123t43 193.5h10zM433 -8h27l-41 -49q13 5 30.5 6t34 -4.5t28 -19.5t12.5 -40q1 -31 -20.5 -51t-54 -26t-66.5 4l1 10q21 0 42 6t35 20t13 38q-1 21 -14.5 30.5t-32.5 10t-37 -7.5l-2.5 5
l-2.5 5z" />
    <glyph glyph-name="Cdotaccent.salt" horiz-adv-x="821" 
d="M796 375q3 -97 -20.5 -170t-70 -121.5t-113 -73t-149.5 -24.5q-87 0 -160 27.5t-126.5 77t-82.5 116t-29 144.5t29 144t80.5 115t122 76.5t152.5 27.5q46 0 93 -8.5t89.5 -23.5t73.5 -36l20 -141h-9q-15 59 -56 98.5t-96 60t-114 20.5q-67 0 -123.5 -25t-98.5 -69.5
t-65 -105t-23 -131.5q0 -94 41 -170.5t115 -121.5t172 -45q99 0 175.5 42.5t119.5 123t43 193.5h10zM441 765q-18 0 -30.5 12.5t-12.5 30.5q0 17 12.5 30t30.5 13t30.5 -13t12.5 -30q0 -18 -12.5 -30.5t-30.5 -12.5z" />
    <glyph glyph-name="D.salt" horiz-adv-x="838" 
d="M223 700v-700h-65v700h65zM161 0h-80l1 10h6h6q26 0 45 18.5t19 44.5h3v-73zM420 0h-225v30h23h56.5h67h56h22.5q85 0 149 40t99.5 112t35.5 168t-35.5 167.5t-99 111.5t-149.5 40h-19.5t-49 0.5t-60.5 0.5h-54.5h-31.5q-80 2 -131.5 -7t-82.5 -26t-48.5 -39.5
t-31.5 -47.5l-11 4q20 60 56.5 91.5t94.5 44t143 13.5q47 1 103 0t123 -3q107 -2 187.5 -46t126 -121.5t45.5 -182.5t-45.5 -183.5t-126 -122.5t-187.5 -44z" />
    <glyph glyph-name="Dcaron.salt" horiz-adv-x="838" 
d="M223 700v-700h-65v700h65zM161 0h-80l1 10h6h6q26 0 45 18.5t19 44.5h3v-73zM420 0h-225v30h23h56.5h67h56h22.5q85 0 149 40t99.5 112t35.5 168t-35.5 167.5t-99 111.5t-149.5 40h-19.5t-49 0.5t-60.5 0.5h-54.5h-31.5q-80 2 -131.5 -7t-82.5 -26t-48.5 -39.5
t-31.5 -47.5l-11 4q20 60 56.5 91.5t94.5 44t143 13.5q47 1 103 0t123 -3q107 -2 187.5 -46t126 -121.5t45.5 -182.5t-45.5 -183.5t-126 -122.5t-187.5 -44zM531 883l-6 8l-105 -66l-113 66l-6 -8l114 -119h10z" />
    <glyph glyph-name="Dcroat.salt" horiz-adv-x="838" 
d="M223 700v-700h-65v700h65zM161 0h-80l1 10h6h6q26 0 45 18.5t19 44.5h3v-73zM420 0h-225v30h23h56.5h67h56h22.5q85 0 149 40t99.5 112t35.5 168t-35.5 167.5t-99 111.5t-149.5 40h-19.5t-49 0.5t-60.5 0.5h-54.5h-31.5q-80 2 -131.5 -7t-82.5 -26t-48.5 -39.5
t-31.5 -47.5l-11 4q20 60 56.5 91.5t94.5 44t143 13.5q47 1 103 0t123 -3q107 -2 187.5 -46t126 -121.5t45.5 -182.5t-45.5 -183.5t-126 -122.5t-187.5 -44zM298 830h250v-35h-250v35z" />
    <glyph glyph-name="E.salt" horiz-adv-x="607" 
d="M202 700v-700h-65v700h65zM542 31v-31h-343v31h343zM450 360v-30h-251v30h251zM382 700v-31h-183v31h183zM603 162l-58 -162h-166l36 31q53 0 86.5 16.5t55 46.5t36.5 68h10zM450 332v-66h-10v15q0 20 -14 34.5t-34 14.5v2h58zM450 424v-66h-58v2q20 1 34 15.5t14 34.5
v14h10zM382 672v-80h-10v18q0 24 -17 41.5t-42 18.5v2h69zM382 718v-29l-122 11q22 0 46.5 3t45.5 7t30 8zM140 73v-73h-80v10h6.5h6.5q26 0 44.5 18.5t19.5 44.5h3zM140 627h-3q0 26 -19 44.5t-45 18.5h-6h-6l-1 10h80v-73z" />
    <glyph glyph-name="Eacute.salt" horiz-adv-x="607" 
d="M202 700v-700h-65v700h65zM542 31v-31h-343v31h343zM450 360v-30h-251v30h251zM382 700v-31h-183v31h183zM603 162l-58 -162h-166l36 31q53 0 86.5 16.5t55 46.5t36.5 68h10zM450 332v-66h-10v15q0 20 -14 34.5t-34 14.5v2h58zM450 424v-66h-58v2q20 1 34 15.5t14 34.5
v14h10zM382 672v-80h-10v18q0 24 -17 41.5t-42 18.5v2h69zM382 718v-29l-122 11q22 0 46.5 3t45.5 7t30 8zM140 73v-73h-80v10h6.5h6.5q26 0 44.5 18.5t19.5 44.5h3zM140 627h-3q0 26 -19 44.5t-45 18.5h-6h-6l-1 10h80v-73zM242 771q21 23 42 45.5t42.5 44t42.5 41.5
q11 -12 22 -25t19 -28l-54 -30t-53.5 -28.5t-53.5 -26.5z" />
    <glyph glyph-name="Ecaron.salt" horiz-adv-x="607" 
d="M202 700v-700h-65v700h65zM542 31v-31h-343v31h343zM450 360v-30h-251v30h251zM382 700v-31h-183v31h183zM603 162l-58 -162h-166l36 31q53 0 86.5 16.5t55 46.5t36.5 68h10zM450 332v-66h-10v15q0 20 -14 34.5t-34 14.5v2h58zM450 424v-66h-58v2q20 1 34 15.5t14 34.5
v14h10zM382 672v-80h-10v18q0 24 -17 41.5t-42 18.5v2h69zM382 718v-29l-122 11q22 0 46.5 3t45.5 7t30 8zM140 73v-73h-80v10h6.5h6.5q26 0 44.5 18.5t19.5 44.5h3zM140 627h-3q0 26 -19 44.5t-45 18.5h-6h-6l-1 10h80v-73zM359 883l-6 8l-105 -66l-113 66l-6 -8l114 -119
h10z" />
    <glyph glyph-name="Ecircumflex.salt" horiz-adv-x="607" 
d="M202 700v-700h-65v700h65zM542 31v-31h-343v31h343zM450 360v-30h-251v30h251zM382 700v-31h-183v31h183zM603 162l-58 -162h-166l36 31q53 0 86.5 16.5t55 46.5t36.5 68h10zM450 332v-66h-10v15q0 20 -14 34.5t-34 14.5v2h58zM450 424v-66h-58v2q20 1 34 15.5t14 34.5
v14h10zM382 672v-80h-10v18q0 24 -17 41.5t-42 18.5v2h69zM382 718v-29l-122 11q22 0 46.5 3t45.5 7t30 8zM140 73v-73h-80v10h6.5h6.5q26 0 44.5 18.5t19.5 44.5h3zM140 627h-3q0 26 -19 44.5t-45 18.5h-6h-6l-1 10h80v-73zM137 771l6 -8l104 66l114 -66l6 8l-114 119h-10z
" />
    <glyph glyph-name="Edieresis.salt" horiz-adv-x="607" 
d="M202 700v-700h-65v700h65zM542 31v-31h-343v31h343zM450 360v-30h-251v30h251zM382 700v-31h-183v31h183zM603 162l-58 -162h-166l36 31q53 0 86.5 16.5t55 46.5t36.5 68h10zM450 332v-66h-10v15q0 20 -14 34.5t-34 14.5v2h58zM450 424v-66h-58v2q20 1 34 15.5t14 34.5
v14h10zM382 672v-80h-10v18q0 24 -17 41.5t-42 18.5v2h69zM382 718v-29l-122 11q22 0 46.5 3t45.5 7t30 8zM140 73v-73h-80v10h6.5h6.5q26 0 44.5 18.5t19.5 44.5h3zM140 627h-3q0 26 -19 44.5t-45 18.5h-6h-6l-1 10h80v-73zM154 764q-16 0 -27.5 11.5t-11.5 27.5
q0 17 11.5 28t27.5 11q17 0 28 -11t11 -28q0 -16 -11 -27.5t-28 -11.5zM343 764q-16 0 -27.5 11.5t-11.5 27.5q0 17 11.5 28t27.5 11t27.5 -11t11.5 -28q0 -16 -11.5 -27.5t-27.5 -11.5z" />
    <glyph glyph-name="Edotaccent.salt" horiz-adv-x="607" 
d="M202 700v-700h-65v700h65zM542 31v-31h-343v31h343zM450 360v-30h-251v30h251zM382 700v-31h-183v31h183zM603 162l-58 -162h-166l36 31q53 0 86.5 16.5t55 46.5t36.5 68h10zM450 332v-66h-10v15q0 20 -14 34.5t-34 14.5v2h58zM450 424v-66h-58v2q20 1 34 15.5t14 34.5
v14h10zM382 672v-80h-10v18q0 24 -17 41.5t-42 18.5v2h69zM382 718v-29l-122 11q22 0 46.5 3t45.5 7t30 8zM140 73v-73h-80v10h6.5h6.5q26 0 44.5 18.5t19.5 44.5h3zM140 627h-3q0 26 -19 44.5t-45 18.5h-6h-6l-1 10h80v-73zM247 765q-18 0 -30.5 12.5t-12.5 30.5
q0 17 12.5 30t30.5 13t30.5 -13t12.5 -30q0 -18 -12.5 -30.5t-30.5 -12.5z" />
    <glyph glyph-name="Egrave.salt" horiz-adv-x="607" 
d="M202 700v-700h-65v700h65zM542 31v-31h-343v31h343zM450 360v-30h-251v30h251zM382 700v-31h-183v31h183zM603 162l-58 -162h-166l36 31q53 0 86.5 16.5t55 46.5t36.5 68h10zM450 332v-66h-10v15q0 20 -14 34.5t-34 14.5v2h58zM450 424v-66h-58v2q20 1 34 15.5t14 34.5
v14h10zM382 672v-80h-10v18q0 24 -17 41.5t-42 18.5v2h69zM382 718v-29l-122 11q22 0 46.5 3t45.5 7t30 8zM140 73v-73h-80v10h6.5h6.5q26 0 44.5 18.5t19.5 44.5h3zM140 627h-3q0 26 -19 44.5t-45 18.5h-6h-6l-1 10h80v-73zM256 771l-7 -7q-27 13 -54 26.5t-53.5 28.5
t-53.5 30q8 16 18.5 29t22.5 24q21 -20 42 -41.5t42.5 -43.5t42.5 -46z" />
    <glyph glyph-name="Emacron.salt" horiz-adv-x="607" 
d="M202 700v-700h-65v700h65zM542 31v-31h-343v31h343zM450 360v-30h-251v30h251zM382 700v-31h-183v31h183zM603 162l-58 -162h-166l36 31q53 0 86.5 16.5t55 46.5t36.5 68h10zM450 332v-66h-10v15q0 20 -14 34.5t-34 14.5v2h58zM450 424v-66h-58v2q20 1 34 15.5t14 34.5
v14h10zM382 672v-80h-10v18q0 24 -17 41.5t-42 18.5v2h69zM382 718v-29l-122 11q22 0 46.5 3t45.5 7t30 8zM140 73v-73h-80v10h6.5h6.5q26 0 44.5 18.5t19.5 44.5h3zM140 627h-3q0 26 -19 44.5t-45 18.5h-6h-6l-1 10h80v-73zM126 830h250v-35h-250v35z" />
    <glyph glyph-name="Eng.salt" horiz-adv-x="819" 
d="M117 65v-65h-72v13h8h8q22 0 37.5 15t15.5 37h3zM113 675l46 -16l1 -659h-46zM160 65q0 -22 15.5 -37t37.5 -15h8h8v-13h-72v65h3zM168 558q-17 19 -39.5 48.5t-51.5 61.5t-64 57t-77 35t-90 -4l-4 10q60 25 110.5 21t93.5 -28t80 -59t71 -72l499 -532l7 -109zM705 -32
q0 -40 -10.5 -70t-28.5 -50t-41 -32t-48 -17l-5 8q16 7 31.5 20t28.5 32.5t20.5 47t7.5 63.5v730h45v-732zM590 700h72v-65h-3q0 22 -15.5 37t-37.5 15h-8h-8v13zM774 700v-13h-8h-8q-22 0 -37.5 -15t-15.5 -37h-3v65h72z" />
    <glyph glyph-name="Eogonek.salt" horiz-adv-x="607" 
d="M202 700v-700h-65v700h65zM542 31v-31h-343v31h343zM450 360v-30h-251v30h251zM382 700v-31h-183v31h183zM603 162l-58 -162h-166l36 31q53 0 86.5 16.5t55 46.5t36.5 68h10zM450 332v-66h-10v15q0 20 -14 34.5t-34 14.5v2h58zM450 424v-66h-58v2q20 1 34 15.5t14 34.5
v14h10zM382 672v-80h-10v18q0 24 -17 41.5t-42 18.5v2h69zM382 718v-29l-122 11q22 0 46.5 3t45.5 7t30 8zM140 73v-73h-80v10h6.5h6.5q26 0 44.5 18.5t19.5 44.5h3zM140 627h-3q0 26 -19 44.5t-45 18.5h-6h-6l-1 10h80v-73zM531 3l10 -3q-42 -10 -59 -29.5t-16 -48.5
q1 -28 21 -47t48.5 -19.5t52.5 24.5l6 -6q-9 -25 -29 -39t-44.5 -17t-47.5 6t-38 30.5t-15 56.5q0 27 15 47.5t40.5 32.5t55.5 12z" />
    <glyph glyph-name="Eth.salt" horiz-adv-x="838" 
d="M81 365h310v-30h-310v30zM223 700v-700h-65v700h65zM161 0h-80l1 10h6h6q26 0 45 18.5t19 44.5h3v-73zM420 0h-225v30h23h56.5h67h56h22.5q85 0 149 40t99.5 112t35.5 168t-35.5 167.5t-99 111.5t-149.5 40h-19.5t-49 0.5t-60.5 0.5h-54.5h-31.5q-80 0 -131.5 -9
t-82.5 -25.5t-48.5 -38.5t-31.5 -47l-11 4q20 59 55.5 90.5t92 44t138.5 14.5q48 1 106 0t128 -3q107 -2 187.5 -46t126 -121.5t45.5 -182.5t-45.5 -183.5t-126 -122.5t-187.5 -44z" />
    <glyph glyph-name="F.salt" horiz-adv-x="579" 
d="M202 700v-700h-65v700h65zM579 360v-30h-410v30h410zM472 700v-31h-273v31h273zM579 332v-66h-10v15q0 20 -14 34.5t-34 14.5v2h58zM579 424v-66h-58v2q20 1 34 15.5t14 34.5v14h10zM472 672v-67h-10v15q0 20 -14.5 34.5t-34.5 14.5v3h59zM472 718v-29l-122 11
q22 0 46.5 3t45.5 7t30 8zM140 73v-73h-80v10h6.5h6.5q26 0 44.5 18.5t19.5 44.5h3zM140 627h-3q0 26 -19 44.5t-45 18.5h-6h-6l-1 10h80v-73zM199 73h3q1 -26 19.5 -44.5t44.5 -18.5h6h7v-10h-80v73z" />
    <glyph glyph-name="G.salt" horiz-adv-x="846" 
d="M449 714q55 0 99 -9t79.5 -24.5t64.5 -34.5l20 -141h-9q-15 58 -49.5 97.5t-86.5 60.5t-118 21q-89 0 -160.5 -42.5t-112.5 -118t-41 -173.5q0 -72 23.5 -132.5t66 -105.5t100 -70.5t124.5 -25.5q65 0 124 23.5t101 63.5v177q0 22 -13 33.5t-37 11.5h-16v10h196v-10h-15
q-52 0 -50 -45v-165q-23 -30 -62 -60t-95.5 -49.5t-132.5 -19.5q-83 0 -154 27.5t-123.5 77t-82 115.5t-29.5 144q0 80 29.5 146.5t82 115.5t123.5 75.5t154 26.5zM739 126q3 -79 29.5 -136t74.5 -90.5t116.5 -43t156.5 4.5l1 -10q-76 -25 -142.5 -25.5t-120.5 21
t-93.5 61.5t-62 94.5t-24.5 120.5z" />
    <glyph glyph-name="Gbreve.salt" horiz-adv-x="846" 
d="M449 714q55 0 99 -9t79.5 -24.5t64.5 -34.5l20 -141h-9q-15 58 -49.5 97.5t-86.5 60.5t-118 21q-89 0 -160.5 -42.5t-112.5 -118t-41 -173.5q0 -72 23.5 -132.5t66 -105.5t100 -70.5t124.5 -25.5q65 0 124 23.5t101 63.5v177q0 22 -13 33.5t-37 11.5h-16v10h196v-10h-15
q-52 0 -50 -45v-165q-23 -30 -62 -60t-95.5 -49.5t-132.5 -19.5q-83 0 -154 27.5t-123.5 77t-82 115.5t-29.5 144q0 80 29.5 146.5t82 115.5t123.5 75.5t154 26.5zM739 126q3 -79 29.5 -136t74.5 -90.5t116.5 -43t156.5 4.5l1 -10q-76 -25 -142.5 -25.5t-120.5 21
t-93.5 61.5t-62 94.5t-24.5 120.5zM552 868q0 -28 -14 -52t-37.5 -38t-51.5 -14t-51.5 14t-37.5 38t-14 52h10q8 -20 33.5 -37t59.5 -17q35 0 60.5 17t32.5 37h10z" />
    <glyph glyph-name="uni0122.001" horiz-adv-x="846" 
d="M449 714q55 0 99 -9t79.5 -24.5t64.5 -34.5l20 -141h-9q-15 58 -49.5 97.5t-86.5 60.5t-118 21q-89 0 -160.5 -42.5t-112.5 -118t-41 -173.5q0 -72 23.5 -132.5t66 -105.5t100 -70.5t124.5 -25.5q65 0 124 23.5t101 63.5v177q0 22 -13 33.5t-37 11.5h-16v10h196v-10h-15
q-52 0 -50 -45v-165q-23 -30 -62 -60t-95.5 -49.5t-132.5 -19.5q-83 0 -154 27.5t-123.5 77t-82 115.5t-29.5 144q0 80 29.5 146.5t82 115.5t123.5 75.5t154 26.5zM739 126q3 -79 29.5 -136t74.5 -90.5t116.5 -43t156.5 4.5l1 -10q-76 -25 -142.5 -25.5t-120.5 21
t-93.5 61.5t-62 94.5t-24.5 120.5zM419 -92q0 14 9.5 21t21.5 7q23 0 32.5 -21.5t9.5 -40.5q0 -34 -23 -57t-54 -25l-2 7q21 7 29.5 19t8.5 24q0 9 -3 17t-8 13q-6 8 -13.5 16.5t-7.5 19.5z" />
    <glyph glyph-name="Gdotaccent.salt" horiz-adv-x="846" 
d="M449 714q55 0 99 -9t79.5 -24.5t64.5 -34.5l20 -141h-9q-15 58 -49.5 97.5t-86.5 60.5t-118 21q-89 0 -160.5 -42.5t-112.5 -118t-41 -173.5q0 -72 23.5 -132.5t66 -105.5t100 -70.5t124.5 -25.5q65 0 124 23.5t101 63.5v177q0 22 -13 33.5t-37 11.5h-16v10h196v-10h-15
q-52 0 -50 -45v-165q-23 -30 -62 -60t-95.5 -49.5t-132.5 -19.5q-83 0 -154 27.5t-123.5 77t-82 115.5t-29.5 144q0 80 29.5 146.5t82 115.5t123.5 75.5t154 26.5zM739 126q3 -79 29.5 -136t74.5 -90.5t116.5 -43t156.5 4.5l1 -10q-76 -25 -142.5 -25.5t-120.5 21
t-93.5 61.5t-62 94.5t-24.5 120.5zM448 765q-18 0 -30.5 12.5t-12.5 30.5q0 17 12.5 30t30.5 13t30.5 -13t12.5 -30q0 -18 -12.5 -30.5t-30.5 -12.5z" />
    <glyph glyph-name="H.salt" horiz-adv-x="813" 
d="M151 627h-3q0 26 -19 44.5t-45 18.5h-6h-6v10h79v-73zM213 700v-630q0 -46 -6.5 -79.5t-19.5 -58t-31 -40.5t-41 -26.5t-50 -16.5l-5 9q22 12 38.5 29.5t27.5 43t16.5 60t5.5 79.5v630h65zM210 627v73h80v-10h-6h-7q-26 0 -44.5 -18.5t-19.5 -44.5h-3zM632 361v-30h-429
v30h429zM602 73v-73h-79v10h6h7q26 0 44.5 18.5t19.5 44.5h2zM599 0l1 610q0 57 10.5 96t30 63.5t47 39t61.5 22.5l5 -9q-22 -12 -38.5 -29.5t-27.5 -43t-17 -60t-6 -79.5l-1 -610h-65zM662 73h3q0 -26 19 -44.5t45 -18.5h6h6v-10h-79v73z" />
    <glyph glyph-name="H_E" horiz-adv-x="1051" 
d="M676 700v-700h-65v700h65zM202 700v-700h-65v700h65zM620 361v-30h-428v30h428zM140 73v-73h-80v10h6.5h6.5q26 0 44.5 18.5t19.5 44.5h3zM140 627h-3q-1 26 -19.5 44.5t-44.5 18.5h-6.5h-6.5v10h80v-73zM199 73h3q1 -26 19.5 -44.5t44.5 -18.5h6h7v-10h-80v73zM199 627
v73h80v-10h-7h-6q-26 0 -44.5 -18.5t-19.5 -44.5h-3zM614 73v-73h-80v10h7h6q26 0 45 18.5t19 44.5h3zM614 627h-3q0 26 -19 44.5t-45 18.5h-6h-7v10h80v-73zM946 31v-31h-273v31h273zM903 360v-30h-230v30h230zM946 700v-31h-273v31h273zM1007 162l-58 -162h-166l36 31
q53 0 86.5 16.5t55 46.5t36.5 68h10zM903 332v-66h-10v15q0 20 -14 34.5t-34 14.5v2h58zM903 424v-66h-58v2q20 1 34 15.5t14 34.5v14h10zM946 672v-80h-10v18q0 24 -17 41.5t-42 18.5v2h69zM946 718v-29l-122 11q22 0 46.5 3t45.5 7t30 8zM614 73v-73h-80v10h6.5h6.5
q26 0 44.5 18.5t19.5 44.5h3zM614 627h-3q0 26 -19 44.5t-45 18.5h-6h-6l-1 10h80v-73z" />
    <glyph glyph-name="H_E.salt" horiz-adv-x="1081" 
d="M676 700v-700h-65v700h65zM202 700v-700h-65v700h65zM620 361v-30h-428v30h428zM140 73v-73h-80v10h6.5h6.5q26 0 44.5 18.5t19.5 44.5h3zM140 627h-3q-1 26 -19.5 44.5t-44.5 18.5h-6.5h-6.5v10h80v-73zM199 73h3q1 -26 19.5 -44.5t44.5 -18.5h6h7v-10h-80v73zM199 627
v73h80v-10h-7h-6q-26 0 -44.5 -18.5t-19.5 -44.5h-3zM614 73v-73h-80v10h7h6q26 0 45 18.5t19 44.5h3zM614 627h-3q0 26 -19 44.5t-45 18.5h-6h-7v10h80v-73zM676 700v-700h-65v700h65zM1016 31v-31h-343v31h343zM924 360v-30h-251v30h251zM856 700v-31h-183v31h183z
M1077 162l-58 -162h-166l36 31q53 0 86.5 16.5t55 46.5t36.5 68h10zM924 332v-66h-10v15q0 20 -14 34.5t-34 14.5v2h58zM924 424v-66h-58v2q20 1 34 15.5t14 34.5v14h10zM856 672v-80h-10v18q0 24 -17 41.5t-42 18.5v2h69zM856 718v-29l-122 11q22 0 46.5 3t45.5 7t30 8z
M614 73v-73h-80v10h6.5h6.5q26 0 44.5 18.5t19.5 44.5h3zM614 627h-3q0 26 -19 44.5t-45 18.5h-6h-6l-1 10h80v-73z" />
    <glyph glyph-name="H_Eacute" horiz-adv-x="1051" 
d="M676 700v-700h-65v700h65zM202 700v-700h-65v700h65zM620 361v-30h-428v30h428zM140 73v-73h-80v10h6.5h6.5q26 0 44.5 18.5t19.5 44.5h3zM140 627h-3q-1 26 -19.5 44.5t-44.5 18.5h-6.5h-6.5v10h80v-73zM199 73h3q1 -26 19.5 -44.5t44.5 -18.5h6h7v-10h-80v73zM199 627
v73h80v-10h-7h-6q-26 0 -44.5 -18.5t-19.5 -44.5h-3zM614 73v-73h-80v10h7h6q26 0 45 18.5t19 44.5h3zM614 627h-3q0 26 -19 44.5t-45 18.5h-6h-7v10h80v-73zM946 31v-31h-273v31h273zM903 360v-30h-230v30h230zM946 700v-31h-273v31h273zM1007 162l-58 -162h-166l36 31
q53 0 86.5 16.5t55 46.5t36.5 68h10zM903 332v-66h-10v15q0 20 -14 34.5t-34 14.5v2h58zM903 424v-66h-58v2q20 1 34 15.5t14 34.5v14h10zM946 672v-80h-10v18q0 24 -17 41.5t-42 18.5v2h69zM946 718v-29l-122 11q22 0 46.5 3t45.5 7t30 8zM614 73v-73h-80v10h6.5h6.5
q26 0 44.5 18.5t19.5 44.5h3zM614 627h-3q0 26 -19 44.5t-45 18.5h-6h-6l-1 10h80v-73zM766 771q21 23 42 45.5t42.5 44t42.5 41.5q11 -12 22 -25t19 -28l-54 -30t-53.5 -28.5t-53.5 -26.5z" />
    <glyph glyph-name="H_Eacute.salt" horiz-adv-x="1081" 
d="M676 700v-700h-65v700h65zM202 700v-700h-65v700h65zM620 361v-30h-428v30h428zM140 73v-73h-80v10h6.5h6.5q26 0 44.5 18.5t19.5 44.5h3zM140 627h-3q-1 26 -19.5 44.5t-44.5 18.5h-6.5h-6.5v10h80v-73zM199 73h3q1 -26 19.5 -44.5t44.5 -18.5h6h7v-10h-80v73zM199 627
v73h80v-10h-7h-6q-26 0 -44.5 -18.5t-19.5 -44.5h-3zM614 73v-73h-80v10h7h6q26 0 45 18.5t19 44.5h3zM614 627h-3q0 26 -19 44.5t-45 18.5h-6h-7v10h80v-73zM676 700v-700h-65v700h65zM1016 31v-31h-343v31h343zM924 360v-30h-251v30h251zM856 700v-31h-183v31h183z
M1077 162l-58 -162h-166l36 31q53 0 86.5 16.5t55 46.5t36.5 68h10zM924 332v-66h-10v15q0 20 -14 34.5t-34 14.5v2h58zM924 424v-66h-58v2q20 1 34 15.5t14 34.5v14h10zM856 672v-80h-10v18q0 24 -17 41.5t-42 18.5v2h69zM856 718v-29l-122 11q22 0 46.5 3t45.5 7t30 8z
M614 73v-73h-80v10h6.5h6.5q26 0 44.5 18.5t19.5 44.5h3zM614 627h-3q0 26 -19 44.5t-45 18.5h-6h-6l-1 10h80v-73zM715 771q21 23 42 45.5t42.5 44t42.5 41.5q11 -12 22 -25t19 -28l-54 -30t-53.5 -28.5t-53.5 -26.5z" />
    <glyph glyph-name="H_Ecaron" horiz-adv-x="1051" 
d="M676 700v-700h-65v700h65zM202 700v-700h-65v700h65zM620 361v-30h-428v30h428zM140 73v-73h-80v10h6.5h6.5q26 0 44.5 18.5t19.5 44.5h3zM140 627h-3q-1 26 -19.5 44.5t-44.5 18.5h-6.5h-6.5v10h80v-73zM199 73h3q1 -26 19.5 -44.5t44.5 -18.5h6h7v-10h-80v73zM199 627
v73h80v-10h-7h-6q-26 0 -44.5 -18.5t-19.5 -44.5h-3zM614 73v-73h-80v10h7h6q26 0 45 18.5t19 44.5h3zM614 627h-3q0 26 -19 44.5t-45 18.5h-6h-7v10h80v-73zM946 31v-31h-273v31h273zM903 360v-30h-230v30h230zM946 700v-31h-273v31h273zM1007 162l-58 -162h-166l36 31
q53 0 86.5 16.5t55 46.5t36.5 68h10zM903 332v-66h-10v15q0 20 -14 34.5t-34 14.5v2h58zM903 424v-66h-58v2q20 1 34 15.5t14 34.5v14h10zM946 672v-80h-10v18q0 24 -17 41.5t-42 18.5v2h69zM946 718v-29l-122 11q22 0 46.5 3t45.5 7t30 8zM614 73v-73h-80v10h6.5h6.5
q26 0 44.5 18.5t19.5 44.5h3zM614 627h-3q0 26 -19 44.5t-45 18.5h-6h-6l-1 10h80v-73zM883 883l-6 8l-105 -66l-113 66l-6 -8l114 -119h10z" />
    <glyph glyph-name="H_Ecaron.salt" horiz-adv-x="1081" 
d="M676 700v-700h-65v700h65zM202 700v-700h-65v700h65zM620 361v-30h-428v30h428zM140 73v-73h-80v10h6.5h6.5q26 0 44.5 18.5t19.5 44.5h3zM140 627h-3q-1 26 -19.5 44.5t-44.5 18.5h-6.5h-6.5v10h80v-73zM199 73h3q1 -26 19.5 -44.5t44.5 -18.5h6h7v-10h-80v73zM199 627
v73h80v-10h-7h-6q-26 0 -44.5 -18.5t-19.5 -44.5h-3zM614 73v-73h-80v10h7h6q26 0 45 18.5t19 44.5h3zM614 627h-3q0 26 -19 44.5t-45 18.5h-6h-7v10h80v-73zM676 700v-700h-65v700h65zM1016 31v-31h-343v31h343zM924 360v-30h-251v30h251zM856 700v-31h-183v31h183z
M1077 162l-58 -162h-166l36 31q53 0 86.5 16.5t55 46.5t36.5 68h10zM924 332v-66h-10v15q0 20 -14 34.5t-34 14.5v2h58zM924 424v-66h-58v2q20 1 34 15.5t14 34.5v14h10zM856 672v-80h-10v18q0 24 -17 41.5t-42 18.5v2h69zM856 718v-29l-122 11q22 0 46.5 3t45.5 7t30 8z
M614 73v-73h-80v10h6.5h6.5q26 0 44.5 18.5t19.5 44.5h3zM614 627h-3q0 26 -19 44.5t-45 18.5h-6h-6l-1 10h80v-73zM833 883l-6 8l-105 -66l-113 66l-6 -8l114 -119h10z" />
    <glyph glyph-name="H_Ecircumflex" horiz-adv-x="1051" 
d="M676 700v-700h-65v700h65zM202 700v-700h-65v700h65zM620 361v-30h-428v30h428zM140 73v-73h-80v10h6.5h6.5q26 0 44.5 18.5t19.5 44.5h3zM140 627h-3q-1 26 -19.5 44.5t-44.5 18.5h-6.5h-6.5v10h80v-73zM199 73h3q1 -26 19.5 -44.5t44.5 -18.5h6h7v-10h-80v73zM199 627
v73h80v-10h-7h-6q-26 0 -44.5 -18.5t-19.5 -44.5h-3zM614 73v-73h-80v10h7h6q26 0 45 18.5t19 44.5h3zM614 627h-3q0 26 -19 44.5t-45 18.5h-6h-7v10h80v-73zM946 31v-31h-273v31h273zM903 360v-30h-230v30h230zM946 700v-31h-273v31h273zM1007 162l-58 -162h-166l36 31
q53 0 86.5 16.5t55 46.5t36.5 68h10zM903 332v-66h-10v15q0 20 -14 34.5t-34 14.5v2h58zM903 424v-66h-58v2q20 1 34 15.5t14 34.5v14h10zM946 672v-80h-10v18q0 24 -17 41.5t-42 18.5v2h69zM946 718v-29l-122 11q22 0 46.5 3t45.5 7t30 8zM614 73v-73h-80v10h6.5h6.5
q26 0 44.5 18.5t19.5 44.5h3zM614 627h-3q0 26 -19 44.5t-45 18.5h-6h-6l-1 10h80v-73zM661 771l6 -8l104 66l114 -66l6 8l-114 119h-10z" />
    <glyph glyph-name="H_Ecircumflex.salt" horiz-adv-x="1081" 
d="M676 700v-700h-65v700h65zM202 700v-700h-65v700h65zM620 361v-30h-428v30h428zM140 73v-73h-80v10h6.5h6.5q26 0 44.5 18.5t19.5 44.5h3zM140 627h-3q-1 26 -19.5 44.5t-44.5 18.5h-6.5h-6.5v10h80v-73zM199 73h3q1 -26 19.5 -44.5t44.5 -18.5h6h7v-10h-80v73zM199 627
v73h80v-10h-7h-6q-26 0 -44.5 -18.5t-19.5 -44.5h-3zM614 73v-73h-80v10h7h6q26 0 45 18.5t19 44.5h3zM614 627h-3q0 26 -19 44.5t-45 18.5h-6h-7v10h80v-73zM676 700v-700h-65v700h65zM1016 31v-31h-343v31h343zM924 360v-30h-251v30h251zM856 700v-31h-183v31h183z
M1077 162l-58 -162h-166l36 31q53 0 86.5 16.5t55 46.5t36.5 68h10zM924 332v-66h-10v15q0 20 -14 34.5t-34 14.5v2h58zM924 424v-66h-58v2q20 1 34 15.5t14 34.5v14h10zM856 672v-80h-10v18q0 24 -17 41.5t-42 18.5v2h69zM856 718v-29l-122 11q22 0 46.5 3t45.5 7t30 8z
M614 73v-73h-80v10h6.5h6.5q26 0 44.5 18.5t19.5 44.5h3zM614 627h-3q0 26 -19 44.5t-45 18.5h-6h-6l-1 10h80v-73zM611 771l6 -8l104 66l114 -66l6 8l-114 119h-10z" />
    <glyph glyph-name="H_Edieresis" horiz-adv-x="1051" 
d="M676 700v-700h-65v700h65zM202 700v-700h-65v700h65zM620 361v-30h-428v30h428zM140 73v-73h-80v10h6.5h6.5q26 0 44.5 18.5t19.5 44.5h3zM140 627h-3q-1 26 -19.5 44.5t-44.5 18.5h-6.5h-6.5v10h80v-73zM199 73h3q1 -26 19.5 -44.5t44.5 -18.5h6h7v-10h-80v73zM199 627
v73h80v-10h-7h-6q-26 0 -44.5 -18.5t-19.5 -44.5h-3zM614 73v-73h-80v10h7h6q26 0 45 18.5t19 44.5h3zM614 627h-3q0 26 -19 44.5t-45 18.5h-6h-7v10h80v-73zM946 31v-31h-273v31h273zM903 360v-30h-230v30h230zM946 700v-31h-273v31h273zM1007 162l-58 -162h-166l36 31
q53 0 86.5 16.5t55 46.5t36.5 68h10zM903 332v-66h-10v15q0 20 -14 34.5t-34 14.5v2h58zM903 424v-66h-58v2q20 1 34 15.5t14 34.5v14h10zM946 672v-80h-10v18q0 24 -17 41.5t-42 18.5v2h69zM946 718v-29l-122 11q22 0 46.5 3t45.5 7t30 8zM614 73v-73h-80v10h6.5h6.5
q26 0 44.5 18.5t19.5 44.5h3zM614 627h-3q0 26 -19 44.5t-45 18.5h-6h-6l-1 10h80v-73zM678 764q-16 0 -27.5 11.5t-11.5 27.5q0 17 11.5 28t27.5 11q17 0 28 -11t11 -28q0 -16 -11 -27.5t-28 -11.5zM867 764q-16 0 -27.5 11.5t-11.5 27.5q0 17 11.5 28t27.5 11t27.5 -11
t11.5 -28q0 -16 -11.5 -27.5t-27.5 -11.5z" />
    <glyph glyph-name="H_Edieresis.salt" horiz-adv-x="1081" 
d="M676 700v-700h-65v700h65zM202 700v-700h-65v700h65zM620 361v-30h-428v30h428zM140 73v-73h-80v10h6.5h6.5q26 0 44.5 18.5t19.5 44.5h3zM140 627h-3q-1 26 -19.5 44.5t-44.5 18.5h-6.5h-6.5v10h80v-73zM199 73h3q1 -26 19.5 -44.5t44.5 -18.5h6h7v-10h-80v73zM199 627
v73h80v-10h-7h-6q-26 0 -44.5 -18.5t-19.5 -44.5h-3zM614 73v-73h-80v10h7h6q26 0 45 18.5t19 44.5h3zM614 627h-3q0 26 -19 44.5t-45 18.5h-6h-7v10h80v-73zM676 700v-700h-65v700h65zM1016 31v-31h-343v31h343zM924 360v-30h-251v30h251zM856 700v-31h-183v31h183z
M1077 162l-58 -162h-166l36 31q53 0 86.5 16.5t55 46.5t36.5 68h10zM924 332v-66h-10v15q0 20 -14 34.5t-34 14.5v2h58zM924 424v-66h-58v2q20 1 34 15.5t14 34.5v14h10zM856 672v-80h-10v18q0 24 -17 41.5t-42 18.5v2h69zM856 718v-29l-122 11q22 0 46.5 3t45.5 7t30 8z
M614 73v-73h-80v10h6.5h6.5q26 0 44.5 18.5t19.5 44.5h3zM614 627h-3q0 26 -19 44.5t-45 18.5h-6h-6l-1 10h80v-73zM627 764q-16 0 -27.5 11.5t-11.5 27.5q0 17 11.5 28t27.5 11q17 0 28 -11t11 -28q0 -16 -11 -27.5t-28 -11.5zM816 764q-16 0 -27.5 11.5t-11.5 27.5
q0 17 11.5 28t27.5 11t27.5 -11t11.5 -28q0 -16 -11.5 -27.5t-27.5 -11.5z" />
    <glyph glyph-name="H_Edotaccent" horiz-adv-x="1051" 
d="M676 700v-700h-65v700h65zM202 700v-700h-65v700h65zM620 361v-30h-428v30h428zM140 73v-73h-80v10h6.5h6.5q26 0 44.5 18.5t19.5 44.5h3zM140 627h-3q-1 26 -19.5 44.5t-44.5 18.5h-6.5h-6.5v10h80v-73zM199 73h3q1 -26 19.5 -44.5t44.5 -18.5h6h7v-10h-80v73zM199 627
v73h80v-10h-7h-6q-26 0 -44.5 -18.5t-19.5 -44.5h-3zM614 73v-73h-80v10h7h6q26 0 45 18.5t19 44.5h3zM614 627h-3q0 26 -19 44.5t-45 18.5h-6h-7v10h80v-73zM946 31v-31h-273v31h273zM903 360v-30h-230v30h230zM946 700v-31h-273v31h273zM1007 162l-58 -162h-166l36 31
q53 0 86.5 16.5t55 46.5t36.5 68h10zM903 332v-66h-10v15q0 20 -14 34.5t-34 14.5v2h58zM903 424v-66h-58v2q20 1 34 15.5t14 34.5v14h10zM946 672v-80h-10v18q0 24 -17 41.5t-42 18.5v2h69zM946 718v-29l-122 11q22 0 46.5 3t45.5 7t30 8zM614 73v-73h-80v10h6.5h6.5
q26 0 44.5 18.5t19.5 44.5h3zM614 627h-3q0 26 -19 44.5t-45 18.5h-6h-6l-1 10h80v-73zM771 765q-18 0 -30.5 12.5t-12.5 30.5q0 17 12.5 30t30.5 13t30.5 -13t12.5 -30q0 -18 -12.5 -30.5t-30.5 -12.5z" />
    <glyph glyph-name="H_Edotaccent.salt" horiz-adv-x="1081" 
d="M676 700v-700h-65v700h65zM202 700v-700h-65v700h65zM620 361v-30h-428v30h428zM140 73v-73h-80v10h6.5h6.5q26 0 44.5 18.5t19.5 44.5h3zM140 627h-3q-1 26 -19.5 44.5t-44.5 18.5h-6.5h-6.5v10h80v-73zM199 73h3q1 -26 19.5 -44.5t44.5 -18.5h6h7v-10h-80v73zM199 627
v73h80v-10h-7h-6q-26 0 -44.5 -18.5t-19.5 -44.5h-3zM614 73v-73h-80v10h7h6q26 0 45 18.5t19 44.5h3zM614 627h-3q0 26 -19 44.5t-45 18.5h-6h-7v10h80v-73zM676 700v-700h-65v700h65zM1016 31v-31h-343v31h343zM924 360v-30h-251v30h251zM856 700v-31h-183v31h183z
M1077 162l-58 -162h-166l36 31q53 0 86.5 16.5t55 46.5t36.5 68h10zM924 332v-66h-10v15q0 20 -14 34.5t-34 14.5v2h58zM924 424v-66h-58v2q20 1 34 15.5t14 34.5v14h10zM856 672v-80h-10v18q0 24 -17 41.5t-42 18.5v2h69zM856 718v-29l-122 11q22 0 46.5 3t45.5 7t30 8z
M614 73v-73h-80v10h6.5h6.5q26 0 44.5 18.5t19.5 44.5h3zM614 627h-3q0 26 -19 44.5t-45 18.5h-6h-6l-1 10h80v-73zM721 765q-18 0 -30.5 12.5t-12.5 30.5q0 17 12.5 30t30.5 13t30.5 -13t12.5 -30q0 -18 -12.5 -30.5t-30.5 -12.5z" />
    <glyph glyph-name="H_Egrave" horiz-adv-x="1051" 
d="M676 700v-700h-65v700h65zM202 700v-700h-65v700h65zM620 361v-30h-428v30h428zM140 73v-73h-80v10h6.5h6.5q26 0 44.5 18.5t19.5 44.5h3zM140 627h-3q-1 26 -19.5 44.5t-44.5 18.5h-6.5h-6.5v10h80v-73zM199 73h3q1 -26 19.5 -44.5t44.5 -18.5h6h7v-10h-80v73zM199 627
v73h80v-10h-7h-6q-26 0 -44.5 -18.5t-19.5 -44.5h-3zM614 73v-73h-80v10h7h6q26 0 45 18.5t19 44.5h3zM614 627h-3q0 26 -19 44.5t-45 18.5h-6h-7v10h80v-73zM946 31v-31h-273v31h273zM903 360v-30h-230v30h230zM946 700v-31h-273v31h273zM1007 162l-58 -162h-166l36 31
q53 0 86.5 16.5t55 46.5t36.5 68h10zM903 332v-66h-10v15q0 20 -14 34.5t-34 14.5v2h58zM903 424v-66h-58v2q20 1 34 15.5t14 34.5v14h10zM946 672v-80h-10v18q0 24 -17 41.5t-42 18.5v2h69zM946 718v-29l-122 11q22 0 46.5 3t45.5 7t30 8zM614 73v-73h-80v10h6.5h6.5
q26 0 44.5 18.5t19.5 44.5h3zM614 627h-3q0 26 -19 44.5t-45 18.5h-6h-6l-1 10h80v-73zM780 771l-7 -7q-27 13 -54 26.5t-53.5 28.5t-53.5 30q8 16 18.5 29t22.5 24q21 -20 42 -41.5t42.5 -43.5t42.5 -46z" />
    <glyph glyph-name="H_Egrave.salt" horiz-adv-x="1081" 
d="M676 700v-700h-65v700h65zM202 700v-700h-65v700h65zM620 361v-30h-428v30h428zM140 73v-73h-80v10h6.5h6.5q26 0 44.5 18.5t19.5 44.5h3zM140 627h-3q-1 26 -19.5 44.5t-44.5 18.5h-6.5h-6.5v10h80v-73zM199 73h3q1 -26 19.5 -44.5t44.5 -18.5h6h7v-10h-80v73zM199 627
v73h80v-10h-7h-6q-26 0 -44.5 -18.5t-19.5 -44.5h-3zM614 73v-73h-80v10h7h6q26 0 45 18.5t19 44.5h3zM614 627h-3q0 26 -19 44.5t-45 18.5h-6h-7v10h80v-73zM676 700v-700h-65v700h65zM1016 31v-31h-343v31h343zM924 360v-30h-251v30h251zM856 700v-31h-183v31h183z
M1077 162l-58 -162h-166l36 31q53 0 86.5 16.5t55 46.5t36.5 68h10zM924 332v-66h-10v15q0 20 -14 34.5t-34 14.5v2h58zM924 424v-66h-58v2q20 1 34 15.5t14 34.5v14h10zM856 672v-80h-10v18q0 24 -17 41.5t-42 18.5v2h69zM856 718v-29l-122 11q22 0 46.5 3t45.5 7t30 8z
M614 73v-73h-80v10h6.5h6.5q26 0 44.5 18.5t19.5 44.5h3zM614 627h-3q0 26 -19 44.5t-45 18.5h-6h-6l-1 10h80v-73zM729 771l-7 -7q-27 13 -54 26.5t-53.5 28.5t-53.5 30q8 16 18.5 29t22.5 24q21 -20 42 -41.5t42.5 -43.5t42.5 -46z" />
    <glyph glyph-name="H_Emacron" horiz-adv-x="1051" 
d="M676 700v-700h-65v700h65zM202 700v-700h-65v700h65zM620 361v-30h-428v30h428zM140 73v-73h-80v10h6.5h6.5q26 0 44.5 18.5t19.5 44.5h3zM140 627h-3q-1 26 -19.5 44.5t-44.5 18.5h-6.5h-6.5v10h80v-73zM199 73h3q1 -26 19.5 -44.5t44.5 -18.5h6h7v-10h-80v73zM199 627
v73h80v-10h-7h-6q-26 0 -44.5 -18.5t-19.5 -44.5h-3zM614 73v-73h-80v10h7h6q26 0 45 18.5t19 44.5h3zM614 627h-3q0 26 -19 44.5t-45 18.5h-6h-7v10h80v-73zM946 31v-31h-273v31h273zM903 360v-30h-230v30h230zM946 700v-31h-273v31h273zM1007 162l-58 -162h-166l36 31
q53 0 86.5 16.5t55 46.5t36.5 68h10zM903 332v-66h-10v15q0 20 -14 34.5t-34 14.5v2h58zM903 424v-66h-58v2q20 1 34 15.5t14 34.5v14h10zM946 672v-80h-10v18q0 24 -17 41.5t-42 18.5v2h69zM946 718v-29l-122 11q22 0 46.5 3t45.5 7t30 8zM614 73v-73h-80v10h6.5h6.5
q26 0 44.5 18.5t19.5 44.5h3zM614 627h-3q0 26 -19 44.5t-45 18.5h-6h-6l-1 10h80v-73zM650 830h250v-35h-250v35z" />
    <glyph glyph-name="H_Emacron.salt" horiz-adv-x="1081" 
d="M676 700v-700h-65v700h65zM202 700v-700h-65v700h65zM620 361v-30h-428v30h428zM140 73v-73h-80v10h6.5h6.5q26 0 44.5 18.5t19.5 44.5h3zM140 627h-3q-1 26 -19.5 44.5t-44.5 18.5h-6.5h-6.5v10h80v-73zM199 73h3q1 -26 19.5 -44.5t44.5 -18.5h6h7v-10h-80v73zM199 627
v73h80v-10h-7h-6q-26 0 -44.5 -18.5t-19.5 -44.5h-3zM614 73v-73h-80v10h7h6q26 0 45 18.5t19 44.5h3zM614 627h-3q0 26 -19 44.5t-45 18.5h-6h-7v10h80v-73zM676 700v-700h-65v700h65zM1016 31v-31h-343v31h343zM924 360v-30h-251v30h251zM856 700v-31h-183v31h183z
M1077 162l-58 -162h-166l36 31q53 0 86.5 16.5t55 46.5t36.5 68h10zM924 332v-66h-10v15q0 20 -14 34.5t-34 14.5v2h58zM924 424v-66h-58v2q20 1 34 15.5t14 34.5v14h10zM856 672v-80h-10v18q0 24 -17 41.5t-42 18.5v2h69zM856 718v-29l-122 11q22 0 46.5 3t45.5 7t30 8z
M614 73v-73h-80v10h6.5h6.5q26 0 44.5 18.5t19.5 44.5h3zM614 627h-3q0 26 -19 44.5t-45 18.5h-6h-6l-1 10h80v-73zM600 830h250v-35h-250v35z" />
    <glyph glyph-name="H_Eogonek" horiz-adv-x="1051" 
d="M676 700v-700h-65v700h65zM202 700v-700h-65v700h65zM620 361v-30h-428v30h428zM140 73v-73h-80v10h6.5h6.5q26 0 44.5 18.5t19.5 44.5h3zM140 627h-3q-1 26 -19.5 44.5t-44.5 18.5h-6.5h-6.5v10h80v-73zM199 73h3q1 -26 19.5 -44.5t44.5 -18.5h6h7v-10h-80v73zM199 627
v73h80v-10h-7h-6q-26 0 -44.5 -18.5t-19.5 -44.5h-3zM614 73v-73h-80v10h7h6q26 0 45 18.5t19 44.5h3zM614 627h-3q0 26 -19 44.5t-45 18.5h-6h-7v10h80v-73zM946 31v-31h-273v31h273zM903 360v-30h-230v30h230zM946 700v-31h-273v31h273zM1007 162l-58 -162h-166l36 31
q53 0 86.5 16.5t55 46.5t36.5 68h10zM903 332v-66h-10v15q0 20 -14 34.5t-34 14.5v2h58zM903 424v-66h-58v2q20 1 34 15.5t14 34.5v14h10zM946 672v-80h-10v18q0 24 -17 41.5t-42 18.5v2h69zM946 718v-29l-122 11q22 0 46.5 3t45.5 7t30 8zM614 73v-73h-80v10h6.5h6.5
q26 0 44.5 18.5t19.5 44.5h3zM614 627h-3q0 26 -19 44.5t-45 18.5h-6h-6l-1 10h80v-73zM939 3l10 -3q-42 -10 -59 -29.5t-16 -48.5q1 -28 21 -47t48.5 -19.5t52.5 24.5l6 -6q-9 -25 -29 -39t-44.5 -17t-47.5 6t-38 30.5t-15 56.5q0 27 15 47.5t40.5 32.5t55.5 12z" />
    <glyph glyph-name="H_Eogonek.salt" horiz-adv-x="1081" 
d="M676 700v-700h-65v700h65zM202 700v-700h-65v700h65zM620 361v-30h-428v30h428zM140 73v-73h-80v10h6.5h6.5q26 0 44.5 18.5t19.5 44.5h3zM140 627h-3q-1 26 -19.5 44.5t-44.5 18.5h-6.5h-6.5v10h80v-73zM199 73h3q1 -26 19.5 -44.5t44.5 -18.5h6h7v-10h-80v73zM199 627
v73h80v-10h-7h-6q-26 0 -44.5 -18.5t-19.5 -44.5h-3zM614 73v-73h-80v10h7h6q26 0 45 18.5t19 44.5h3zM614 627h-3q0 26 -19 44.5t-45 18.5h-6h-7v10h80v-73zM676 700v-700h-65v700h65zM1016 31v-31h-343v31h343zM924 360v-30h-251v30h251zM856 700v-31h-183v31h183z
M1077 162l-58 -162h-166l36 31q53 0 86.5 16.5t55 46.5t36.5 68h10zM924 332v-66h-10v15q0 20 -14 34.5t-34 14.5v2h58zM924 424v-66h-58v2q20 1 34 15.5t14 34.5v14h10zM856 672v-80h-10v18q0 24 -17 41.5t-42 18.5v2h69zM856 718v-29l-122 11q22 0 46.5 3t45.5 7t30 8z
M614 73v-73h-80v10h6.5h6.5q26 0 44.5 18.5t19.5 44.5h3zM614 627h-3q0 26 -19 44.5t-45 18.5h-6h-6l-1 10h80v-73zM1005 3l10 -3q-42 -10 -59 -29.5t-16 -48.5q1 -28 21 -47t48.5 -19.5t52.5 24.5l6 -6q-9 -25 -29 -39t-44.5 -17t-47.5 6t-38 30.5t-15 56.5q0 27 15 47.5
t40.5 32.5t55.5 12z" />
    </font>
</defs>
</svg>
